#TITLE:MAX INFINITY;
#SUBTITLE:;
#ARTIST:Dragon XVI;
#TITLETRANSLIT:;
#SUBTITLETRANSLIT:;
#ARTISTTRANSLIT:;
#CREDIT:;
#BANNER:;
#BACKGROUND:;
#LYRICSPATH:;
#CDTITLE:;
#MUSIC:MAX INFINITY.ogg;
#OFFSET:-0.045;
#SAMPLESTART:21.985;
#SAMPLELENGTH:11.980;
#SELECTABLE:YES;
#DISPLAYBPM:0.000;
#BPMS:0.000=300.000,80.000=200.000,112.000=100.000,144.000=200.000,192.000=400.000,232.000=50.000,244.000=200.000,253.000=300.000,325.000=250.000,421.000=500.000,485.000=250.000;
#STOPS:232.000=0.900
;
#BGCHANGES:;

//---------------dance-single - ----------------
#NOTES:
     dance-single:
     :
     Challenge:
     20:
     0.946,1.000,0.587,0.259,0.208:
0000
0000
0000
0000
,
0000
0000
0000
0000
,
0000
0000
0000
0000
,
0000
0000
0000
0000
,
1001
0000
0001
0000
1000
0010
1000
0010
,
1000
0000
1010
0000
0001
0100
0010
1000
,
0100
0000
0110
0000
0010
0001
0100
0010
,
1000
1010
0110
0101
,
0010
0000
1010
0000
1000
0100
0010
0001
,
0100
0000
1010
0000
0010
1000
0100
0010
,
0001
0000
1001
0000
0010
1000
0000
1000
,
1010
0101
0110
0000
,
1002
0000
0103
0000
0010
1000
0000
1000
,
2010
0000
3010
0000
0001
0100
0000
0100
,
0120
0000
0130
0000
0010
1000
0000
1000
,
1001
0010
1001
0100
,
0012
0000
0103
0000
0010
1000
0000
1000
,
0001
0010
0100
1000
0100
0010
0001
0100
,
0010
1000
0100
0010
0100
1000
0001
0100
,
0010
1000
0100
0010
0100
1000
0001
0100
,
0010
1000
0010
1000
0001
0100
0001
0100
,
0010
1000
0100
0010
0001
0100
0010
1000
,
0100
0010
0100
1000
0001
0100
0010
1000
,
0100
1000
0001
0100
0010
1000
0100
0010
,
0001
0100
0010
1000
0100
1000
0001
0100
,
0010
1000
0100
1000
0001
0100
0010
1000
,
0100
0010
0001
0100
0010
1000
0100
0010
,
0001
0100
0010
1000
0010
0100
0001
0100
,
1020
1000
1000
1030
0102
0100
0100
0103
,
1020
1000
1000
1030
0102
0100
0100
0103
,
2010
0100
0001
3100
0102
1000
0100
0013
,
0210
0001
0010
0301
1200
0010
1000
0310
,
0002
0010
1000
0013
0120
0100
1000
0130
,
1000
0100
1000
0100
0010
0001
0010
0001
0100
0010
0100
0010
1000
0100
0010
0001
,
0100
0010
1000
0100
0010
0100
1000
0001
0100
0010
1000
0100
0010
0001
0100
0010
,
1000
0100
0010
0100
1000
0001
0100
0010
1000
0100
0010
0001
0100
0010
1000
0100
,
1000
0100
1000
0100
0001
0100
0010
0100
,
1000
0010
0001
0010
0100
0010
0100
0010
,
1000
0100
0001
0100
1000
0010
0001
0010
,
0100
0001
0100
0010
1000
0100
0010
0001
,
1000
0100
0000
0000
0100
0010
0000
0000
0010
0001
0000
0000
0001
1000
0000
0000
,
1001
0001
0100
0010
0110
0000
1000
0000
,
0001
0100
0000
0000
0100
0010
0000
0000
0010
1000
0000
0000
1000
0001
0000
0000
,
0001
0100
0000
0000
0100
0010
0000
0000
0010
1000
0000
0000
1001
0000
0000
0000
,
0001
0100
0001
0100
0010
1000
0100
0010
,
0001
0100
0010
1000
0100
0010
0001
0100
,
0010
1000
0010
0100
0010
0100
0010
1000
,
1010
0100
0001
0100
0010
1000
0100
0010
,
0001
0100
0010
1000
0100
0010
0001
0100
,
0010
1000
0100
1000
0001
0100
0010
1000
,
0100
0010
0001
0100
0010
1000
0100
1000
,
0001
0100
0010
0100
0001
1000
0100
1000
,
0001
0100
0010
0100
0001
1000
0100
1000
,
0001
0100
0010
1000
0100
0010
0001
0100
,
0010
1000
0001
0100
0010
1000
0100
1000
,
0001
0100
0010
1000
0100
0010
0100
2000
,
0002
0000
0000
0000
,
0000
0000
0000
0000
,
3003
0220
0000
0000
0330
2002
0000
0000
3003
1100
0000
2200
0000
0000
3300
0110
,
0000
0220
0000
0330
0000
2020
0000
3030
0000
1100
0000
2200
0000
3300
0000
0110
,
0000
0110
0010
1010
1000
1001
0110
0010
1001
0110
0100
1001
0010
0110
1001
0010
,
1001
0000
0101
0000
1010
0000
1000
0100
,
0010
0001
0100
0010
1000
0100
0010
0001
,
0100
0010
1000
0100
1000
0100
0010
0001
,
0100
0010
1000
0100
0010
0001
1000
0000
,
0000
0000
0001
0100
0001
0100
0010
1000
,
0010
0100
0001
0100
0010
1000
0100
0010
,
0001
0100
0010
1000
0100
0010
0001
0100
,
0010
1000
0100
0010
0001
0100
0010
1000
,
0100
1000
0001
0100
0010
1000
0010
0100
,
0001
1000
0100
0010
0001
0100
0010
1000
,
0100
0000
1000
0000
0001
1000
0001
1000
0001
1000
0001
1000
0001
1000
0001
1000
,
0001
1000
0001
1000
0001
0000
0000
0000
0000
0000
0100
0000
0000
0000
0000
0000
,
0010
0000
1010
1000
0100
1000
0001
0010
,
0001
0010
0001
1000
0100
1000
0001
0100
,
0010
1000
0010
1000
0010
0100
0001
0100
,
0001
0100
0010
1000
0100
0010
0001
0100
,
0010
0100
0001
0010
0100
1000
0001
0100
,
0010
1000
0100
0010
0001
0100
0010
1000
,
0100
1000
0001
0100
0010
1000
0100
0010
,
0001
0100
0010
0000
0000
1010
0000
0000
,
0000
0000
1001
0000
0101
0010
1000
1010
,
1000
1001
0010
1000
0100
0010
0001
0100
,
0010
0100
0101
0001
0101
0010
1000
1010
,
0010
1010
0100
0001
0100
0010
1000
0100
,
0010
0001
0011
0001
0101
0010
1000
1010
,
0010
1001
0001
0100
0010
1000
0100
0010
,
0001
1000
1001
0010
0110
0010
0100
1001
,
0010
0110
1010
1000
1001
0001
0101
0010
,
1000
0100
1000
0100
0001
0100
0001
0100
,
0010
1000
0010
1000
0100
0001
0100
1000
,
0001
0100
1000
0100
0001
0010
1000
0010
,
0001
0100
1000
0100
0001
0010
1000
0010
,
0001
0100
0001
0100
0010
1000
0100
0010
,
0001
0100
0010
1000
0100
0010
0001
0100
,
0010
1000
0100
1000
0001
0100
0010
1000
,
0001
0100
0010
1000
0100
0010
0001
0100
,
0010
2000
0020
0000
0000
0000
0000
0000
,
0000
3030
0110
1001
,
0110
0220
0000
0000
,
0000
0000
0330
0110
,
0011
2002
0000
0000
,
0000
3003
1100
1001
,
0101
2020
0000
0000
,
0000
0000
0000
3030
,
1000
0000
1000
0001
1000
0001
1000
0001
,
1000
0001
0100
0010
0100
0010
0100
0010
,
0100
0010
1000
0100
1000
0100
1000
0100
,
1000
0100
0010
0001
0010
0001
0010
0001
,
0010
0001
1000
0010
1000
0010
1000
0010
,
1000
0010
0100
0001
0100
0001
0100
0001
,
0100
0001
1000
0100
1000
0100
1000
0100
,
1000
0100
0010
0001
0010
0001
0010
0001
,
0010
0001
1000
0100
0010
0001
1000
0100
,
0010
0001
1000
0010
0100
0001
1000
0010
,
0100
0001
1000
0100
1000
0100
0010
0001
,
0010
0001
0100
0010
0100
0010
1000
0100
,
1000
0100
0010
0001
0010
0001
0100
0010
,
0100
0010
1000
0100
0010
0001
0100
0010
,
1000
0100
0010
0100
1000
0001
0100
0010
,
1000
0100
0010
0001
0100
0010
0100
0001
,
1000
0001
2002
0000
0000
0000
0000
0000
,
0000
3003
0000
0000
;

//---------------dance-single - Copied from----------------
#NOTES:
     dance-single:
     Copied from:
     Hard:
     17:
     0.817,1.000,0.402,0.239,0.184:
0000
0000
0000
0000
,
0000
0000
0000
0000
,
0000
0000
0000
0000
,
0000
0000
0000
0000
,
1000
0000
1001
0000
0000
0001
0000
0100
,
0010
0000
1000
0000
0001
0100
0000
0100
,
0001
0000
1000
0000
0010
0100
0000
0100
,
0110
1001
0101
0000
,
1001
0000
0101
0000
0001
0100
0000
0100
,
0010
0000
1010
0000
0010
0100
0000
0100
,
0001
0000
0101
0000
0010
1000
0000
1000
,
1010
0101
1001
0000
,
1001
0000
0101
0000
0001
0100
0000
0100
,
0010
0000
1010
0000
1000
0010
0000
0010
,
0100
0000
0101
0000
0001
0100
0000
0100
,
0010
1010
1010
0000
,
0101
0000
1010
0000
1000
0010
0000
0010
,
0100
0000
0101
0000
0001
0100
0000
0100
,
0010
0000
0110
0000
1000
0001
0000
0001
,
0100
0110
1010
0000
,
1000
0001
1000
0001
0100
0010
0100
0010
,
1000
0100
1000
0100
0010
0001
0100
0010
,
1000
0100
0010
0001
0100
0010
1000
0100
,
0010
0100
1000
0001
0100
0010
1000
0100
,
1000
0001
0100
0001
0100
0010
1000
0100
,
0010
0100
1000
0001
0100
0010
0100
0001
,
0100
0010
1000
0100
0010
0100
1000
0001
,
0100
0010
1000
0100
1000
0001
0100
0010
,
2000
0010
3020
0100
,
0230
0001
0302
0010
,
0023
0100
0230
0010
,
2300
0010
3002
0100
,
1003
0010
1000
0010
0100
0001
0100
0001
,
1000
0100
1000
0001
0100
0010
0100
0001
1000
0100
1000
0001
0100
0010
0100
0001
,
1000
0100
0010
0001
0100
0010
1000
0100
0010
0001
0100
0010
1000
0100
1000
0001
,
0100
0010
0100
0001
1000
0010
0100
0001
1000
0100
0010
1000
0001
0010
0100
0001
,
0100
0010
0100
0010
0001
0100
1000
0100
,
0001
1000
0100
0001
0100
1000
0001
0100
,
1000
0100
0001
1000
0010
1000
0001
0100
,
0010
1000
0100
0001
0100
1000
0001
0100
,
0010
1000
0000
0000
1000
0010
0000
0000
0010
0100
0000
0000
0100
0001
0000
0000
,
1001
0010
0100
0010
1001
0000
0000
0000
,
1000
0100
0000
0000
1000
0010
0000
0000
1000
0001
0000
0000
1000
0010
0000
0000
,
0101
0010
1000
0010
0101
0000
0000
0000
,
1000
0100
1000
0100
0010
0001
0010
0001
,
0100
0010
0100
0010
1000
0100
1000
0100
,
0010
0000
0010
0001
0100
0010
0100
0010
,
1000
0100
0010
0001
0100
0010
1000
0001
,
1000
0100
1000
0100
0010
0001
0010
0001
,
0100
0010
0100
0010
1000
0001
0100
0010
,
1000
0001
0100
0010
1000
0100
1000
0001
,
0100
0010
1000
0001
0100
0010
1000
0100
,
0010
0100
1000
0001
0100
0010
1000
0001
,
0100
0010
1000
0010
0100
0001
0100
0010
,
1000
0100
0010
0001
0100
0010
1000
0010
,
0100
0001
0100
0010
1000
0100
0010
0001
,
0100
0010
1000
0010
1000
0010
1000
0010
,
1000
0001
0010
0001
0010
0001
1000
0001
,
1000
1001
0000
0000
0000
0110
0000
0000
0000
0011
0000
1001
0000
0010
0000
1001
,
0000
0101
0000
0010
0000
1010
0000
1000
0000
1100
0000
1001
0000
0010
0000
0110
,
0000
0101
0010
0101
0010
1010
1010
1000
1001
1001
0010
0110
0010
1010
1010
1000
,
0001
0000
1001
0000
1001
0000
0000
0001
,
0000
0100
0010
0000
1010
0000
0000
1000
,
0000
0001
0100
0010
1000
0100
0010
0001
,
0100
0010
1000
0100
0010
0001
1000
0000
,
0000
0000
0001
0100
0001
0100
0010
1000
,
0100
0010
0001
0100
0010
1000
0100
1000
,
0001
0100
0010
1000
0001
0100
0010
1000
,
0001
1000
0001
0100
0001
1000
0100
1000
,
0001
0100
0010
1000
0100
0010
0001
0100
,
0010
1000
0100
0010
0100
1000
0001
0100
,
0020
0000
0000
0000
,
2000
0000
0000
3030
,
0000
0000
1001
0001
0100
0010
1000
0100
,
0010
0001
0100
0010
1000
0100
1000
0001
,
0100
0010
1000
0100
0010
0001
0100
0010
,
1000
0100
1000
0001
0100
0010
1000
0100
,
0010
0001
0100
0010
1000
0100
1000
0001
,
0100
0010
1000
0001
0100
0010
1000
0100
,
0010
0001
0100
0010
1000
0010
0100
0001
,
0100
0000
0101
0000
0000
1001
0000
0000
,
0000
0000
1010
0000
0101
0000
0000
0100
,
0000
0100
0020
0000
1000
0000
0100
0000
,
1030
0000
0101
0000
0101
0000
0000
0010
,
0000
1000
0002
0000
0100
0000
1000
0000
,
0103
0000
1010
0000
1001
0000
0000
0001
,
0000
0100
0020
0000
1000
0000
1000
0000
,
1030
0000
0001
0100
0001
1000
0010
0100
,
0001
0100
0010
1000
0100
0010
0001
0100
,
0010
1000
0100
0010
0001
0100
0010
1000
,
0100
1000
0001
0010
0001
1000
0100
0010
,
0100
0010
0001
0100
0010
1000
0100
1000
,
0001
0010
0100
1000
0001
0100
0010
1000
,
0100
0001
0100
1000
0010
0100
0001
0100
,
1000
0100
0001
0100
0010
1000
0100
0001
,
0100
1000
0001
0100
0001
0100
0010
1000
,
0100
0010
0001
0100
0010
1000
0100
0010
,
0001
0100
0001
0010
0002
0000
1003
0010
,
0200
0302
0023
0230
,
2300
0000
3001
0100
0002
0000
1003
0010
,
2000
0000
3001
0100
0020
0000
2030
0000
,
3200
0000
0320
0000
0031
0000
1000
0001
,
0200
0000
0301
0100
0020
0000
2030
0000
,
3002
0000
0203
0000
0310
0000
1000
0001
,
0200
0000
0310
1000
0002
0000
0103
0010
,
2000
3001
0100
0001
,
0100
0010
1000
0100
,
0010
0001
0100
0010
,
1000
0100
1000
0001
,
0100
0010
0100
0001
,
0100
0010
1000
0100
,
0010
0001
0100
0010
,
1000
0100
1000
0001
,
0100
0010
1000
0001
,
0100
0010
1000
0100
,
0001
0100
1000
0001
,
0010
0100
1000
0001
,
0100
0010
1000
0100
,
0010
0001
0100
0010
,
1000
0100
0010
0001
,
0100
0010
1000
0100
,
1000
2002
0000
0000
,
0000
0000
0000
0000
,
3003
0000
0000
0000
;

//---------------dance-single - ----------------
#NOTES:
     dance-single:
     :
     Medium:
     15:
     0.625,1.000,0.362,0.464,0.072:
0000
0000
0000
0000
,
0000
0000
0000
0000
,
0000
0000
0000
0000
,
0000
0000
0000
0000
,
0001
0000
1000
0000
0000
0010
0000
0100
,
0001
0000
0100
0000
0000
0010
0000
1000
,
0100
0000
0010
0000
0000
0001
0000
0100
,
0020
2030
3002
0203
,
0310
0000
1000
0000
0000
0001
0000
0100
,
0020
0000
1030
0000
0000
0001
0000
0100
,
0020
0000
1030
0000
0000
0100
0000
0001
,
0200
0320
0230
0300
,
0002
0000
1003
0000
0000
0010
0000
0100
,
0002
0000
0103
0000
0000
0010
0000
1000
,
0200
0000
0310
0000
0000
0001
0000
0100
,
0020
2030
3001
0000
,
1001
0000
0001
0000
0000
0100
0000
0010
,
2000
0000
3001
0000
0000
0100
0000
0010
,
0002
0000
0103
0000
0000
0010
0000
1000
,
0001
1000
1001
0000
,
1000
0000
0001
0000
0100
0010
0000
0100
,
0000
0001
0100
0000
0010
1000
0000
1000
,
0010
0000
0100
0001
0100
0010
0000
1000
,
0000
0001
0100
0000
0100
0010
0000
1000
,
0001
0100
0001
0100
0010
1000
0100
0010
,
0001
0100
0010
1000
0100
1000
0001
0100
,
0010
1000
0100
0010
0001
0100
0010
1000
,
0100
0010
0001
0100
0010
1000
0001
1000
,
0002
0000
0203
0000
,
0320
0000
2030
0000
,
3200
0000
0320
0000
,
0032
0000
2003
0000
,
3001
0100
0001
0010
0100
1000
0100
0010
,
0001
0100
0010
1000
0100
0010
0001
0100
,
0010
1000
0100
1000
0001
0100
0010
1000
,
0100
0010
0001
0100
0010
1000
0001
0100
,
0001
0010
0001
0010
0100
1000
0100
1000
,
0001
0100
0001
0100
0010
1000
0010
1000
,
0001
0100
0010
1000
0100
0010
0001
0100
,
0010
1000
0010
0100
0001
0100
0010
1000
,
0010
0010
0100
0100
,
1001
0000
0010
0000
1001
0001
1000
0010
,
0100
0000
0200
0300
0001
0000
0001
0000
,
1000
0001
1000
0100
,
0020
0032
0203
0320
,
2030
3200
0320
0032
,
0203
0320
2030
3002
,
0203
0320
2030
3002
,
1003
0100
1000
0100
,
0010
0001
0010
0001
,
0100
0010
0100
0010
,
1000
0001
0100
0010
,
1000
0100
0010
0001
,
0100
0010
1000
0010
,
0100
0001
0100
0010
,
1000
0100
0010
0001
,
0200
0000
0000
0000
,
0000
0000
0000
0300
,
0000
1001
0000
0000
0000
0110
0000
0010
0000
0110
0000
1001
0000
1000
0000
0110
,
0000
0110
0000
0001
0000
1001
0000
1000
0000
0110
0000
1001
0000
1000
0000
1100
,
0000
0100
0000
0010
0000
0001
0001
0000
0100
0100
0000
0010
0000
1000
1000
0000
,
1001
0000
0001
0000
1000
0000
0000
0010
,
0000
1000
0001
0000
0100
0000
0000
0010
,
0000
1000
0001
0000
0100
0000
0000
0010
,
0000
1000
0001
0000
0100
0000
0010
0000
,
0000
0000
1000
0100
1000
0000
0001
0010
,
0001
0100
0010
1000
,
0001
0000
1000
0010
1000
0000
0001
0100
,
0001
1000
0010
1000
,
0001
0000
1000
0010
1000
0000
0001
0100
,
0001
1000
0010
0100
,
0001
2002
0000
0000
,
0000
0000
0000
3003
,
0000
0000
1100
0000
0000
1100
0000
0000
,
0010
0000
1001
0000
0000
0101
0000
0000
,
0010
0000
1010
0000
0000
1001
0000
0000
,
0001
0100
0001
1000
0010
0100
0001
1000
,
0001
0000
1001
0000
0000
0110
0000
0000
,
0001
0000
0110
0000
0000
1001
0000
0000
,
0001
0000
0101
0000
0000
0110
0000
0000
,
1001
0000
0110
0000
0000
1001
0000
0000
,
0000
0000
1100
0000
0110
0000
0000
0011
,
0000
0101
0000
0000
0010
0000
0010
0000
,
0010
0000
1010
0000
1001
0000
0000
0101
,
0000
0110
0000
0000
0010
0000
1000
0000
,
0100
0000
0011
0000
1001
0000
0000
0110
,
0000
1010
0000
0000
0010
0000
1000
0000
,
0100
0000
0110
0000
0101
0000
0000
0101
,
0000
0001
1000
0000
1001
0000
0101
0000
,
0000
0000
0001
1000
0001
0000
0100
0001
,
0100
0000
0010
1000
0010
0000
0100
0001
,
0100
0000
0010
1000
0100
0000
0010
0001
,
0100
0000
0010
1000
0100
0000
0010
0001
,
0100
0000
0010
1000
0010
0000
0100
0001
,
0100
0000
0010
1000
0100
0000
0010
0001
,
0100
0000
1010
0000
1001
0000
0000
0010
,
0000
0010
1001
0000
0010
0000
1001
0000
,
0000
2000
3020
0230
,
0302
0203
0301
0001
,
0001
0002
0203
0320
,
2030
3020
0230
0310
,
0010
0020
2030
3002
,
0203
0320
1030
1000
,
1000
0002
0203
0320
,
2030
3200
0320
0031
,
1000
0001
0100
0001
,
0100
0010
1000
0010
,
1000
0001
0100
0001
,
0100
0010
1000
0010
,
1000
0100
0010
0001
,
0100
0010
1000
0100
,
0010
0001
0100
0010
,
1000
0001
0100
0010
,
1000
0100
0010
0001
,
0100
0010
1000
0001
,
0100
0010
1000
0100
,
1000
0001
0100
0010
,
1000
0001
0100
0001
,
0100
0010
1000
0001
,
0100
0010
1000
0001
,
1000
0001
1000
0001
,
1000
2002
0000
0000
,
0000
0000
0000
0000
,
3003
0000
0000
0000
;

//---------------dance-single - ----------------
#NOTES:
     dance-single:
     :
     Easy:
     12:
     0.431,0.836,0.471,0.177,0.055: // measure 1
0000
0000
0000
0000
,  // measure 2
0000
0000
0000
0000
,  // measure 3
0000
0000
0000
0000
,  // measure 4
0000
0000
0000
0000
,  // measure 5
1000
0000
0001
0000
0000
0100
0000
0000
,  // measure 6
0010
0000
1000
0000
0000
0001
0000
0000
,  // measure 7
0100
0000
0010
0000
0000
1000
0000
0000
,  // measure 8
0001
0100
0010
1000
,  // measure 9
0100
0000
0010
0000
0000
0001
0000
0000
,  // measure 10
0100
0000
0010
0000
0000
1000
0000
0000
,  // measure 11
0100
0000
0010
0000
0000
0001
0000
0000
,  // measure 12
0100
0010
0100
0000
,  // measure 13
1000
0000
0001
0000
0000
0100
0000
0000
,  // measure 14
0010
0000
1000
0000
0000
0100
0000
0000
,  // measure 15
0010
0000
0001
0000
0000
0100
0000
0000
,  // measure 16
0010
1000
1001
0000
,  // measure 17
0010
0000
0010
0000
0000
0100
0000
0000
,  // measure 18
0001
0000
1000
0000
0000
0001
0000
0000
,  // measure 19
0100
0000
0010
0000
0000
1000
0000
0000
,  // measure 20
0001
1000
0001
0000
,  // measure 21
1020
0000
0230
0000
,  // measure 22
0302
0000
2003
0000
,  // measure 23
3020
0000
0230
0000
,  // measure 24
0302
0000
2003
0000
,  // measure 25
3010
0100
0001
1000
,  // measure 26
0100
0010
0001
0100
,  // measure 27
0010
1000
0100
1000
,  // measure 28
0001
0100
0010
1000
,  // measure 29
0002
0000
0103
0000
,  // measure 30
0020
0000
1030
0000
,  // measure 31
0200
0000
0310
0000
,  // measure 32
0002
0000
1003
0000
,  // measure 33
0020
0000
0130
0000
,  // measure 34
0001
1000
0010
0100
,  // measure 35
0001
1000
0100
0010
,  // measure 36
0001
0100
0010
1000
,  // measure 37
0001
0001
0100
0100
,  // measure 38
0010
0010
1000
1000
,  // measure 39
0001
0100
0010
1000
,  // measure 40
0100
0010
0001
0100
,  // measure 41
0010
1001
1001
1001
,  // measure 42
0110
0010
0110
0000
,  // measure 43
1001
1001
0110
0110
,  // measure 44
0011
0001
1001
0000
,  // measure 45
1000
0100
1000
0001
,  // measure 46
0100
0010
0100
0010
,  // measure 47
1000
0100
0010
0001
,  // measure 48
0100
0010
1000
0100
,  // measure 49
0010
0001
0010
0001
,  // measure 50
1000
0010
1000
0010
,  // measure 51
0100
0001
0100
0001
,  // measure 52
1000
0010
1000
0001
,  // measure 53
0100
0010
1000
0100
,  // measure 54
0010
0001
0100
0010
,  // measure 55
2000
0000
0000
3020
,  // measure 56
0000
0000
1030
0000
,  // measure 57
2002
0000
0000
0000
,  // measure 58
0000
0000
0000
3003
,  // measure 59
0000
1001
0000
0000
0000
0110
0000
0000
0000
0011
0000
0011
0000
0000
0000
1001
,  // measure 60
0000
1001
0000
0000
0000
0110
0000
0000
0000
0011
0000
1001
0000
0000
0000
0110
,  // measure 61
0000
1001
0000
1001
0000
0010
0010
0000
0100
0100
0000
1000
0000
0001
0001
0000
,  // measure 62
1000
0000
0001
0000
0100
0000
0000
0010
,  // measure 63
0000
0000
1000
0000
0100
0000
0000
0010
,  // measure 64
0000
0000
0001
0000
1000
0000
0000
0010
,  // measure 65
0000
1000
0100
1000
,  // measure 66
0000
0001
1000
0010
,  // measure 67
0100
0001
1000
0100
,  // measure 68
0010
0001
0100
0010
,  // measure 69
1000
0100
0010
0100
,  // measure 70
1000
0001
0100
0010
,  // measure 71
1000
0100
0010
0100
,  // measure 72
2002
0000
0000
0000
,  // measure 73
0000
0000
0000
3003
,  // measure 74
0000
0000
1001
0000
0000
1001
0000
0000
,  // measure 75
0000
0000
0110
0000
0000
0110
0000
0000
,  // measure 76
0000
0000
0011
0000
0000
0011
0000
0000
,  // measure 77
0001
0000
1000
0000
,  // measure 78
0000
0000
1001
0000
0000
0011
0000
0000
,  // measure 79
0000
0000
0101
0000
0000
1010
0000
0000
,  // measure 80
0000
0000
1001
0000
0000
0110
0000
0000
,  // measure 81
0101
0000
1010
0000
0000
1001
0000
0000
,  // measure 82
0000
0000
1001
0000
1001
0000
0000
0101
,  // measure 83
0000
0101
0000
0000
0010
0000
1000
0000
,  // measure 84
0001
0000
0110
0000
1001
0000
0000
1010
,  // measure 85
0000
0101
0000
0000
0001
0000
0100
0000
,  // measure 86
0010
0000
1010
0000
1001
0000
0000
0101
,  // measure 87
0000
1001
0000
0000
0010
0000
1000
0000
,  // measure 88
0100
0000
0011
0000
1001
0000
0000
0110
,  // measure 89
0000
1001
0000
0000
0001
0000
0100
0000
,  // measure 90
0010
0000
1010
0000
1001
0000
0000
1001
,  // measure 91
0000
1001
0000
0000
0001
0000
0100
0000
,  // measure 92
0010
1010
1001
1000
,  // measure 93
0001
0100
0010
1000
,  // measure 94
0100
0010
0001
0100
,  // measure 95
0010
1000
0100
0010
,  // measure 96
0001
0100
0010
1000
,  // measure 97
0001
0000
1001
0000
0000
0110
0000
0000
,  // measure 98
0011
2002
0000
0000
,  // measure 99
0000
3003
1000
0010
,  // measure 100
0100
0002
0000
0000
,  // measure 101
0000
0000
0000
1003
,  // measure 102
0010
0200
0000
0000
,  // measure 103
0000
0000
0301
1000
,  // measure 104
0001
0200
0000
0000
,  // measure 105
0000
0000
0000
0310
,  // measure 106
1000
0001
0000
0100
,  // measure 107
0000
0001
0000
0100
,  // measure 108
0000
0010
0000
1000
,  // measure 109
0000
0100
0000
0001
,  // measure 110
0000
0100
0000
1000
,  // measure 111
0000
0010
0000
0100
,  // measure 112
0000
0001
0000
1000
,  // measure 113
0000
0010
0000
0100
,  // measure 114
0000
0001
0000
0100
,  // measure 115
0000
0010
0000
1000
,  // measure 116
0000
0100
0000
0010
,  // measure 117
0000
0001
0000
0100
,  // measure 118
0000
0010
0000
1000
,  // measure 119
0000
0001
0000
0100
,  // measure 120
0000
0010
0000
1000
,  // measure 121
0000
0001
0000
1000
,  // measure 122
0000
2002
0000
0000
,  // measure 123
0000
0000
3003
0000
;

//---------------dance-single - ----------------
#NOTES:
     dance-single:
     :
     Beginner:
     8:
     0.254,0.419,0.075,0.082,0.055: // measure 1
0000
0000
0000
0000
,  // measure 2
0000
0000
0000
0000
,  // measure 3
0000
0000
0000
0000
,  // measure 4
0000
0000
0000
0000
,  // measure 5
1000
1000
0000
0000
,  // measure 6
0001
0001
0000
0000
,  // measure 7
0100
0100
0000
0000
,  // measure 8
0010
0010
0010
0000
,  // measure 9
1000
1000
0000
0000
,  // measure 10
0001
0001
0000
0000
,  // measure 11
0100
0100
0000
0000
,  // measure 12
0010
0010
0010
0000
,  // measure 13
1000
1000
0000
0000
,  // measure 14
0001
0001
0000
0000
,  // measure 15
0100
0100
0000
0000
,  // measure 16
0010
0010
0010
0000
,  // measure 17
1000
1000
0000
0000
,  // measure 18
0001
0001
0000
0000
,  // measure 19
0100
0100
0000
0000
,  // measure 20
0010
0010
0010
0000
,  // measure 21
1000
0000
0001
0000
,  // measure 22
0100
0000
0010
0000
,  // measure 23
1000
0000
0100
0000
,  // measure 24
0010
0000
0001
0000
,  // measure 25
0100
0000
0010
0000
,  // measure 26
1000
0000
0010
0000
,  // measure 27
0100
0000
0001
0000
,  // measure 28
0100
0000
0010
0000
,  // measure 29
2000
0000
3000
0000
,  // measure 30
0002
0000
0003
0000
,  // measure 31
0200
0000
0300
0000
,  // measure 32
0020
0000
0030
0000
,  // measure 33
2000
0000
3000
0000
,  // measure 34
0001
0000
0001
0000
,  // measure 35
1000
1000
0001
0001
,  // measure 36
1000
1000
0001
0001
,  // measure 37
1000
1000
1000
0000
,  // measure 38
0010
0010
0010
0000
,  // measure 39
0100
0100
0100
0000
,  // measure 40
0001
0001
0001
0000
,  // measure 41
1000
1000
1000
0000
,  // measure 42
0010
0010
0010
0000
,  // measure 43
0100
0100
0100
0000
,  // measure 44
0001
0001
0001
0000
,  // measure 45
1000
0000
0001
0000
,  // measure 46
1001
0000
0000
0000
,  // measure 47
0110
0000
0000
0000
,  // measure 48
1001
0000
0000
0000
,  // measure 49
1000
0000
0100
0000
,  // measure 50
1000
0000
0001
0000
,  // measure 51
0100
0000
0010
0000
,  // measure 52
1000
0000
0001
0000
,  // measure 53
0100
0000
0010
0000
,  // measure 54
1000
0000
0001
0000
,  // measure 55
0100
0000
0010
0000
,  // measure 56
1000
0000
0100
0000
,  // measure 57
0010
0000
0000
0000
,  // measure 58
0000
0000
0000
0000
,  // measure 59
0000
0010
0000
0000
0000
0100
0000
0000
0000
0010
0000
0010
0000
0000
0000
1000
,  // measure 60
0000
1000
0000
0000
0000
0010
0000
0000
0000
0001
0000
0001
0000
0000
0000
1000
,  // measure 61
0000
1000
0000
0010
0000
0100
0000
0000
0000
0001
0000
1000
0000
0001
0000
0000
,  // measure 62
0000
1000
1000
0000
,  // measure 63
0000
0010
0010
0000
,  // measure 64
0000
0001
0001
0000
,  // measure 65
0000
1000
1000
1000
,  // measure 66
0000
0001
0000
0100
,  // measure 67
0000
0010
0000
1000
,  // measure 68
0000
0100
0000
0001
,  // measure 69
0000
0100
0000
1000
,  // measure 70
0000
0010
0000
0100
,  // measure 71
0000
0001
0000
0100
,  // measure 72
0000
0020
0000
0030
,  // measure 73
0000
0000
0000
0000
,  // measure 74
0000
1001
0000
0000
,  // measure 75
0000
1001
0000
0000
,  // measure 76
0000
1001
0000
0010
,  // measure 77
0000
1000
0000
0010
,  // measure 78
0000
1001
0000
0000
,  // measure 79
0000
0110
0000
0000
,  // measure 80
0000
0110
0000
0000
,  // measure 81
0000
1001
0000
0000
,  // measure 82
0000
1000
0000
1000
,  // measure 83
0000
0010
0000
0010
,  // measure 84
0000
0100
0000
0100
,  // measure 85
0000
0001
0000
1000
,  // measure 86
0000
0001
0000
0100
,  // measure 87
0000
0010
0000
1000
,  // measure 88
0000
0001
0000
0001
,  // measure 89
0000
1000
0000
1000
,  // measure 90
0000
0001
0001
0001
,  // measure 91
0000
0100
0100
0100
,  // measure 92
0000
0010
0010
0010
,  // measure 93
0000
1000
1000
1000
,  // measure 94
0000
0001
0001
0001
,  // measure 95
0000
0100
0100
0100
,  // measure 96
0000
0010
0010
0010
,  // measure 97
0000
1000
1000
1000
,  // measure 98
0000
0020
0000
0000
,  // measure 99
0000
0000
0030
0000
,  // measure 100
0000
2000
0000
0000
,  // measure 101
0000
0000
3000
0000
,  // measure 102
0000
0020
0000
0000
,  // measure 103
0000
0000
0030
0000
,  // measure 104
0000
0200
0000
0000
,  // measure 105
0000
0000
0000
0000
,  // measure 106
0000
0301
0000
1000
,  // measure 107
0000
0001
0000
1000
,  // measure 108
0000
0001
0000
0100
,  // measure 109
0000
0001
0000
0100
,  // measure 110
0000
0010
0000
1000
,  // measure 111
0000
0010
0000
1000
,  // measure 112
0000
0001
0000
0100
,  // measure 113
0000
0001
0000
0100
,  // measure 114
0000
0010
0000
1000
,  // measure 115
0000
0100
0000
0010
,  // measure 116
0000
0001
0000
0100
,  // measure 117
0000
0010
0000
1000
,  // measure 118
0000
0100
0000
0010
,  // measure 119
0000
0001
0000
0100
,  // measure 120
0000
0010
0000
1000
,  // measure 121
0000
0001
0000
1000
,  // measure 122
0000
2002
0000
0000
,  // measure 123
0000
0000
0000
0000
,  // measure 124
3003
0000
0000
0000
;
