#TITLE:Looking Down;
#SUBTITLE:;
#ARTIST:Kellan Bitner;
#TITLETRANSLIT:;
#SUBTITLETRANSLIT:;
#ARTISTTRANSLIT:;
#CREDIT:;
#BANNER:;
#BACKGROUND:;
#LYRICSPATH:;
#CDTITLE:;
#MUSIC:Looking Down.ogg;
#OFFSET:-0.077;
#SAMPLESTART:69.405;
#SAMPLELENGTH:13.540;
#SELECTABLE:YES;
#BPMS:0.000=138.000,136.000=69.000,184.000=138.000;
#STOPS:;
#BGCHANGES:;

//---------------dance-single - ----------------
#NOTES:
     dance-single:
     :
     Hard:
     9:
     0.113,0.123,0.022,0.133,0.057:
0000
0000
0000
0000
,
0000
0000
0000
0000
,
2000
0000
0000
0010
0000
0000
3010
0000
0100
0001
0000
0000
0100
0000
0000
0100
,
0001
1000
0010
0200
,
0301
0000
0000
0010
0000
0000
0100
0000
0000
1000
0000
0000
0001
0000
0000
0001
,
2000
3010
0100
0001
,
2001
0000
0000
0001
0000
0000
0010
0000
0000
0010
0000
0000
3001
0000
0010
0000
,
0100
1000
0010
0100
0002
0000
1000
1000
,
1003
0000
0010
0000
0100
0000
0001
0000
1000
0000
0000
0010
0000
0000
0100
0000
,
0100
0000
0000
0001
0000
0000
0010
0000
0100
0000
1000
0001
0000
0001
1000
0000
,
0100
0010
0100
0010
0001
1000
0001
1000
,
0001
0100
0010
1000
0001
0100
0010
1000
,
0200
0010
1000
0010
,
0302
0100
0010
1000
,
0103
0000
0000
0100
0000
0000
0010
0000
1000
0000
0100
0000
0010
0000
0001
0000
,
1000
0010
1000
0000
0100
0001
0100
0010
,
1000
0100
0010
0000
0001
0100
0010
0000
,
1000
0100
1000
0100
0010
0001
0100
0010
,
2000
0000
0000
0002
0000
0000
3003
0000
,
0001
0100
0010
1000
0010
0100
0001
0100
,
0020
0000
0000
2000
0000
0000
3030
0000
,
0100
0001
1000
0100
0010
0100
1000
0000
,
0002
0000
0000
0200
0000
0000
0303
0000
,
0010
1000
0100
0000
0010
0000
0000
0001
,
2000
0000
0000
0020
0000
0000
3030
0000
,
0001
0100
0010
0000
1000
0100
0010
0000
,
0001
1000
0000
0001
0000
0000
0100
0000
0000
0010
0000
0000
1001
0000
0000
0000
,
0010
1100
0010
1001
,
0002
0000
0100
0000
,
2003
0000
0010
0000
,
3002
0000
0100
0000
,
1003
0010
0100
0001
2000
0000
0010
0000
,
3002
0000
1003
0000
,
0010
0000
1000
0010
0000
0010
1000
0000
0100
0000
0000
0010
0000
0000
0001
0000
,
2000
0000
0000
0200
0000
0000
0000
0000
0000
0000
0000
0000
0000
0000
3300
0000
,
0002
0000
0000
0200
0000
0000
0000
0000
0000
0000
0000
0000
0000
0000
0303
0000
,
2000
0000
0000
0020
0000
0000
0000
0000
0000
0000
0000
0000
3030
0000
0000
0001
,
0200
0000
0000
0020
0000
0000
0000
0000
0000
0000
0000
0000
0330
0000
0000
0000
,
1000
0000
0000
0002
0000
0000
0000
0000
0000
0000
0000
0000
0003
0000
0000
1000
,
0020
0000
0000
0200
0000
0000
0000
0000
0000
0000
0000
0000
0330
0000
0000
0000
,
0002
0000
0000
0200
0000
0000
0000
0000
0000
0000
0000
0000
0303
0000
0000
1000
,
2000
0000
0000
0002
0000
0000
0000
0000
0000
0000
0000
0000
3003
0000
0000
0000
,
2020
0000
0000
0000
0000
0000
0000
0000
3030
0000
0000
0000
0002
0000
0000
1003
,
0000
0000
0000
0000
0000
0000
0000
0001
0100
0000
0100
0010
0000
0010
1000
0000
,
1001
0000
0002
0200
0000
0000
0000
0000
0303
0000
0000
0000
0001
0000
2000
0020
,
0000
3030
0000
0000
,
1001
0000
0000
0000
;

//---------------dance-single - Copied from----------------
#NOTES:
     dance-single:
     Copied from:
     Medium:
     7:
     0.089,0.087,0.013,0.129,0.033:
0000
0000
0000
0000
,
0000
0000
0000
0000
,
1000
0000
0000
0010
0000
0000
1000
0000
0100
0000
0000
0000
0010
0000
0000
0000
,
0001
1000
0010
0200
,
0301
0000
0000
0010
0000
0000
0100
0000
0000
1000
0000
0000
0001
0000
0000
0000
,
2000
3010
0100
0001
,
2001
0000
0000
0010
0000
0000
3001
0000
,
0010
0000
1000
0010
0002
0000
1000
0000
,
1003
0000
0000
0000
0100
0000
0000
0000
1000
0000
0000
0010
0000
0000
1000
0000
,
0100
0000
0000
0010
0000
0000
0001
0000
1000
0000
0000
0000
0010
0000
0000
0000
,
1000
0010
1000
0000
0010
0000
0100
0000
,
0001
0100
0001
0000
1000
0000
0100
0000
,
0200
0010
1000
0010
,
0302
0100
0010
1000
,
0103
0000
0000
0100
0000
0000
0010
0000
1000
0000
0000
0000
0001
0000
0100
0000
,
0010
0100
0001
0000
1000
0000
0100
0000
,
0010
0001
0100
0010
,
1000
0001
1000
0000
0001
0000
0100
0000
,
0002
0000
0000
0020
0000
0000
0033
0000
,
0001
0010
0100
1000
,
0020
0000
0000
0002
0000
0000
0033
0000
,
0100
1000
0010
1000
,
0002
0000
0000
0200
0000
0000
0303
0000
,
0010
0000
0100
0000
0010
0000
0000
0001
,
2000
0000
0000
0020
0000
0000
3030
0000
,
0001
0010
0100
1000
,
0001
1000
0001
1000
,
0010
0100
0010
1001
,
0002
0000
0100
0000
,
2003
0000
0010
0000
,
3002
0000
0100
0000
,
1003
0100
2000
0010
,
3002
0000
1003
0000
,
0010
0000
0000
1000
0000
0000
0100
0000
0010
0000
0000
0001
0000
0000
0000
0000
,
2000
0000
0000
0200
0000
0000
0000
0000
0000
0000
0000
0000
0000
0000
3300
0000
,
0002
0000
0000
0200
0000
0000
0000
0000
0000
0000
0000
0000
0000
0000
0303
0000
,
2000
0000
0000
0020
0000
0000
0000
0000
0000
0000
0000
0000
3030
0000
0000
0000
,
0200
0000
0000
0020
0000
0000
0000
0000
0000
0000
0000
0000
0330
0000
0000
0000
,
1000
0000
0000
0002
0000
0000
0000
0000
0000
0000
0000
0000
0003
0000
0000
0000
,
0020
0000
0000
0200
0000
0000
0000
0000
0000
0000
0000
0000
0330
0000
0000
0000
,
0002
0000
0000
0200
0000
0000
0000
0000
0000
0000
0000
0000
0303
0000
0000
0000
,
2000
0000
0000
0002
0000
0000
0000
0000
0000
0000
0000
0000
3003
0000
0000
0000
,
2020
0000
0000
0000
0000
0000
0000
0000
3030
0000
0000
0000
0002
0000
0000
1003
,
0000
0000
0000
0000
0000
0000
0000
0000
0100
0000
0010
1000
0000
0010
1000
0000
,
0000
0000
0002
0200
0000
0000
0000
0000
0303
0000
0000
0000
0000
0000
2000
0020
,
0000
3030
0000
0000
,
1001
0000
0000
0000
;

//---------------dance-single - ----------------
#NOTES:
     dance-single:
     :
     Easy:
     3:
     0.045,0.058,0.019,0.063,0.008:
0000
0000
0000
0000
,
0000
0000
0000
0000
,
1000
0000
0000
0100
,
0000
0000
0000
0100
,
0200
0000
0000
0300
,
0020
0000
0000
0030
,
2000
0000
0000
3000
,
0002
0003
2000
3000
,
0001
0000
0000
0000
,
0100
0000
0010
0000
,
1001
0000
1000
0000
,
0001
0000
0100
0000
,
0010
0000
1000
0000
,
0100
0000
0010
0000
,
0001
0000
0100
0000
,
0010
0000
1000
0000
,
0001
0000
0100
0000
,
0010
0000
1000
0000
,
2002
0000
0000
3003
,
1000
0000
0001
0000
,
0220
0000
0000
0330
,
0001
0000
0100
0000
,
2020
0000
0000
3030
,
0001
0000
0100
0000
,
2020
0000
0000
3030
,
1000
0000
0001
0000
,
0100
0100
0100
0000
,
0010
0000
1000
0000
,
0001
0000
0000
0000
,
0100
0000
0000
0000
,
0010
0000
0000
0000
,
2000
3000
0001
0000
,
0100
0000
0000
0000
,
0001
0001
1000
1000
,
0002
0000
0003
0000
,
2000
0000
3000
0000
,
0020
0000
0030
0000
,
0200
0000
0300
0000
,
0001
0000
0000
0001
0000
0000
0000
0000
0000
0000
0000
0000
0000
0000
0000
0000
,
0100
0000
0000
0000
,
0010
0000
0000
1000
0000
0000
0000
0000
0000
0000
0000
0000
0000
0000
0000
0000
,
0001
0000
0000
1000
0000
0000
0000
0000
0000
0000
0000
0000
0000
0000
0000
0000
,
0002
0000
0000
0000
0000
0000
0000
0000
0000
0000
0000
0000
0003
0000
0000
2000
,
0000
0000
0000
0000
0000
0000
0000
0000
3001
0000
0000
0100
0000
0000
0010
0000
,
1000
0000
0000
0001
,
0000
0000
0000
0000
,
1001
0000
0000
0000
;

//---------------dance-single - Copied from ----------------
#NOTES:
     dance-single:
     Copied from:
     Beginner:
     2:
     0.031,0.044,0.006,0.013,0.002: // measure 1
0000
0000
0000
0000
,  // measure 2
0000
0000
0000
0000
,  // measure 3
1000
0000
0000
0100
,  // measure 4
0000
0000
0000
0000
,  // measure 5
0100
0000
0000
0000
,  // measure 6
0010
0000
0000
0000
,  // measure 7
1000
0000
0000
0000
,  // measure 8
0001
0000
1000
0000
,  // measure 9
0001
0000
0000
0000
,  // measure 10
0100
0000
0000
0000
,  // measure 11
1001
0000
1000
0000
,  // measure 12
0001
0000
0100
0000
,  // measure 13
0010
0000
1000
0000
,  // measure 14
0100
0000
0010
0000
,  // measure 15
0001
0000
0100
0000
,  // measure 16
0010
0000
1000
0000
,  // measure 17
0001
0000
0100
0000
,  // measure 18
0010
0000
1000
0000
,  // measure 19
0001
0000
0000
0000
,  // measure 20
1000
0000
0001
0000
,  // measure 21
0010
0000
0000
0000
,  // measure 22
0001
0000
0100
0000
,  // measure 23
0010
0000
0000
0000
,  // measure 24
0001
0000
0100
0000
,  // measure 25
0010
0000
0000
0000
,  // measure 26
1000
0000
0001
0000
,  // measure 27
0100
0000
0100
0000
,  // measure 28
0010
0000
1000
0000
,  // measure 29
0001
0000
0000
0000
,  // measure 30
0100
0000
0000
0000
,  // measure 31
0010
0000
0000
0000
,  // measure 32
1000
0000
0001
0000
,  // measure 33
0100
0000
0000
0000
,  // measure 34
0001
0000
1000
0000
,  // measure 35
0002
0000
0003
0000
,  // measure 36
2000
0000
3000
0000
,  // measure 37
0020
0000
0030
0000
,  // measure 38
0002
0000
0003
0000
,  // measure 39
0001
0000
0000
0000
,  // measure 40
0100
0000
0000
0000
,  // measure 41
0010
0000
0000
0000
,  // measure 42
0001
0000
0000
0000
,  // measure 43
0001
0000
0000
0000
0000
0000
0000
0000
0000
0000
0000
0000
0000
0000
0000
1000
,  // measure 44
0000
0000
0000
0000
,  // measure 45
1000
0000
0000
0001
,  // measure 46
0000
0000
0000
0000
,  // measure 47
1001
0000
0000
0000
;
