#TITLE:LANCE / RED THEME;
#SUBTITLE:;
#ARTIST:FAURIZONS;
#TITLETRANSLIT:;
#SUBTITLETRANSLIT:;
#ARTISTTRANSLIT:;
#CREDIT:;
#BANNER:Lance Red Theme-bn.png;
#BACKGROUND:Lance Red Theme-bg.png;
#LYRICSPATH:;
#CDTITLE:;
#MUSIC:Lance Red Theme.mp3;
#OFFSET:-0.218;
#SAMPLESTART:21.760;
#SAMPLELENGTH:9.600;
#SELECTABLE:YES;
#BPMS:0.000=200.000;
#STOPS:207.000=4.810
;
#BGCHANGES:;

//---------------dance-single - ----------------
#NOTES:
     dance-single:
     :
     Challenge:
     18:
     0.955,1.000,0.964,0.301,0.394:
0000
0000
0000
0000
,
0000
0000
0000
0000
,
1000
1000
0000
0000
1000
1000
0000
0000
,
1000
1000
0000
0000
1000
1000
0010
0000
,
1001
1001
0000
0000
1001
1001
0000
0000
,
0110
0110
0000
0000
0100
0100
2002
3003
,
1100
1100
0000
0000
0011
0011
0000
0000
,
1001
1001
0000
0000
1000
1000
2002
3003
,
1000
0100
1100
1000
0010
1000
1010
0100
,
0001
0100
0101
0010
1000
0001
1001
0001
,
1000
0100
1100
0010
0001
0010
0011
0001
,
1000
0001
1001
1000
0010
1000
1010
0100
,
0001
0100
0101
0010
1000
0001
0011
0001
,
1000
0001
1001
1000
0001
1000
0101
0010
,
1000
0001
1001
0100
0010
0100
1001
0001
,
1000
0001
1001
0000
0010
0001
0100
0010
,
2001
0000
0002
3003
,
2001
0000
0000
0000
3001
0010
0100
1000
0001
0100
0001
0100
0001
1000
0100
0010
,
0001
0000
0010
0000
0100
1000
0100
0000
0010
0000
0001
0000
1000
0001
1000
0000
,
0100
0000
0010
0000
0001
1000
0001
0000
0100
0000
0001
0000
0100
0001
1000
0000
,
0100
0000
0010
0000
0001
1000
0010
0000
0100
0000
0001
0000
0010
0100
1000
0000
,
0001
1000
0011
0001
0010
0100
1100
1000
,
0001
0000
0010
0000
0001
0010
0001
0000
0010
0000
0100
0000
1000
0100
1000
0000
,
0100
0000
0010
0000
0001
0010
0001
0000
0010
0000
0100
0000
0010
0100
0010
0001
,
0010
0100
1000
0100
0010
0001
0100
0010
1000
0001
0100
0010
1000
0100
0010
0001
,
1000
0100
1000
0001
0100
0001
1000
0000
0100
0000
0010
0000
0001
0000
0010
0000
,
0011
0011
0000
0001
0000
0100
0000
0100
,
0000
0010
0000
0010
0000
1000
1001
0000
,
1001
1001
0000
1001
0000
0100
0000
0100
,
0000
0010
0000
0100
1001
0010
0100
0010
,
2002
0000
0000
3003
,
0220
0000
0000
0330
,
0001
1000
0001
0000
0001
1000
0000
1000
,
0100
0000
0100
0010
0000
0010
0100
0000
,
0100
0010
0100
0000
0100
0010
0000
0010
,
0100
0000
0000
0000
1000
0001
1000
0001
1000
0001
1000
0001
1000
0001
1000
0001
,
2000
3010
2000
3001
2000
3010
2000
3100
,
1100
1001
1001
1100
1100
0010
0002
1003
,
0002
0103
0020
1030
0020
0130
0020
1030
,
1001
0000
1001
0000
1100
0000
1100
0000
0110
0000
0001
1000
0001
1000
0001
0000
,
1001
2002
0000
0000
0000
0000
3003
0000
,
2000
0000
3001
0010
0100
0000
1000
0000
,
0220
0000
0000
0000
0000
0000
0000
0330
,
2002
0000
0000
0000
0000
0000
0000
3003
,
1000
0010
0101
0000
0001
0100
1001
0000
,
1000
0010
1001
0000
1000
0010
0101
0000
,
0001
1000
0110
0000
0001
1000
0110
0000
,
1000
0000
0010
0000
0101
0000
0000
0000
0001
0000
1000
0000
1001
0000
0000
0001
,
0010
0000
0100
0000
1000
0000
0000
1000
0100
0000
0010
0000
0001
0000
0100
0000
,
1000
0000
0100
0000
0001
0000
0000
0001
1000
0000
0100
0000
0010
0000
0000
0010
,
0001
0000
1000
0000
0010
0000
0000
0010
1000
0000
0100
0000
0001
0000
0100
0000
,
1000
0010
0001
0010
1000
0001
1001
0000
,
0001
0000
0010
0000
0100
0010
0100
0000
0010
0000
0001
0000
1000
0001
1000
0000
,
0100
0000
0010
0000
0001
0010
0001
0000
0010
0000
0100
0000
1000
0000
0010
0000
,
0100
0001
0100
1000
0100
0010
1000
0001
,
1000
0010
0100
0010
1000
0010
0100
0010
0100
0000
0001
0000
0100
0000
0010
0000
,
1000
0000
0001
0000
0010
0100
1000
0000
0100
0000
0010
0000
0001
1000
0001
0000
,
0010
0000
0100
0000
1000
0001
1000
0000
0100
0000
0010
0000
0001
0010
0001
0000
,
1000
0100
1000
0100
0010
0001
0010
0001
0010
0100
0010
0100
1000
0010
0100
0010
,
1000
0100
0010
0001
0100
0010
1000
0001
0010
0100
1000
0100
0010
0000
0000
0000
,
1001
1001
0000
0110
0000
0001
0010
0100
,
1000
0100
0010
0001
0010
1000
1001
0000
,
1001
1001
0000
1100
0000
0000
0000
0011
,
0000
0011
0000
0000
1001
0000
0010
0000
,
2002
0000
0000
3003
,
0220
0000
0000
0330
,
1000
0100
0010
0000
0010
0001
0000
0001
,
1000
0000
1000
0001
0000
0001
1000
0001
,
1000
0001
1000
0000
0100
0010
0000
0010
,
0100
0000
0000
0000
0100
0000
0000
0000
0100
0010
0001
0010
0100
1000
0001
1000
,
0001
0000
0011
0000
0010
0000
0110
0000
0100
0000
1100
0000
1000
0001
1000
0000
,
1100
0110
0011
1001
1010
1000
0001
0000
,
1000
1100
0100
0110
0010
0011
0001
1001
,
1100
0000
0110
0000
0001
1000
0001
0000
1001
0000
1000
0100
1000
0000
0000
0000
,
2001
0010
0000
0000
0000
0000
3000
0000
,
0001
1000
0100
1000
0001
0000
1000
0000
,
0100
1000
0100
1000
0100
0010
0100
0010
,
0100
0000
0010
0000
0001
0000
0010
0000
0001
1000
0001
0100
0001
0000
0000
0000
,
1000
0100
0011
0000
0001
0010
1100
0000
,
1000
0010
0101
0000
0001
1000
1001
0000
,
1000
0010
1001
0000
0001
0100
1001
0000
,
0001
0000
0010
0000
0011
0000
0000
0000
0100
0000
1000
0000
1100
0000
0000
0010
,
0001
0000
0010
0000
0011
0000
0000
0010
0100
0000
1000
0000
1100
0000
0010
0000
,
0001
0000
0010
0000
0011
0000
0000
0100
1000
0000
0001
0000
1001
0000
0000
0000
,
1000
0000
0100
0000
1100
0000
0000
0100
0010
0000
0001
0000
1001
0000
0010
0000
,
0100
0000
0010
0000
1001
0000
0010
0000
0100
0000
1000
0000
0001
0010
0100
1000
,
0001
0100
0001
0100
0010
0100
0001
0100
0010
1000
0010
0100
0010
1000
0010
0100
,
0220
0000
0330
0000
;

//---------------dance-single - Copied from----------------
#NOTES:
     dance-single:
     Copied from:
     Hard:
     15:
     0.798,0.852,0.628,0.221,0.212: // measure 1
0000
0000
0000
0000
,  // measure 2
0000
0000
0000
0000
,  // measure 3
1000
1000
0000
0000
1000
1000
0000
0000
,  // measure 4
1000
1000
0000
0000
1000
1000
0010
0000
,  // measure 5
0001
1000
0000
0000
0001
1000
0000
0000
,  // measure 6
0010
0100
0000
0000
1000
0001
1001
0000
,  // measure 7
1000
0100
0000
0000
0010
0001
0000
0000
,  // measure 8
0001
1000
0000
0000
1000
0001
1001
0000
,  // measure 9
1000
0100
1100
0000
0010
1000
1010
0000
,  // measure 10
0001
0100
0101
0000
1000
0001
1001
0000
,  // measure 11
1000
0100
1100
0000
0001
0010
0011
0000
,  // measure 12
1000
0001
1001
0000
0010
1000
1010
0000
,  // measure 13
0001
0100
0101
0000
1000
0001
0011
0000
,  // measure 14
1000
0001
1001
0000
0001
1000
0101
0000
,  // measure 15
1000
0001
1001
0000
0010
0100
1001
0000
,  // measure 16
1000
0001
1001
0000
0010
0001
0100
0010
,  // measure 17
2001
0000
0002
3003
,  // measure 18
2002
0000
0000
3003
,  // measure 19
0001
0000
0010
0000
0100
0010
0001
0000
0010
0000
0001
0000
1000
0001
1000
0000
,  // measure 20
0100
0000
0010
0000
0001
1000
0001
0000
0100
0000
0001
0000
0100
0001
1000
0000
,  // measure 21
0100
0000
0010
0000
0001
1000
0010
0000
0100
0000
0001
0000
0010
0100
1000
0000
,  // measure 22
0001
1000
0011
0000
0010
0100
1100
0000
,  // measure 23
0001
0000
0010
0000
0001
0010
0001
0000
0010
0000
0100
0000
1000
0100
1000
0000
,  // measure 24
0100
0000
0010
0000
0001
0010
0001
0000
0010
0000
0100
0000
0010
0100
0010
0001
,  // measure 25
0010
0100
1000
0100
0010
0001
1000
0001
,  // measure 26
0010
0100
1000
0001
0100
0001
1000
0000
0100
0000
0010
0000
0001
0000
0010
0000
,  // measure 27
0011
0011
0000
0001
0000
0100
0000
0100
,  // measure 28
0000
0010
0000
0010
0000
1000
1001
0000
,  // measure 29
1001
1001
0000
1001
0000
0100
0000
0100
,  // measure 30
0000
0010
0000
0100
1001
0000
0100
0000
,  // measure 31
2002
0000
0000
3003
,  // measure 32
0220
0000
0000
0330
,  // measure 33
0001
1000
0001
0000
0001
1000
0000
1000
,  // measure 34
0100
0000
0100
0010
0000
0010
0100
0000
,  // measure 35
0100
0010
0100
0000
0100
0010
0000
0010
,  // measure 36
0100
0000
0000
0000
1000
0001
1000
0001
1000
0001
1000
0001
1000
0001
1000
0001
,  // measure 37
1000
0010
1000
0001
1000
0010
1000
0100
,  // measure 38
1000
0010
0001
0010
1000
0010
0100
1000
,  // measure 39
0001
0100
0010
1000
0010
0100
0010
1000
,  // measure 40
0001
0100
1000
0100
0010
1000
0001
1000
,  // measure 41
1001
2002
0000
0000
0000
0000
3003
0000
,  // measure 42
2000
0000
3001
0010
0100
0000
1000
0000
,  // measure 43
0220
0000
0000
0000
0000
0000
0000
0330
,  // measure 44
2002
0000
0000
0000
0000
0000
0000
3003
,  // measure 45
1000
0010
0101
0000
0001
0100
1001
0000
,  // measure 46
1000
0010
1001
0000
1000
0010
0101
0000
,  // measure 47
0001
1000
0110
0000
0001
1000
0110
0000
,  // measure 48
1000
0010
0101
0000
0001
1000
1001
0000
,  // measure 49
0010
0100
1000
0000
0100
0010
0001
0100
,  // measure 50
1000
0100
0001
0000
1000
0100
0010
0000
,  // measure 51
0001
1000
0010
0000
1000
0100
0001
0100
,  // measure 52
1000
0010
0001
0010
1000
0001
1001
0000
,  // measure 53
0001
0000
0010
0000
0100
0010
0100
0000
0010
0000
0001
0000
1000
0001
1000
0000
,  // measure 54
0100
0000
0010
0000
0001
0010
0001
0000
0010
0000
0100
0000
1000
0000
0010
0000
,  // measure 55
0100
0001
0100
1000
0100
0010
1000
0001
,  // measure 56
1000
0100
1000
0100
1000
0100
1000
0100
1000
0000
0001
0000
0100
0000
0010
0000
,  // measure 57
1000
0000
0001
0000
0010
0100
1000
0000
0100
0000
0010
0000
0001
1000
0001
0000
,  // measure 58
0010
0000
0100
0000
1000
0001
1000
0000
0100
0000
0010
0000
0001
0010
0001
0000
,  // measure 59
2000
0000
3002
0000
,  // measure 60
0023
0000
0000
0000
0230
0000
0000
0300
,  // measure 61
1001
1001
0000
0110
0000
0001
0010
0100
,  // measure 62
1000
0100
0010
0001
0010
1000
1001
0000
,  // measure 63
1001
1001
0000
1100
0000
0000
0000
0011
,  // measure 64
0000
0011
0000
0000
1001
0000
0010
0000
,  // measure 65
2002
0000
0000
3003
,  // measure 66
0220
0000
0000
0330
,  // measure 67
1000
0100
0010
0000
0010
0001
0000
0001
,  // measure 68
1000
0000
1000
0001
0000
0001
1000
0001
,  // measure 69
1000
0001
1000
0000
0100
0010
0000
0010
,  // measure 70
0100
0000
0000
0000
0100
0000
0000
0000
0001
1000
0001
1000
0001
0010
0100
1000
,  // measure 71
0001
1000
0001
1000
0001
1000
0001
1000
,  // measure 72
0001
0100
1000
0100
0001
1000
0010
0000
,  // measure 73
0010
1000
0010
1000
0010
1000
0010
0001
,  // measure 74
1000
0000
0100
0000
0001
0000
0100
0000
0001
0000
1000
0001
1000
0000
0000
0000
,  // measure 75
2001
0010
0000
0000
0000
0000
3000
0000
,  // measure 76
0001
1000
0100
1000
0001
0000
1000
0000
,  // measure 77
0100
1000
0100
1000
0100
0010
0100
0010
,  // measure 78
0100
0000
0010
0000
0001
0000
0010
0000
0001
1000
0001
0100
0001
0000
0000
0000
,  // measure 79
1000
0100
0011
0000
0001
0010
1100
0000
,  // measure 80
1000
0010
0101
0000
0001
1000
1001
0000
,  // measure 81
1000
0010
1001
0000
0001
0100
1001
0000
,  // measure 82
0001
0010
0011
0000
0100
1000
1100
0000
,  // measure 83
0001
0010
0011
0000
0100
1000
1100
0010
,  // measure 84
0001
0010
0011
0000
1000
0001
1001
0000
,  // measure 85
1000
0100
1100
0000
0010
0001
1001
0000
,  // measure 86
0100
0000
0010
0000
1001
0000
0000
0000
0001
0000
1000
0000
0001
0100
0001
0100
,  // measure 87
0001
1000
0001
1000
0001
1000
0001
1000
0001
1000
0001
1000
0001
1000
0001
1000
,  // measure 88
0020
0000
0030
0000
;

//---------------dance-single - Copied from Copied f----------------
#NOTES:
     dance-single:
     Copied from Copied f:
     Medium:
     12:
     0.567,0.539,0.389,0.513,0.000: // measure 1
0000
0000
0000
0000
,  // measure 2
0000
0000
0000
0000
,  // measure 3
1000
0100
0000
0000
1000
0100
0000
0000
,  // measure 4
1000
0100
0000
0000
1000
0100
0010
0000
,  // measure 5
0001
0010
0000
0000
0001
0010
0000
0000
,  // measure 6
0001
0010
0000
0000
0010
0000
1001
0000
,  // measure 7
1000
0100
0000
0000
0010
0001
0000
0000
,  // measure 8
0001
1000
0000
0000
0001
0000
1001
0000
,  // measure 9
0100
0110
0001
0011
,  // measure 10
0001
1001
0010
0110
,  // measure 11
1000
1001
0100
0101
,  // measure 12
0010
0110
0001
1001
,  // measure 13
0010
0110
0001
1001
,  // measure 14
0100
0110
0001
1001
,  // measure 15
0010
1010
0001
0101
,  // measure 16
0001
0000
1001
0000
0001
0000
1000
0001
,  // measure 17
2001
0000
0002
3003
,  // measure 18
2002
0000
0000
3003
,  // measure 19
2000
0000
0000
0001
0000
0000
3010
0100
,  // measure 20
0002
0203
0320
0230
,  // measure 21
2300
0000
3002
0003
,  // measure 22
1000
0001
1000
0000
0001
0010
0001
0000
,  // measure 23
2000
0000
0000
0001
0000
0000
3100
0010
,  // measure 24
0200
2300
3002
2003
,  // measure 25
3002
0000
0203
0300
,  // measure 26
0220
0330
0022
0033
,  // measure 27
0001
0001
0000
0010
0000
0100
0000
1000
,  // measure 28
0000
0010
0000
0100
0000
0001
0010
0000
,  // measure 29
0100
1000
0000
1000
0000
0100
0000
0100
,  // measure 30
0000
0010
0000
0000
1001
0000
0100
0000
,  // measure 31
2002
0000
0000
3003
,  // measure 32
0220
0000
0000
0330
,  // measure 33
0001
1000
0001
0000
0001
1000
0000
1000
,  // measure 34
0100
0000
0100
0010
0000
0010
0100
0000
,  // measure 35
0100
0010
0100
0000
0100
0010
0000
0010
,  // measure 36
0100
2002
0000
3003
,  // measure 37
1001
0010
0001
1000
,  // measure 38
0100
0010
0100
0010
0100
0000
0010
0000
,  // measure 39
0001
1000
0100
0010
,  // measure 40
0001
0100
0010
1000
0001
0000
0001
0000
,  // measure 41
2000
0002
0000
0000
0000
0000
3003
0000
,  // measure 42
2000
0000
3001
0010
0100
0000
1000
0000
,  // measure 43
0220
0000
0000
0000
0000
0000
0000
0330
,  // measure 44
2002
0000
0000
0000
0000
0000
0000
3003
,  // measure 45
0001
1000
0001
1001
,  // measure 46
0100
0110
0001
0011
,  // measure 47
0001
1001
0010
0101
,  // measure 48
0010
1001
0100
1100
,  // measure 49
0001
1000
0001
0000
0100
0010
0100
0000
,  // measure 50
0001
0010
0001
0000
0001
1000
0001
0000
,  // measure 51
0010
0100
0010
0000
0001
1000
0001
0000
,  // measure 52
1000
0100
1000
0001
0010
0001
1000
0000
,  // measure 53
0002
0000
0000
1000
0000
0003
0100
0010
,  // measure 54
0200
0320
0032
2003
,  // measure 55
3002
0000
0023
0030
,  // measure 56
0100
1000
0100
0000
0010
0001
0010
0000
,  // measure 57
2000
0000
0000
0001
0000
0000
3100
0010
,  // measure 58
0200
0320
0032
0203
,  // measure 59
0320
0000
2030
0000
,  // measure 60
3020
0000
0000
0000
0230
0000
0000
0300
,  // measure 61
1000
0001
0000
0010
0000
0001
0010
0100
,  // measure 62
1000
0100
0010
0001
0010
0000
1000
0000
,  // measure 63
0001
1000
0000
1100
0000
0000
0000
0011
,  // measure 64
0000
0011
0000
0000
1001
0000
0000
0000
,  // measure 65
2002
0000
0000
3003
,  // measure 66
0220
0000
0000
0330
,  // measure 67
1000
0100
0010
0000
0010
0001
0000
0001
,  // measure 68
1000
0000
1000
0001
0000
0001
1000
0001
,  // measure 69
1000
0001
1000
0000
0100
0010
0000
0010
,  // measure 70
0100
0100
2002
3003
,  // measure 71
1000
0001
1000
0100
,  // measure 72
0010
0001
0100
0001
0100
0000
0010
0000
,  // measure 73
1000
0001
0100
0010
,  // measure 74
1000
0010
0001
0010
1000
0000
0001
0000
,  // measure 75
2001
0000
0000
0000
,  // measure 76
0001
0000
0000
0000
,  // measure 77
0010
0000
0000
0000
,  // measure 78
0001
0000
0000
0000
0000
3000
0000
0000
,  // measure 79
0001
0010
0001
0000
0001
0010
0001
0000
,  // measure 80
0001
1000
0001
0000
0001
1000
0001
0000
,  // measure 81
1000
0100
1000
0000
0100
0010
0001
0000
,  // measure 82
1000
0001
1000
0000
0001
1000
0001
0000
,  // measure 83
0001
0010
0100
0000
1000
0010
0100
0000
,  // measure 84
0001
0010
0100
0000
1000
0001
0100
0000
,  // measure 85
0010
1000
0001
0000
0100
0010
0100
0000
,  // measure 86
0001
1000
0001
0000
1000
1000
0100
0000
,  // measure 87
0010
0001
0010
0001
0010
0001
0010
0001
,  // measure 88
1001
0000
0000
0000
;

//---------------dance-single - ----------------
#NOTES:
     dance-single:
     :
     Easy:
     7:
     0.359,0.500,0.195,0.292,0.000: // measure 1
0000
0000
0000
0000
,  // measure 2
0000
0000
0000
0000
,  // measure 3
1000
0000
0001
0000
,  // measure 4
1000
0000
0100
0000
,  // measure 5
0110
0000
1001
0000
,  // measure 6
0011
0000
1000
0001
,  // measure 7
1001
0000
0010
0000
,  // measure 8
0100
0000
0010
0100
,  // measure 9
0110
0000
0001
0000
,  // measure 10
1000
0000
0100
0000
,  // measure 11
0010
0000
0001
0000
,  // measure 12
1000
0000
0100
0000
,  // measure 13
0010
0001
0010
0001
,  // measure 14
0100
0001
0100
0001
,  // measure 15
0010
1000
0010
1000
,  // measure 16
0001
0100
0001
1000
,  // measure 17
2002
0000
3003
0000
,  // measure 18
0220
0000
0330
0000
,  // measure 19
0001
0000
0000
1000
0000
0000
0100
0000
,  // measure 20
0010
0001
1000
0001
,  // measure 21
0020
0000
0032
0000
,  // measure 22
0103
0000
1001
0000
,  // measure 23
0200
0000
0000
0310
0000
0000
0001
0000
,  // measure 24
1000
0010
0100
0001
,  // measure 25
2000
0000
3002
0000
,  // measure 26
0013
0000
0100
0000
,  // measure 27
1000
0001
0000
0010
0000
0000
0000
0000
,  // measure 28
0000
0000
0000
0001
,  // measure 29
1000
0001
0000
0010
0000
0000
0000
0000
,  // measure 30
0000
0000
0000
0000
,  // measure 31
2002
0000
0000
3003
,  // measure 32
0220
0000
0000
0330
,  // measure 33
1000
0000
0100
0000
0010
0000
0000
0001
,  // measure 34
0000
0000
1000
0000
0000
0100
0000
0000
,  // measure 35
0010
0000
0001
0000
1000
0000
0000
0001
,  // measure 36
0000
0010
0000
0000
,  // measure 37
0100
1000
0100
1000
,  // measure 38
0001
0001
0001
0001
,  // measure 39
0100
0010
0100
0010
,  // measure 40
0001
0001
0001
0001
,  // measure 41
1001
0000
0000
0000
,  // measure 42
0220
0000
0000
0330
,  // measure 43
2000
0000
0000
3000
,  // measure 44
0002
0000
0000
0003
,  // measure 45
1000
1100
0100
0110
,  // measure 46
0010
0011
0001
1001
,  // measure 47
0100
0110
0010
1010
,  // measure 48
1000
1001
0001
1001
,  // measure 49
1000
0100
0010
0001
,  // measure 50
1000
0100
0010
0001
,  // measure 51
0100
0010
0100
0010
,  // measure 52
1000
0001
1000
0001
,  // measure 53
1000
0000
0000
0001
,  // measure 54
1000
0100
0010
0001
,  // measure 55
2000
0000
3002
0000
,  // measure 56
0010
0010
0010
0013
,  // measure 57
2000
0000
0000
0001
,  // measure 58
3010
0010
0010
0100
,  // measure 59
0002
0000
2003
0000
,  // measure 60
3200
0000
0320
0000
,  // measure 61
0031
0000
0000
0100
0000
0000
0000
0000
,  // measure 62
0000
0000
0000
0001
,  // measure 63
1000
0100
0000
0010
0000
0000
0000
0000
,  // measure 64
0000
0000
0000
0000
,  // measure 65
2002
0000
0000
3003
,  // measure 66
0220
0000
0000
0330
,  // measure 67
1000
0000
0100
0000
0000
1000
0000
0000
,  // measure 68
0001
0000
0000
0010
0000
0000
0100
0000
,  // measure 69
1000
0000
0001
0000
0010
0000
0000
0100
,  // measure 70
0000
1000
0000
0001
,  // measure 71
1000
1000
0100
0100
,  // measure 72
0010
0001
0010
0000
,  // measure 73
0100
1000
0100
0010
,  // measure 74
0001
0100
0010
1000
,  // measure 75
0002
0000
0000
0000
,  // measure 76
2003
0000
0000
0000
,  // measure 77
3200
0000
0000
0000
,  // measure 78
0320
0000
0000
0000
,  // measure 79
0031
1000
0001
0100
,  // measure 80
0010
1000
0001
0010
,  // measure 81
0100
1000
0001
0100
,  // measure 82
0010
1000
0001
0010
,  // measure 83
0100
1000
0001
0100
,  // measure 84
0010
0100
0010
0100
,  // measure 85
0001
1000
0001
0001
,  // measure 86
1000
0001
1000
0001
,  // measure 87
2000
0000
0000
0000
,  // measure 88
3001
0000
0000
0000
;

//---------------dance-single - ----------------
#NOTES:
     dance-single:
     :
     Beginner:
     3:
     0.168,0.308,0.097,0.000,0.000: // measure 1
0000
0000
0000
0000
,  // measure 2
0000
0000
0000
0000
,  // measure 3
1000
0000
0000
0000
,  // measure 4
0001
0000
0000
0000
,  // measure 5
1000
0000
1000
0000
,  // measure 6
0100
0000
0100
0000
,  // measure 7
0010
0000
0010
0000
,  // measure 8
0001
0000
0001
0000
,  // measure 9
1000
0000
0100
0000
,  // measure 10
0010
0000
0001
0000
,  // measure 11
1000
0000
0100
0000
,  // measure 12
0010
0000
0001
0000
,  // measure 13
1000
0000
0001
0000
,  // measure 14
0100
0000
0010
0000
,  // measure 15
1000
0000
0001
0000
,  // measure 16
1000
0000
0001
0000
,  // measure 17
1000
0000
0000
0000
,  // measure 18
0001
0000
0000
0000
,  // measure 19
1000
0000
0000
0000
,  // measure 20
0100
0100
0100
0000
,  // measure 21
0010
0000
0000
0000
,  // measure 22
0001
0000
1000
0000
,  // measure 23
0100
0000
0000
0000
,  // measure 24
0010
0010
0010
0000
,  // measure 25
0001
0000
0000
0000
,  // measure 26
1000
0000
0000
0000
,  // measure 27
0001
0000
0000
0000
,  // measure 28
0000
0000
0000
0000
,  // measure 29
1001
0000
0000
0000
,  // measure 30
0000
0000
0000
0000
,  // measure 31
1000
0000
0000
0000
,  // measure 32
0001
0000
0000
0000
,  // measure 33
1000
0000
0000
0000
,  // measure 34
0000
0000
0000
0000
,  // measure 35
0010
0000
0000
0000
,  // measure 36
0000
0000
0000
0000
,  // measure 37
0001
0000
0000
0000
,  // measure 38
1000
1000
1000
0000
,  // measure 39
0100
0000
0000
0000
,  // measure 40
0001
0001
0001
0000
,  // measure 41
1000
0000
0000
0000
,  // measure 42
0000
0000
0000
0000
,  // measure 43
0001
0000
0000
0000
,  // measure 44
0000
0000
0000
0000
,  // measure 45
1000
0000
1000
0000
,  // measure 46
0100
0000
0100
0000
,  // measure 47
0010
0000
0010
0000
,  // measure 48
0001
0000
0001
0000
,  // measure 49
1000
0000
1000
0000
,  // measure 50
0100
0000
0100
0000
,  // measure 51
0010
0000
0010
0000
,  // measure 52
0001
0000
0001
0000
,  // measure 53
1000
0000
0000
0000
,  // measure 54
0100
0100
0100
0000
,  // measure 55
0001
0000
0000
0000
,  // measure 56
1000
0000
0000
0000
,  // measure 57
0001
0000
0000
0000
,  // measure 58
1000
1000
1000
0000
,  // measure 59
0001
0000
0000
0000
,  // measure 60
1000
0000
0000
0000
,  // measure 61
0100
0000
0000
0000
,  // measure 62
0000
0000
0000
0000
,  // measure 63
0010
0000
0000
0000
,  // measure 64
0000
0000
0000
0000
,  // measure 65
1001
0000
0000
0000
,  // measure 66
0001
0000
0000
0000
,  // measure 67
1000
0000
0000
0000
,  // measure 68
0000
0000
0000
0000
,  // measure 69
0001
0000
0000
0000
,  // measure 70
0000
0000
0000
0000
,  // measure 71
1000
1000
1000
0000
,  // measure 72
0100
0000
0010
0000
,  // measure 73
0001
0001
0001
0000
,  // measure 74
1000
0000
0100
0000
,  // measure 75
0001
0000
0000
0000
,  // measure 76
1000
0000
0000
0000
,  // measure 77
0001
0000
0000
0000
,  // measure 78
0100
0000
0000
0000
,  // measure 79
0000
0110
0000
1001
,  // measure 80
0000
0110
0000
1001
,  // measure 81
0000
0110
0000
1001
,  // measure 82
0000
0110
0000
1001
,  // measure 83
0000
0001
0000
1000
,  // measure 84
0000
0001
0000
1000
,  // measure 85
0000
0100
0000
0010
,  // measure 86
0000
0001
0000
1000
,  // measure 87
0000
0000
0000
0000
,  // measure 88
1001
0000
0000
0000
;
