#TITLE:Kiss Kiss;
#SUBTITLE:;
#ARTIST:DJ Happyman;
#TITLETRANSLIT:;
#SUBTITLETRANSLIT:;
#ARTISTTRANSLIT:;
#GENRE:;
#CREDIT:Braeden;
#MUSIC:Kiss Kiss.ogg;
#BANNER:ban.png;
#BACKGROUND:bg.png;
#JACKET:bg.png;
#CDTITLE:;
#SAMPLESTART:25.614;
#SAMPLELENGTH:11.960;
#SELECTABLE:YES;
#OFFSET:0.204;
#BPMS:0.000=170.300
,60.000=153.300
,61.000=167.300
,62.000=181.300
,64.000=170.300
;
#STOPS:128.000=1.057;
#BGCHANGES:;
#FGCHANGES:;

//--------------- dance-single - ----------------
#NOTES:
     dance-single:
     :
     Beginner:
     4:
     0.294,0.404,0.521,0.018,0:
0000
0000
0000
0000
,
0000
0000
0000
0000
,
0000
0000
0000
0000
,
0000
0000
0000
0000
,
1000
0000
0001
0000
,
1000
0000
0010
0000
,
0100
0000
0001
0000
,
1000
0000
0001
0000
,
1001
0000
1000
0000
,
0001
0000
0100
0000
,
0010
0000
1000
0000
,
0001
0000
1000
0000
,
0001
0000
0100
0000
,
0010
0000
1000
0000
,
0001
0000
1000
0000
,
1001
0000
0000
0000
,
1001
0000
0001
0000
,
1000
0000
0001
0000
,
0100
0000
0100
0100
,
0100
0000
0000
0000
,
0001
0000
0100
0000
,
0010
0000
1000
0000
,
0001
0000
1000
0000
,
0001
0000
1000
0000
,
1001
0000
0000
0100
,
0100
0000
0000
0000
,
0010
0000
1000
0000
,
0001
0000
1000
0000
,
1001
0000
0000
0100
,
0100
0000
0000
0000
,
0001
0000
1000
0000
,
0001
0000
1000
0000
,
0001
1001
0000
1000
,
0000
0001
0000
0100
,
0000
0000
0000
0010
,
0000
1000
0000
0001
,
0000
0000
0000
0100
,
0000
0010
0000
1000
,
0000
0100
0100
0000
,
0100
0100
0000
0000
,
0000
1001
0000
0001
,
0000
0100
0000
0001
,
0000
1000
0000
0001
,
0000
0010
0000
0001
,
0000
1000
0000
0001
,
0000
0010
0000
0001
,
0000
0100
0100
0000
,
0100
0100
0000
0000
,
0000
1001
0000
0000
,
0000
0001
0000
0000
,
0000
1000
0000
0000
,
0000
0010
0000
0000
,
0000
0100
0000
0000
,
0000
0001
0000
0000
,
0000
1000
0000
0000
,
0000
0010
0000
0000
,
0000
1001
0000
0001
,
0000
0100
0000
0001
,
0000
1000
0000
0100
,
0000
1000
0000
0001
,
0000
0100
0000
0010
,
0000
1000
0000
0100
,
0000
0010
0000
0001
,
0000
1000
0000
0000
,
0000
1001
0000
1000
,
0000
0000
0000
0001
,
0000
0100
0000
0100
,
0100
0100
0000
0000
,
0000
0000
0001
0000
,
1000
0000
0001
0000
,
1000
0000
0010
0000
,
0000
1001
0000
0000
,
0000
2002
0000
3003
;

//--------------- dance-single - ----------------
#NOTES:
     dance-single:
     :
     Easy:
     6:
     0.521,0.6,1,0,0:
0000
0000
0000
0000
,
0000
0000
0000
0000
,
0000
0000
0000
0000
,
0000
0000
0000
0000
,
1000
0000
0001
0000
,
1000
0010
1000
0010
,
1000
0001
1000
0000
,
0010
0100
0001
1000
,
1001
0001
0100
0000
,
0010
1000
0001
1000
,
0010
1000
0100
0010
,
0001
1000
0010
1000
,
0001
0100
0010
1000
,
0100
0010
0001
1000
,
0010
1000
0001
1000
,
1001
0000
0000
0000
,
0110
0100
0001
1000
,
0010
1000
0001
1000
,
0100
1000
0100
0100
,
0100
1000
0001
0100
,
0110
0010
1000
0001
,
1000
0100
0010
0001
,
1000
0010
0100
0001
,
0100
0010
1000
0001
,
1001
1000
0010
0100
,
0100
0010
1000
0001
,
0010
0100
1000
0100
,
0010
0001
1000
0010
,
1010
1000
0001
0100
,
0100
0010
1000
0001
,
1000
0100
0010
0001
,
1000
0001
1000
0001
,
10M0
1001
0001
0100
,
0010
1000
0100
0010
,
0001
1000
0010
0100
,
0001
0010
0100
1000
,
0010
0100
0001
1000
,
0100
0010
0100
1000
,
0001
0100
0100
1000
,
0100
0100
0010
1000
,
0001
1001
1000
0001
,
0010
0001
1000
0010
,
0100
0001
1000
0100
,
0010
0100
1000
0001
,
0100
0010
1000
0100
,
0010
0001
1000
0010
,
1000
0100
0100
0010
,
0100
0100
0010
0100
,
1000
1001
0001
1000
,
0010
1001
0001
0100
,
0010
0110
0100
0001
,
1000
1001
1000
0010
,
1000
1001
0001
0100
,
0010
0110
0100
0001
,
1000
1001
0001
0100
,
0010
0110
0010
1000
,
0001
1000
0010
1000
,
0001
0100
0001
0010
,
0001
1000
0100
1000
,
0001
0010
0001
1000
,
0100
0010
0001
0010
,
0001
1000
0010
1000
,
0001
0100
0010
1000
,
0100
0000
0010
0000
0001
0000
0000
1000
,
0000
1001
0001
1000
,
0010
1000
0001
0010
,
0010
0100
1000
0100
,
0100
0100
0010
0100
,
0010
1001
1000
0010
,
1000
0001
0100
0010
,
1000
0001
0100
0010
,
1000
1001
0000
0000
,
0010
2002
0000
0000
,
3003
0000
0000
0000
;

//--------------- dance-single - ----------------
#NOTES:
     dance-single:
     :
     Medium:
     11:
     0.514,0.606,0.274,0.174,0:
0000
0000
0000
0000
,
0000
0000
0000
0000
,
0000
0000
0000
0000
,
0000
0000
0000
0000
,
1000
0001
0100
0000
,
0010
0000
1000
0000
0001
1000
0001
1000
,
0001
0100
0010
1000
,
0001
0000
1000
0000
0100
1000
0100
1000
,
1100
0001
0100
0001
,
1000
0000
0100
0000
1000
0100
1000
0100
,
1000
0001
0100
0010
,
1000
0000
0001
0000
1000
0100
1000
0100
,
1000
0001
0100
0001
,
1000
0000
0100
0000
1000
0100
1000
0100
,
1000
0001
1000
0001
,
0001
0000
0000
0000
,
1001
0000
1000
0100
1000
0000
1001
0000
,
0000
0001
0010
0100
1000
0100
1000
0000
,
0100
0000
0100
0010
0100
0000
0100
0000
,
0100
0000
1000
0100
0010
0001
1000
0000
,
1001
0000
0001
1000
0001
1000
0001
0000
,
0101
0000
0001
1000
0001
1000
0001
0000
,
1100
0100
0110
0010
,
0011
0000
0001
1000
0001
1000
0001
0000
,
1001
1000
0001
0100
,
0100
0010
1000
0010
,
1000
0100
0010
0100
1000
0010
0100
0010
,
1000
0100
0010
0001
1000
0010
1000
0000
,
1010
1000
0001
0100
,
0100
0010
1000
0100
,
1001
0100
0010
0100
,
0001
0100
0010
0100
0001
1000
0010
0100
,
M001
1001
0100
0010
,
0100
0010
0100
0010
,
0100
0010
0100
0000
1000
0000
0001
0000
,
1000
0100
0010
0001
,
1000
0001
1000
0000
0100
0000
0010
0000
,
0100
1000
0001
0100
,
0001
1000
0100
0000
0100
0000
1000
0001
,
0100
0000
0100
0000
0001
0000
1000
0100
,
0010
0001
1000
0000
0001
1000
0001
1000
,
0010
0100
0010
0100
0001
0010
0001
0010
,
0100
1000
0100
1000
0001
0010
0100
1000
,
0001
1000
0001
0100
0001
0100
0010
1000
,
0010
1000
0001
1000
0100
0010
0001
0010
,
0100
0010
0100
1000
0001
1000
0100
1000
,
0100
1000
0100
0000
0100
0000
0100
0010
,
0100
0110
0000
0000
,
0000
0000
1001
0000
0001
1000
0000
0000
,
2000
0000
3020
0000
0130
0001
0000
0000
,
2000
0000
3020
0000
0031
0010
0000
0000
,
2000
0000
3020
0000
0130
0010
0000
0000
,
2000
0000
3020
0000
1030
0010
0000
0000
,
0002
0000
2003
0000
3100
0010
0000
0000
,
2000
0000
3200
0000
0310
0001
0000
0000
,
0001
0000
1000
0001
1000
0001
0100
0010
,
0100
2001
0100
0010
,
3100
0210
0001
0001
,
0301
1002
1000
1000
,
1003
0000
0100
0010
0100
0010
0000
0000
,
0001
0000
1000
0001
1000
0001
0000
0000
,
0001
0000
0100
0001
0100
0001
0000
0000
,
0010
0000
0001
0010
0001
0010
0000
0000
,
0100
0000
0010
0100
0010
0100
0000
0100
,
0000
0100
0110
0000
0001
0000
1000
0000
,
0001
0010
0100
1000
,
0001
0000
0100
0000
0010
1000
0100
0000
,
0100
0100
1000
0001
,
1000
0001
1000
0000
0110
0000
0001
0000
,
0110
1000
1001
0010
,
1001
0100
1100
0100
,
0110
2002
0000
3003
,
0100
1000
2002
0000
0000
0000
0000
0000
,
3003
0000
0000
0000
;

//--------------- dance-single - JA XO ----------------
#NOTES:
     dance-single:
     JA XO:
     Hard:
     13:
     0.683,0.639,0.155,0.037,0.137:
0000
0000
0000
0000
,
0000
0000
0000
0000
,
0000
0000
0000
0000
,
0000
0000
0000
0000
,
1000
0000
0100
0000
1000
0000
0100
0000
0010
0000
0000
0001
0000
0000
0010
0000
,
0100
1000
0100
0001
0100
1000
1000
1000
,
0001
0000
0100
0000
0001
0000
0100
0000
0001
0000
0000
0100
0000
0000
0001
0000
,
1000
0100
0001
0100
1000
0001
0001
0001
,
1001
0000
0000
0000
1000
0000
0010
0000
1000
0000
0000
0010
0000
0000
1000
0000
,
0001
0100
1000
0100
0001
0100
0100
0100
,
0001
0000
0010
0000
0001
0000
0100
0000
0001
0000
0000
0001
0000
0000
0100
0000
,
0001
0010
0001
0010
0100
1000
1000
1000
,
0001
0010
0100
0010
0001
0100
0010
0100
,
0001
0100
0010
1000
0010
0100
0100
0100
,
0010
1000
0001
0010
0001
0010
0100
0010
,
0220
0000
0330
0000
,
1001
0001
1000
0100
0001
0100
0010
0001
,
0100
0010
1000
0100
0010
0100
1000
0000
,
0100
0000
0100
1000
0100
0000
0100
0000
,
0100
0000
0010
0001
0010
0100
1000
0100
,
0011
0000
0001
1000
0001
1000
0100
0010
,
0001
0010
0100
1000
0010
0100
0001
0100
,
0001
0100
1000
0100
0010
0100
0001
0100
,
0001
0000
1000
0000
0001
0000
0010
0000
0001
0000
1000
0000
0001
0010
0001
0010
,
0001
0000
1000
0000
0100
0000
0010
0000
0001
1000
0000
0001
0100
0000
0000
0000
,
0100
0010
1000
0010
1000
0100
0001
0100
,
1000
0100
0010
0001
0100
0010
1000
0010
,
0001
0000
0010
0000
0100
0000
0010
0000
1000
0000
0010
0000
1000
0010
1000
0010
,
1000
0001
0100
0001
0100
0001
0200
0300
,
0200
0300
0010
1000
0100
0010
0001
0010
,
0100
1000
0010
0100
0001
0100
0010
0100
,
0001
0010
1000
0010
0001
0100
0010
0100
,
0000
0000
1001
0001
1000
0010
0100
0001
,
1000
0100
1000
0001
1000
0100
0010
0001
,
1000
0001
1000
0001
1000
0000
0001
0000
1000
0000
0010
0000
1000
0000
0010
0000
,
0100
0010
0100
0010
0001
0010
0001
0010
,
0100
0010
0100
0010
1000
0010
1000
0010
,
0100
0001
0100
0010
1000
0100
1000
0000
,
0001
0010
0100
0000
0100
0000
0010
0001
,
0100
0000
0100
0000
0001
0000
0001
0001
,
0001
0001
1001
0000
1000
0100
1000
0100
,
0010
0001
0010
0001
0010
0100
0010
0100
,
1000
0001
1000
0001
1000
0000
0000
0000
0100
0000
0010
0000
0100
0000
0010
0000
,
0001
0100
0001
0010
0100
1000
0010
1000
,
0001
0010
0001
0000
0100
0010
1000
0100
,
0010
0001
0100
0010
0100
0010
1000
0000
,
1000
0100
0100
0000
0100
0000
0100
1000
,
0100
0000
0100
0000
1100
0000
0100
0010
,
0001
0010
0011
0000
0001
0010
0000
0010
,
0100
1000
0100
0010
0001
0010
0000
0010
,
0100
1000
0010
0100
0001
0100
0000
0100
,
0010
1000
0001
0100
1000
0100
0000
0100
,
0001
0100
0010
1000
0010
0100
0000
0100
,
0001
0100
0010
1000
0010
1000
0000
1000
,
0100
0010
0001
0010
0100
0010
0000
0100
,
0010
0100
0010
0001
0010
0100
1000
0010
,
0100
0001
0010
0001
1000
0001
0000
0100
,
1000
0100
0001
0100
0010
1000
0000
0100
,
0001
0100
1000
0010
0001
0010
0000
0100
,
0001
0100
0010
1000
0100
0001
0000
0100
,
0010
0000
0100
0000
1000
0000
0000
1000
0010
0000
0000
0010
0100
0000
0000
0100
,
0001
0000
0000
0001
1000
0000
0000
1000
0100
0000
0000
0100
0010
0000
0000
0010
,
0001
0000
0000
0001
0100
0000
0000
0100
0010
0000
0000
0010
1000
0000
0000
1000
,
0001
0000
0000
0001
0100
0000
0010
0000
0100
0000
0010
0000
0000
0000
0010
0000
,
0000
0010
1001
0000
1000
0100
0001
0100
,
1000
0100
0010
0100
1000
0001
0100
1000
,
0100
0001
0100
0010
0100
0001
0100
0010
,
0100
0001
0100
1000
0100
0010
1000
0010
,
0100
0001
0100
0001
0100
0000
0010
0000
1010
0000
0000
0000
0001
0000
1000
0000
,
1001
0000
1000
0001
1001
0000
0001
1000
,
1100
0000
0100
0010
0110
0000
0001
1000
,
1001
0001
1001
0000
0001
0000
1000
0000
,
1000
0001
1000
0002
2000
0000
0000
0000
0000
0000
0000
0000
0000
0000
3003
0000
;

//--------------- dance-single - STR FS XO SJ+ ----------------
#NOTES:
     dance-single:
     STR FS XO SJ+:
     Challenge:
     17:
     0.85,1,0.283,0.018,0.475:
0000
0000
0000
0000
,
0000
0000
0000
0000
,
1000
0000
0100
0000
1000
0000
0001
0000
0100
0010
0000
0100
0001
0000
1000
0000
,
0100
0010
0001
0100
0010
1000
1000
1000
,
0001
0000
0100
0000
0010
0000
1000
0000
0001
0010
0000
0100
1000
0000
0010
0000
,
0100
0001
0100
0010
0100
0001
0001
0001
,
1000
0000
0100
0000
0010
0000
0001
0000
0010
0100
0000
1000
0100
0000
0010
0000
,
0001
0100
0010
0100
0001
1000
1000
1000
,
1001
0000
0001
0000
1000
0000
0100
0000
1000
0100
00M0
0100
0001
0000
1000
0000
,
0001
0100
0010
0100
0001
1000
1000
1000
,
0001
0010
0001
0100
0010
1000
0100
1000
0001
0100
0010
1000
0001
0010
0100
1000
,
0001
0100
0010
1000
0100
1000
0001
0100
0010
1000
0100
0010
0001
1000
0001
0100
,
0010
1000
0100
0010
0100
1000
0001
0100
0010
0100
0001
1000
0100
1000
0001
0100
,
0010
1000
0100
0010
0001
0100
0001
0010
0100
1000
0010
1000
0001
0100
0010
1000
,
0100
0010
0001
0100
0010
1000
0100
1000
0001
0100
0010
1000
0100
0010
0001
0100
,
0001
0000
0000
0000
,
1001
0000
0001
0000
1000
0000
0100
0000
0001
0100
0000
0010
0001
0000
1000
0000
,
0100
0000
0010
0000
0001
0000
0100
0000
0001
0100
00M0
0100
1000
0000
0100
0000
,
0110
0000
0010
0000
0001
0000
0010
0000
0100
1000
0000
1000
0100
0000
0010
0000
,
0100
1000
0100
1000
0010
0100
0001
1000
,
1001
0000
0001
0000
0010
0000
0100
0000
1000
0001
1000
0001
1000
0000
0010
0000
,
0001
0000
0010
0000
1000
0000
0001
0000
0010
0100
0001
0100
0010
0000
1000
0000
,
0100
0000
0010
0000
0100
0000
1000
0000
0010
0100
0010
0100
0001
0000
0100
0000
,
0001
0000
1000
0000
0001
0000
0010
0000
0001
0000
1000
0000
0001
0010
0001
0010
,
0001
0000
1000
0000
0100
0000
0010
0000
0001
0100
00M0
0100
1000
0000
0010
0000
,
0100
0000
0010
0000
1000
0000
0010
0000
1000
0100
00M0
0100
0001
0000
0100
0000
,
0001
0000
0100
0000
0010
0000
1000
0000
0001
0010
0100
0010
0001
0000
0010
0000
,
0001
0000
0010
0000
0100
0000
1000
0000
0010
0000
1000
0000
0010
0100
0001
0010
,
0100
0000
1000
0000
0100
0000
0010
0000
0100
1000
0000
0010
0100
0000
0001
0000
,
0100
0000
0010
0000
0100
0000
0001
0000
0010
0001
0000
1000
0001
0000
0010
0000
,
0100
1000
0010
0100
0001
0100
0010
1000
,
1100
0000
0100
0000
0110
0000
0010
0000
1000
0100
0010
0001
0010
0100
1000
0001
,
1MM1
0000
1001
1000
0011
0010
0110
0100
,
1000
0100
0010
0001
0100
0010
1000
0001
,
1000
0100
0010
0001
1000
0000
0100
0000
1100
0000
0100
0000
0110
0000
0010
0001
,
1000
0000
0010
0000
0100
0000
0001
0010
0100
0000
1000
0000
0001
0000
0010
0000
,
0001
0010
0100
1000
0001
0000
0010
0000
0011
0000
0001
0000
1001
0000
1000
0010
,
0100
0000
0001
0000
0100
0000
0010
0000
1000
0001
1000
0000
0001
0000
1000
0000
,
0001
0010
0100
1000
0100
0000
0010
0001
0100
0000
0010
0000
1000
0000
0001
1000
,
0100
0000
1000
0000
1100
0000
1000
0000
1001
0000
1000
0000
1010
0000
1000
0010
,
0100
0001
0100
0010
1000
0000
0001
0010
0001
0010
0001
0000
1000
0000
0100
0010
,
0001
0000
1000
0000
0010
0000
1000
0000
0010
0100
0010
0000
1000
0000
0100
1000
,
0001
0010
0100
1000
0001
0000
1000
0010
1000
0000
0001
0100
0001
0000
0010
0100
,
1000
0000
0001
0100
0010
0000
0100
0010
1000
0001
1000
0010
1000
0000
0001
0010
,
0100
1000
0100
0010
0001
0000
1000
0010
0100
0000
0001
1000
0001
0000
1000
0100
,
0010
0000
0001
0000
0100
0000
0001
0010
0100
0000
1000
0000
0100
0000
0010
0001
,
1000
0100
0010
0100
1000
0000
0010
1000
0100
0000
1000
0000
0100
0000
0010
0000
,
0100
0000
1000
0000
0100
0000
1000
0001
1000
0010
1000
0000
0100
0000
0010
0100
,
1000
0001
1000
0010
2000
0000
0000
0000
3100
00M0
0100
0000
0001
0000
0001
0000
,
0010
0000
1000
0000
0010
0000
0001
0000
0010
0M00
0010
0000
1000
0000
0100
0000
,
0001
0000
0001
0000
0100
0000
1000
0000
0010
0M00
0010
0000
0001
0000
1000
0000
,
0100
0001
0100
0100
0010
0010
1000
0100
,
1000
0000
0100
0000
0010
0000
0001
0000
0010
0M00
0010
0000
1000
0000
0001
0000
,
0100
0000
1000
0000
0100
0000
0001
0000
0100
00M0
0100
0000
1000
0000
0001
0000
,
0010
0000
1000
0000
0010
0000
0001
0000
0010
0M00
0010
0000
1000
0000
0001
0000
,
0010
0100
0110
0010
0011
0001
1001
1000
,
1010
0010
0110
1000
0100
0001
0100
1000
,
0001
0100
1000
0100
0010
1000
0001
0100
,
1000
0100
0001
0010
1000
0010
0001
0100
,
1000
0100
0010
1000
0100
1000
0001
0100
,
0010
0000
1000
0000
0001
0100
0010
1000
0100
0010
0001
1000
0001
0100
0010
1000
,
0100
1000
0001
0010
0100
1000
0001
0100
0010
0100
0001
1000
0100
0010
0100
1000
,
0001
1000
0010
0100
0001
0100
0010
1000
0100
0010
0001
0100
0010
1000
0100
1000
,
0001
0100
0010
1000
0001
0000
1000
0000
0100
0000
0010
0000
0000
0000
0010
0000
,
0000
0010
1001
0000
1000
0100
0001
0100
,
1000
0100
0010
0100
1000
0001
0100
1000
,
0100
0001
0100
0010
0100
0001
0100
0010
,
0100
0001
0100
1000
0100
0010
1000
0010
,
0100
0001
0100
0001
0100
0000
0010
0000
1010
0000
1000
0000
0001
0000
1000
0000
,
1001
0001
0100
0010
1010
1000
0001
1000
,
1100
0010
0001
0010
1001
1000
0001
1000
,
1001
0001
1001
0000
0001
0000
1000
0000
,
1000
0001
1000
0002
2000
0000
0000
0000
0000
0000
0000
0000
0000
0000
3003
0000
;

//--------------- dance-double - ----------------
#NOTES:
     dance-double:
     :
     Hard:
     14:
     0,0,0,0,0:
00000000
00000000
00000000
00000000
,
00000000
00000000
00000000
00000000
,
00000000
00000000
00000000
00000000
,
00000000
00000000
00000000
00000000
,
00010000
00000000
00001000
00000000
00010000
00000000
00001000
00000000
01000000
00010000
00000000
01000000
00010000
00000000
10000000
00000000
,
01000000
00100000
00001000
00010000
00000010
00000100
00000100
00000100
,
00000001
00000000
00000010
00000000
00000100
00000000
00001000
00000000
00000100
00010000
00000000
00000100
00010000
00000000
00001000
00000000
,
01000000
00100000
01000000
00010000
10000000
00010000
00010000
00010000
,
10010000
00000000
10000000
00000000
00100000
00000000
01000000
00000000
00001000
00010000
00000000
00001000
00010000
00000000
00000010
00000000
,
00001000
00000100
00000010
00000001
00001000
00000010
00000010
00000010
,
00010000
00000000
00001000
00000000
01000000
00000000
00100000
00000000
10000000
00010000
00000000
10000000
00100000
00000000
10000000
00000000
,
01000000
00100000
00010000
00001000
00000100
00000010
00000010
00000010
,
00000001
00000000
00001000
00000000
00000010
00000000
00010000
00000000
00001000
00100000
00000000
00001000
00100000
00000000
00010000
00000000
,
10000000
01000000
00010000
00001000
00010000
00000010
00000010
00000010
,
00001000
00000000
00000100
00000000
00000001
00000000
00000100
00000000
00001000
00000001
00000000
00001000
00000100
00000000
00010000
00000000
,
00022000
00000000
00033000
00000000
,
00101000
00100000
00010000
00001000
00010000
00100000
00001000
00010000
,
00000010
00000100
00000010
00010000
00001000
00010000
00000100
00000000
,
01000100
00000000
01000000
00010000
01000000
00010000
00000100
00010000
,
01000000
00000000
00001000
00010000
00000100
00001000
00000001
00000000
,
00001001
00000001
00001000
00000010
00000100
00001000
00000100
00000010
,
00010000
00001000
00010000
00100000
00010000
00001000
01000000
00001000
,
01001000
00011000
00010010
00001001
,
00000110
00000000
00000000
00000000
00000100
00000000
00000001
00000000
00000100
00000000
00000001
00000000
00001000
00000100
00001000
00000100
,
00001000
00000100
00000001
00000100
00001000
00000000
01000100
00000000
,
01000100
00000000
01000000
00100000
00010000
00100000
01000000
00001000
,
00020000
00000000
00030010
00000100
00000010
00010000
00001000
00000100
,
00001000
00000000
00010000
00000000
00001000
00000000
01000000
00000000
00002000
00000000
00000000
00000000
01003000
00100000
01000000
00100000
,
01000000
00100000
10000000
00001000
00010000
00000000
01000100
00000000
,
01000100
00000000
00000100
00001000
00000100
00000000
00010000
00000010
,
00020000
00000000
00030010
00000100
00000020
00000000
00010030
00000000
,
00001000
10000000
00010000
01000000
00001000
10000000
00010000
00100000
,
0000100M
00000000
00010000
00100000
00010000
00001000
00010000
00100000
,
01000000
00010000
01000000
00100000
10000000
01000000
00100000
00001000
,
00010000
00001000
00010000
00001000
01000000
00000000
00010000
00000000
00001000
00000000
00010000
00000000
01000000
00000000
00010000
00000000
,
00100000
00001000
00010000
00000100
00000010
00000100
00001000
00000010
,
00001000
00000001
00001000
00000001
00001000
00000000
00000100
00000000
00000010
00000000
00000001
00000000
00000100
00000000
00001000
00000000
,
00010000
00100000
10000000
00010000
01000000
00100000
10000000
00001000
,
01000000
00000000
01000100
00000000
01000100
00000000
00010000
00000100
,
01000100
00000000
01000100
00000000
00011000
00000000
00100000
00000010
,
00010000
00000010
00001000
00000010
00010000
00000000
00001000
00000000
00000100
00000000
00001000
00000000
00010000
00000000
00001000
00000000
,
00010000
00100000
00010000
00001000
00100000
00010000
01000000
00100000
,
10000000
00010000
10000000
00010000
00100000
00000000
00001000
00000000
00000010
00000000
00001000
00000000
00100000
00000000
00001000
00000000
,
00010000
00000100
00001000
00010000
00001000
00000100
00010000
00000010
,
00001000
00000001
00001000
00000001
00001000
00000000
00000100
00000000
00000010
00000000
00000100
00000000
00000001
00000000
00000100
00000000
,
00001000
00000100
00010000
00001000
01000000
00100000
10000000
00000000
,
00001000
01000000
01000100
00000000
01000100
00000000
00010000
00000100
,
01000100
00000000
01000100
00000000
00011000
00000000
00010010
00010000
,
00001000
00000010
00000100
00000000
00001000
00000001
00000000
00010000
,
00001000
01000000
00100000
10000000
00010000
00100000
00000000
00000010
,
00001000
00000001
00000010
00000100
00001000
00010000
00000000
00100000
,
00001000
00100000
00010000
00001000
00010000
00100000
00000000
00010000
,
01000000
00010000
00100000
00001000
00010000
00000010
00000000
00001000
,
00000100
00000001
00000100
00001000
00000010
00010000
00000000
00001000
,
01000000
00100000
00010000
00100000
01000000
00001000
00000000
00010000
,
00000010
00001000
00001010
00000010
00000100
00000001
00001000
00000100
,
00001000
00000001
00010000
00001000
00000100
00001000
00000000
00010000
,
00100000
10000000
01000000
00010000
00001000
00010000
00000000
00001000
,
00000100
00000001
00000100
00001000
00000010
00010000
00000000
00001000
,
00000100
00000001
00010000
00000100
00010000
00001000
00000000
01000000
,
00100000
00001000
00100000
01000000
00100000
10000000
00000000
00001000
,
00010000
00100000
00010000
00001000
00000010
00000001
00000000
00000100
,
00001000
00010000
00100000
10000000
00010000
10000000
00000000
00001000
,
00010000
00000001
00001000
00000100
00010000
00001000
00000000
01000000
,
00000000
00001000
00011000
00000000
00010000
00001000
00000100
00001000
,
00010000
00001000
01000000
00100000
10000000
00100000
01000000
00001000
,
00010000
00000000
01000100
00000000
00100000
00000100
01000100
00000000
,
01000100
00000000
01000100
00000000
00010000
00001000
00000100
00001000
,
00010000
00000010
00010000
00000010
00010000
00000000
00000100
00000000
00000001
00000000
00000100
00000000
00001000
00000000
00000010
00000000
,
00010000
00000000
00001000
01000000
10000000
01000000
00010000
10000000
,
00010000
00100000
00101000
00010000
,
00010100
00000000
00011000
00000000
00000010
00100000
00001000
00010000
,
00001000
00100000
00001000
00100000
00001000
00000000
00000000
00000000
00000000
00000000
00000000
00000000
00000000
00000000
00000000
00000000
;
