#TITLE:I'm Falling Away;
#SUBTITLE:8 Bit Mix;
#ARTIST:M1dlet;
#TITLETRANSLIT:;
#SUBTITLETRANSLIT:;
#ARTISTTRANSLIT:;
#CREDIT:;
#BANNER:;
#BACKGROUND:;
#LYRICSPATH:;
#CDTITLE:;
#MUSIC:I'm falling away (8-bit mix).ogg;
#OFFSET:0.029;
#SAMPLESTART:24.080;
#SAMPLELENGTH:16.200;
#SELECTABLE:YES;
#BPMS:0.000=120.000,16.000=240.000,152.000=120.000,153.000=240.000,233.000=120.000,235.000=480.000,363.000=240.000,379.000=120.000,397.000=480.000,585.000=240.000,587.000=480.000;
#STOPS:80.000=0.750
,81.000=0.750
,169.000=0.750
,170.000=0.750
,171.000=0.750
,172.000=0.750
,387.000=3.000
;
#BGCHANGES:;

//---------------dance-single - ----------------
#NOTES:
     dance-single:
     :
     Hard:
     19:
     1.000,1.000,0.386,0.340,0.053: // measure 1
0000
0000
0001
1000
,  // measure 2
0010
0100
0001
0010
,  // measure 3
0100
1000
0010
0100
,  // measure 4
0001
1000
0001
1000
,  // measure 5
1001
0000
0010
0000
,  // measure 6
1001
0000
1010
0000
,  // measure 7
1001
0000
0101
0000
,  // measure 8
0011
0000
1001
0010
,  // measure 9
0110
0000
1001
0000
,  // measure 10
0110
0000
0011
0000
,  // measure 11
1100
0000
0101
0000
,  // measure 12
1001
0000
1001
1000
,  // measure 13
0100
1000
0100
0010
,  // measure 14
0001
0100
0010
1000
,  // measure 15
0100
0010
0001
0100
,  // measure 16
0010
1000
0001
0100
,  // measure 17
0001
0010
0001
0010
0100
1000
0100
1000
,  // measure 18
0001
0100
0001
0100
0010
1000
0010
1000
,  // measure 19
0001
0100
0010
1000
0001
0100
0010
1000
,  // measure 20
0001
0100
0001
0100
0010
0000
1000
0000
,  // measure 21
1001
1001
2200
0000
,  // measure 22
0000
3300
0022
0000
,  // measure 23
0000
0000
0033
0000
1000
0100
1000
0001
,  // measure 24
0100
0010
1000
0100
0010
0100
1000
0001
,  // measure 25
0100
0010
1000
0100
0010
0100
1000
0001
,  // measure 26
0100
0010
1000
1000
0010
0100
0001
0001
,  // measure 27
0100
0010
1000
1000
0001
0100
0010
1000
,  // measure 28
0100
0010
0100
1000
0001
0100
0010
1000
,  // measure 29
0100
1000
0001
0100
0010
1000
0100
0010
,  // measure 30
0001
0100
0010
1000
0100
0010
0001
0100
,  // measure 31
0010
0000
1000
0000
0001
1000
0001
1000
0001
0000
0010
0000
0100
0000
1000
0000
,  // measure 32
0001
0100
0010
1000
0100
0010
0100
1000
,  // measure 33
0001
0100
0010
1000
0100
0010
0001
0100
,  // measure 34
0010
0000
1000
0000
0001
1000
0001
1000
0001
0000
0100
0000
0010
1000
0010
1000
,  // measure 35
0010
0000
0100
0000
0001
1000
0001
1000
0001
0000
0100
0000
0010
0000
1000
0000
,  // measure 36
0100
0010
0001
0100
0010
1000
0100
1000
,  // measure 37
0001
0100
0010
1000
0100
1000
0001
0100
,  // measure 38
0010
1000
0100
0010
0100
1000
0001
1000
,  // measure 39
1001
0110
1001
0001
0100
0010
1000
0100
,  // measure 40
0010
0100
1000
0001
0100
0010
1000
0001
,  // measure 41
1000
0000
0001
0100
0010
1000
0100
0010
,  // measure 42
0100
0000
1000
0000
0001
0100
0001
0000
1000
0010
1000
0000
0001
0100
0001
0000
,  // measure 43
1000
0010
1000
0000
1001
0000
0000
0000
0110
0000
0000
0000
1001
0000
0000
0000
,  // measure 44
1100
1000
0100
0010
,  // measure 45
0001
0100
0010
1000
,  // measure 46
0100
1000
0001
0100
,  // measure 47
0010
1000
0100
0010
,  // measure 48
0200
1300
0010
0100
,  // measure 49
0010
1000
0100
1000
,  // measure 50
0001
0100
0010
1000
,  // measure 51
0001
0100
0010
1000
,  // measure 52
0100
0010
0100
0000
1000
0000
0001
0000
,  // measure 53
0100
0010
1000
0100
,  // measure 54
0010
0001
0100
0010
,  // measure 55
1000
0000
0001
0000
1000
0001
1000
0000
,  // measure 56
0001
0100
0001
0000
0100
0000
0010
0000
,  // measure 57
1000
0100
0010
0001
,  // measure 58
0100
0010
1000
0001
,  // measure 59
0100
0000
0010
1000
0100
0010
0001
0010
,  // measure 60
0100
1000
0001
0100
0010
1000
0100
0010
,  // measure 61
0001
0100
0010
1000
0100
0010
0200
0000
,  // measure 62
0000
0320
0000
0032
,  // measure 63
0000
0000
0203
0000
0000
0000
0310
1000
,  // measure 64
0010
0100
0001
0100
0010
1000
0100
0010
,  // measure 65
0001
0100
0010
1000
0100
1000
0001
0000
,  // measure 66
0010
0100
1000
0001
,  // measure 67
0000
0000
0001
0000
1000
0000
0001
0100
,  // measure 68
0001
1000
0100
1000
0001
0100
0020
0000
,  // measure 69
0000
2030
0000
3020
,  // measure 70
0000
0230
0000
0302
,  // measure 71
0000
0203
0000
0320
,  // measure 72
0000
2030
0000
3200
,  // measure 73
0000
0320
0000
0130
,  // measure 74
0001
0100
0001
0100
,  // measure 75
0010
0000
1000
0000
0100
0000
0010
0001
,  // measure 76
0100
0010
1000
0100
1000
0001
0100
0010
,  // measure 77
1000
0100
0010
0001
0100
0010
2000
0000
,  // measure 78
0000
3002
0000
0203
,  // measure 79
0000
0000
0320
0000
0000
0000
1030
0001
,  // measure 80
1000
0001
0100
0010
1000
0100
0010
0001
,  // measure 81
1000
0100
0010
0001
0100
0010
1000
0000
,  // measure 82
0100
0010
0001
0100
,  // measure 83
0000
0000
0101
0000
0000
0000
0001
0100
,  // measure 84
0001
1000
0010
0100
0001
1000
0100
0010
,  // measure 85
0100
1000
0001
0100
0010
1000
0002
0000
,  // measure 86
0000
0203
0000
0320
,  // measure 87
0000
0000
2030
0000
0000
0000
3001
0100
,  // measure 88
0010
1000
0100
0010
0001
0010
0100
1000
,  // measure 89
0001
0100
0020
0000
0000
0000
1030
0000
,  // measure 90
0001
0010
0100
1000
,  // measure 91
0001
0100
0010
1000
,  // measure 92
1010
1001
1001
0110
,  // measure 93
0110
1001
1001
0101
,  // measure 94
1010
0110
0101
1001
,  // measure 95
0001
0010
0100
0000
1000
0000
0001
0100
,  // measure 96
0010
1000
1010
1000
0001
0100
0101
0010
,  // measure 97
1010
0000
0010
0000
1010
0000
0100
0000
0001
0100
0010
1000
0010
0000
0000
0000
,  // measure 98
0000
1001
0000
0110
,  // measure 99
0000
1001
1010
0110
,  // measure 100
0110
0000
1000
0100
0010
0001
0100
0010
,  // measure 101
1000
0010
0100
0001
0100
0010
1000
0100
,  // measure 102
0010
0001
1000
0100
1000
0001
0100
0010
,  // measure 103
1000
0100
0010
0100
1000
0001
0100
0010
,  // measure 104
1000
0100
2000
0000
0000
0000
3002
0000
,  // measure 105
0000
0203
0000
0320
,  // measure 106
0000
2030
0000
3200
,  // measure 107
0000
0320
0000
0032
,  // measure 108
0000
0000
1003
0010
1000
0010
0100
0001
,  // measure 109
1000
0100
1000
0100
0010
0001
0010
0001
,  // measure 110
0100
0010
0100
0010
1000
0100
1000
0001
,  // measure 111
0100
0010
0100
0001
1000
0100
1000
0001
,  // measure 112
0100
0010
2000
0000
0000
0000
3002
0000
,  // measure 113
0000
0203
0000
0320
,  // measure 114
0000
2030
0000
3002
,  // measure 115
0000
2003
0000
3002
,  // measure 116
0000
0000
1003
0100
1000
0000
0001
0010
,  // measure 117
0001
0000
1000
0100
1000
0000
0001
0010
,  // measure 118
0001
0000
1000
0001
1000
0000
0001
0100
,  // measure 119
0001
0000
1000
0010
1000
0000
0001
0100
,  // measure 120
0001
0000
1000
0010
1000
0000
0001
0100
,  // measure 121
0001
0000
1000
0010
1000
0000
0001
0100
,  // measure 122
0001
0000
1000
0010
1000
0000
0001
0100
,  // measure 123
0010
0000
1000
0100
0010
0000
0001
1000
,  // measure 124
0001
0000
1000
0100
1000
0100
0010
0001
,  // measure 125
0010
0001
0100
0010
0100
0010
1000
0100
,  // measure 126
0010
0001
0100
0010
1000
0100
1000
0001
,  // measure 127
0100
0010
1000
0100
0010
0100
1000
0001
,  // measure 128
0100
0010
1000
0100
1000
0001
0100
0010
,  // measure 129
1000
0100
0010
0100
1000
0001
0100
0010
,  // measure 130
1000
0100
0010
0100
1000
0001
0100
0010
,  // measure 131
1000
0100
0010
0001
2000
0000
0000
0000
,  // measure 132
3001
1000
0100
1000
,  // measure 133
0100
1000
0001
0010
,  // measure 134
0001
1000
0100
0010
,  // measure 135
0100
1000
0001
0100
,  // measure 136
0010
1000
0100
0010
,  // measure 137
0001
0000
0100
0000
0010
0000
1000
0100
,  // measure 138
1000
0000
0010
0000
0100
0000
0001
0100
,  // measure 139
0001
0000
0010
0000
0100
0000
1000
0001
,  // measure 140
1000
0010
0100
0001
,  // measure 141
0100
0010
1000
0100
,  // measure 142
0010
0100
1000
0001
,  // measure 143
0100
0010
1000
0100
,  // measure 144
1000
0001
0100
0010
,  // measure 145
1000
0100
0010
0001
,  // measure 146
0100
0010
1000
0001
,  // measure 147
1000
0001
1000
1001
,  // measure 148
0010
0100
0001
0100
,  // measure 149
0010
1000
0100
1000
,  // measure 150
0001
0100
0010
1000
,  // measure 151
0100
0010
0100
1000
,  // measure 152
0001
0100
0010
1000
,  // measure 153
0001
0000
1000
0100
1000
0100
1000
0000
,  // measure 154
0100
0000
0010
0001
0010
0001
0010
0000
,  // measure 155
0100
0000
1000
0001
1000
0001
1000
0000
,  // measure 156
0010
0100
0001
1000
,  // measure 157
0100
0010
0100
1000
,  // measure 158
0001
0100
0010
1000
,  // measure 159
0001
0100
0010
1000
,  // measure 160
0100
0010
0001
0100
,  // measure 161
0010
1000
1000
1001
;

//---------------dance-single - ----------------
#NOTES:
     dance-single:
     :
     Medium:
     16:
     0.850,1.000,0.371,0.061,0.008:
0000
0000
0001
1000
,
0010
0100
0001
0010
,
0100
1000
0010
0100
,
0001
1000
0001
1000
,
1001
0000
0010
0000
,
1001
0000
1010
0000
,
1001
0000
0101
0000
,
0011
0000
1000
0001
,
1000
0000
1001
0000
,
0110
0000
0011
0000
,
1100
0000
0101
0000
,
1001
0000
1001
1000
,
0100
1000
0100
0010
,
0001
0100
0010
1000
,
0100
0010
0001
0100
,
0010
1000
0001
0100
,
0001
0010
0001
0010
0100
1000
0100
1000
,
0001
0100
0001
0100
0010
1000
0010
1000
,
0001
0010
0100
1000
0001
0100
0010
1000
,
0001
0100
0001
0100
0010
0000
1000
0000
,
1001
1001
2200
0000
,
0000
3300
0022
0000
,
0000
0000
0033
0000
1000
0100
1000
0001
,
0100
0010
1000
0100
0010
0100
1000
0001
,
0100
0010
1000
0100
0010
0100
1000
0001
,
0100
0010
2000
0000
3010
0100
0002
0000
,
0103
0010
2000
0000
3001
0100
0010
1000
,
0100
0010
0100
1000
0001
0100
0010
1000
,
0100
1000
0001
0100
0010
1000
0100
0010
,
0001
0100
0010
1000
0100
0010
0001
0100
,
0010
1000
0001
1000
0001
0010
0100
1000
,
0001
0100
0010
1000
0100
0010
0100
1000
,
0001
0100
0010
1000
0100
0010
0001
0100
,
0010
1000
0001
1000
0001
0100
0010
1000
,
0010
0100
0001
1000
0001
0100
0010
1000
,
0100
0010
0001
0100
0010
1000
0100
1000
,
0001
0100
0010
1000
0100
1000
0001
0100
,
0010
1000
0100
0010
0100
1000
0001
1000
,
1001
0110
1001
0001
0100
0010
1000
0100
,
0010
0100
1000
0001
0100
0010
1000
0001
,
1000
0000
0001
0100
0010
1000
0100
0010
,
0100
1000
0001
0010
0100
1000
0100
0010
,
0001
1000
1001
0000
0110
0000
1001
0000
,
1100
1000
0100
0010
,
0001
0100
0010
1000
,
0100
1000
0001
0100
,
0010
1000
0100
0010
,
0200
1300
0010
0100
,
0010
1000
0100
1000
,
0001
0100
0010
1000
,
0001
0100
0010
1000
,
0100
0100
1000
0001
,
0100
0010
1000
0100
,
0010
0001
0100
0010
,
1000
0000
0001
0000
1000
0001
1000
0000
,
0001
0100
0001
0000
0100
0000
0010
0000
,
1000
0100
0010
0001
,
0100
0010
1000
0001
,
0100
0000
0010
1000
0100
0010
0001
0000
,
0100
0010
1000
0100
,
0010
0100
1000
0001
,
0100
0010
1000
0100
,
0010
0100
1000
0001
,
0100
0010
1000
0100
,
1000
0001
0100
0010
,
1000
0010
0100
0001
,
0000
0001
1000
0000
,
0001
0100
0010
1000
,
0100
1000
0001
0100
,
0010
1000
0100
0010
,
0100
1000
0001
0100
,
0010
1000
0100
0010
,
0100
1000
0001
0100
,
0001
0100
0001
0100
,
0010
1000
0001
1000
,
0010
1000
0001
0100
,
0010
1000
0100
0010
,
0100
1000
0001
0100
,
0010
1000
0100
1000
,
0001
0100
0010
1000
,
0001
0100
0010
1000
,
0001
0010
0001
0010
,
0000
0101
0000
0001
,
0100
0001
0100
0010
,
1000
0010
1000
0001
,
0100
0010
1000
0100
,
0010
0100
1000
0001
,
0100
0010
1000
0100
,
0010
0001
0100
0010
,
1000
0001
0010
0100
,
1000
0001
0100
1010
,
1010
1001
1001
0110
,
0110
1001
1001
0101
,
1010
0110
0101
1001
,
0001
0010
0100
0000
1000
0000
0001
0100
,
0010
1000
1010
1000
0001
0100
0101
0010
,
1010
0000
0010
0000
1010
0000
0100
0000
0001
0100
0010
1000
0010
0000
0000
0000
,
0000
1001
0000
0110
,
0000
1001
1010
0110
,
0110
1000
0100
1000
,
0100
0010
0001
0010
,
0001
0100
0010
0100
,
0010
1000
0100
1000
,
0001
0100
0010
1000
,
0100
0010
0100
0010
,
0001
0100
0010
1000
,
0100
0010
0001
0100
,
0010
1000
0100
1000
,
0001
0100
0010
0100
,
0001
0001
1000
0001
,
0001
0100
0010
1000
,
0010
0100
0001
1000
,
0100
0010
0100
1000
,
0001
0100
0010
1000
,
0100
1000
0001
0100
,
0010
1000
0001
0100
,
0010
1000
0100
0010
,
0001
0100
0010
1000
,
0100
1000
0001
0100
,
0010
1000
0100
0010
,
0100
0001
0100
0010
,
1000
0100
0010
0001
,
0100
0010
1000
0001
,
0010
0000
0100
0010
0100
0000
0001
0000
,
1000
0000
0100
0010
0001
0000
0100
0000
,
0010
0000
1000
0100
0010
0000
0001
0000
,
0100
0000
0010
1000
0010
0000
0100
0000
,
0001
0000
1000
0001
1000
0000
0010
0000
,
0100
0001
0100
0010
,
1000
0100
0010
0100
,
1000
0001
0100
0010
,
1000
0001
0010
0001
,
0010
0001
1000
0100
,
1000
0001
0010
0100
,
0010
0001
1000
0010
,
0100
0001
0010
0100
,
1000
0000
0010
0000
0100
0000
0001
0010
,
0001
0000
0100
0000
0010
0000
1000
0010
,
1000
0000
0100
0000
0010
0000
0001
1000
,
0001
0100
0010
1000
,
0010
0100
0001
0010
,
0100
0010
0001
1000
,
0010
0100
0001
0010
,
0001
1000
0010
0100
,
0001
0010
0100
1000
,
0010
0100
0001
1000
,
0001
1000
0001
1000
,
0010
0100
0001
0100
,
0010
1000
0100
1000
,
0001
0100
0010
1000
,
0100
0010
0100
1000
,
0001
0100
0010
1000
,
0001
1000
0100
1000
,
0100
0010
0001
0010
,
0100
0000
1000
0001
1000
0001
1000
0000
,
0010
0100
0001
1000
,
0100
0010
0100
1000
,
0001
0100
0010
1000
,
0001
0100
0010
1000
,
0100
0010
0001
0100
,
0010
1000
1000
1001
;

//---------------dance-single - Copied from----------------
#NOTES:
     dance-single:
     Copied from:
     Easy:
     14:
     0.677,0.912,0.242,0.121,0.000:
0000
0000
0001
1000
,
0010
0100
0001
0010
,
0100
1000
0010
0100
,
0001
1000
0001
1000
,
1001
0000
0010
0000
,
1001
0000
1010
0000
,
1001
0000
0101
0000
,
0011
0000
1000
0001
,
1000
0000
1001
0000
,
0110
0000
0011
0000
,
1100
0000
0101
0000
,
1001
0000
1001
1000
,
0100
1000
0100
0010
,
0001
0100
0010
1000
,
0100
0010
0001
0100
,
0010
1000
0001
0100
,
0010
1000
0010
0100
,
0001
0100
0010
1000
,
0020
0000
0230
0000
,
0302
0000
2003
3000
,
1001
1001
2200
0000
,
0000
3300
0022
0000
,
0000
0033
1000
0100
,
1000
0001
0100
0010
,
0100
0010
1000
0100
,
1000
0000
0001
0100
0001
0000
1000
0010
,
1000
0001
1001
0010
,
1000
0010
0100
0001
,
0100
0010
1000
0100
,
0010
0001
0100
0010
,
1000
0000
0001
1000
0001
0000
0010
0000
,
0100
1000
0001
0100
,
0010
1000
0100
0010
,
0100
1000
1001
0001
,
0101
0100
0110
0010
,
1000
0100
0010
0001
,
0100
0010
1000
0100
,
0010
0001
0100
0010
,
1000
0100
0010
0001
,
0100
0010
1000
0100
,
1000
0001
0100
0010
,
1000
0100
0010
0001
,
1000
1001
0110
1001
,
1100
1000
0100
0010
,
0001
0100
0010
1000
,
0100
1000
0001
0100
,
0010
1000
0100
0010
,
0200
1300
0010
0100
,
0010
1000
0100
1000
,
0001
0100
0010
1000
,
0001
0100
0010
1000
,
0100
0100
1000
0001
,
0100
0010
1000
0100
,
0010
0001
0100
0010
,
1000
0001
1000
1000
,
0001
0001
0100
0010
,
1000
0100
0010
0001
,
0100
0010
1000
0001
,
0100
0000
0010
1000
0100
0010
0001
0000
,
0100
0010
1000
0100
,
0010
0100
1000
0001
,
0100
0010
1000
0100
,
0010
0100
1000
0001
,
0100
0010
1000
0100
,
1000
0001
0100
0010
,
1000
0000
0000
0000
,
0000
0000
0000
1000
,
0001
0100
0010
1000
,
0100
1000
0001
0100
,
0010
1000
0100
0010
,
0100
1000
0001
0100
,
0010
1000
0100
0010
,
0100
1000
0001
0100
,
0000
0001
0000
0100
,
0000
0010
0000
1000
,
0010
1000
0001
0100
,
0010
1000
0100
0010
,
0100
1000
0001
0100
,
0010
1000
0100
1000
,
0001
0100
0010
1000
,
0001
0100
0010
1000
,
0000
0001
0000
0010
,
0000
0001
0000
0001
,
0100
0001
0100
0010
,
1000
0010
1000
0001
,
0100
0010
1000
0100
,
0010
0100
1000
0001
,
0100
0010
1000
0100
,
0010
0001
0100
0020
,
0000
0000
0000
0000
,
0000
0000
0030
1000
,
0010
1000
0001
0010
,
0100
1000
0001
0100
,
0010
0100
0001
1000
,
0001
0010
0100
0000
1000
0000
0001
0100
,
0010
1000
0010
1000
0001
0100
0001
0010
,
0100
1000
0100
0010
0001
0010
0010
0000
,
0000
1001
0000
0110
,
0000
1001
1010
0110
,
0110
1000
0100
1000
,
0100
0010
0001
0010
,
0001
0100
0010
0100
,
0010
1000
0100
1000
,
0001
0100
0010
1000
,
0100
0010
0100
0010
,
0001
0100
0010
1000
,
0100
0010
0001
0100
,
0010
1000
0100
1000
,
0001
0100
0010
0100
,
0001
0001
1000
0001
,
0001
0100
0010
1000
,
0010
0100
0001
1000
,
0100
0010
0100
1000
,
0001
0100
0010
1000
,
0100
1000
0001
0100
,
0010
1000
0001
0100
,
0010
1000
0100
0010
,
0001
0100
0010
1000
,
0100
1000
0001
0100
,
0010
1000
0100
0010
,
0100
0001
0100
0010
,
1000
0100
0010
0001
,
0100
0010
1000
0001
,
0010
0100
0001
1000
,
0100
0010
0001
0100
,
0010
1000
0100
0010
,
0001
0010
0100
1000
,
0001
1000
1000
0010
,
0100
0001
0100
0010
,
1000
0100
0010
0100
,
1000
0001
0100
0010
,
1000
0002
0000
0203
,
0000
0320
0000
2030
,
0000
3200
0000
0320
,
0000
0031
0000
0100
,
0000
0010
0000
1000
,
0000
0100
0000
0010
,
0000
0001
0000
0100
,
0000
0010
0000
1000
,
0000
0001
0000
0100
,
0000
0010
0000
1000
,
0000
0100
0000
0010
,
0000
0001
0000
0100
,
0000
0010
0000
1000
,
0000
0100
0000
0010
,
0000
0001
0000
0100
,
0000
0010
1000
0010
,
0010
0100
0001
0100
,
0010
1000
0100
1000
,
0001
0100
0010
1000
,
0100
0010
0100
1000
,
0001
0100
0010
1000
,
0001
1000
0100
1000
,
0100
0010
0001
0010
,
0100
1000
0001
1000
,
0010
0100
0001
1000
,
0100
0010
0100
1000
,
0001
0100
0010
1000
,
0001
0100
0010
1000
,
0100
0010
0001
0100
,
0010
1000
1000
1001
;

//---------------dance-single - ----------------
#NOTES:
     dance-single:
     :
     Beginner:
     11:
     0.352,0.547,0.151,0.008,0.000:
0000
0000
0001
0000
,
0000
0000
1000
0000
,
0000
0000
0010
0000
,
0000
0000
0001
0000
,
1001
0000
0000
0000
,
1001
0000
0000
0000
,
1001
0000
0000
0000
,
1001
0000
0000
0000
,
1000
0000
0000
0000
,
0110
0000
0000
0000
,
1001
0000
0000
0000
,
1001
0000
1001
0000
,
0100
0000
0100
0000
,
0001
0000
0100
0000
,
0010
0000
1000
0000
,
0100
0000
0010
0000
,
0001
0000
0100
0000
,
0010
0000
1000
0000
,
0010
0000
0100
0000
,
0001
0000
1000
0000
,
1001
1001
0000
0000
,
0000
0000
0000
0000
,
0000
0000
1000
0000
,
0001
0000
0100
0000
,
0010
0000
1000
0000
,
0100
0000
0010
0000
,
0001
0000
0100
0000
,
0010
0000
1000
0000
,
0001
0000
0100
0000
,
0010
0000
1000
0000
,
0001
0000
0100
0000
,
0010
0010
0010
0000
,
1000
1000
1000
0000
,
0001
0001
0001
0000
,
1000
0000
0001
0000
,
0100
0000
0010
0000
,
0100
0100
0100
0000
,
0001
0000
1000
0000
,
1000
0010
0000
0010
,
0000
0001
0000
0001
,
0000
0100
0000
0100
,
0000
0010
0000
0010
,
0000
1001
1001
1001
,
1001
0000
0000
0001
,
0000
0100
0000
0010
,
0000
1000
0000
0001
,
0000
0100
0100
0100
,
0000
0010
0000
1000
,
0000
0001
0000
1000
,
0000
0010
0000
0010
,
0000
0100
0000
0100
,
0000
0001
0000
0001
,
0000
1000
0000
1000
,
0000
0001
0000
0100
,
0000
0010
0000
1000
,
0000
0100
0000
0010
,
0000
0001
0000
0100
,
0000
0010
0000
0100
,
0000
0010
0000
0001
,
0000
0100
0000
0010
,
0000
1000
0000
0100
,
0000
0010
0000
0001
,
0000
0100
0000
0010
,
0000
1000
0000
0001
,
0000
1000
0000
0001
,
0000
0000
0000
0000
,
0000
0000
0000
0001
,
0000
0100
0000
0010
,
0000
1000
0000
0010
,
0000
0100
0000
0001
,
0000
0100
0000
0010
,
0000
1000
0000
0100
,
0000
0010
0000
0100
,
0000
0000
0000
0000
,
0000
0000
0000
1000
,
0000
0100
0000
1000
,
0000
0001
0000
0100
,
0000
0010
0000
1000
,
0000
0100
0000
0010
,
0000
0001
0000
0100
,
0000
0010
0000
1000
,
0000
0000
0000
0000
,
0000
0000
0000
0001
,
0000
0100
0000
0010
,
0000
1000
0000
0001
,
0000
0100
0000
0010
,
0000
1000
0000
0100
,
0000
0010
0000
0001
,
0000
1000
0000
0020
,
0000
0000
0000
0000
,
0000
0000
0030
1000
,
0000
0001
0000
0100
,
0000
0010
0000
1000
,
0000
0001
0001
0001
,
0000
1000
1000
1000
,
0000
0001
0000
0100
,
0000
0010
0000
1001
,
0000
1001
0000
0110
,
0000
1001
0000
0110
,
0000
1000
0000
0001
,
0000
1000
0000
0001
,
0000
0100
0000
0010
,
0000
1000
0000
0100
,
0000
0010
0000
0001
,
0000
0100
0000
0010
,
0000
1000
0000
0001
,
0000
0100
0000
0010
,
0000
1000
0000
0100
,
0000
0010
0000
0001
,
0000
0100
0000
0010
,
0000
1000
0000
0001
,
0000
1000
0000
0010
,
0000
0100
0000
0001
,
0000
0100
0000
0001
,
0000
1000
0000
0100
,
0000
0100
0000
0010
,
0000
0010
0000
0001
,
0000
0100
0000
0010
,
0000
1000
0000
0001
,
0000
0100
0000
0010
,
0000
1000
0000
0001
,
0000
0100
0000
0010
,
0000
1000
0000
0001
,
0000
1000
0000
0001
,
0000
0100
0000
0100
,
0000
0010
0000
0010
,
0000
1000
0000
1000
,
0000
0001
0000
0001
,
0000
0100
0000
0100
,
0000
0010
0000
0010
,
0000
1000
0000
1000
,
0000
0001
0000
0100
,
0000
0010
0000
1000
,
0000
0100
0000
0010
,
0000
0001
0000
0100
,
0000
0010
0000
1000
,
0000
0100
0000
0010
,
0000
0001
0000
0100
,
0000
0010
0000
1000
,
0000
0001
0000
0100
,
0000
0010
0000
1000
,
0000
0100
0000
0010
,
0000
0001
0000
0100
,
0000
0010
0000
1000
,
0000
0100
0000
0010
,
0000
0001
0000
0100
,
0000
0010
0000
0010
,
0000
1000
0000
0001
,
0000
0100
0000
0010
,
0000
1000
0000
0001
,
0000
1000
0000
0001
,
0000
0100
0000
0010
,
0000
1000
0000
0001
,
0000
0100
0000
0010
,
0000
1000
0000
0001
,
0000
0100
0000
0100
,
0000
0010
0000
0010
,
0000
1000
0000
1000
,
0000
0001
0000
0001
,
0000
1000
0000
0001
,
0000
1000
0000
1001
;

//---------------dance-single - Copied from ----------------
#NOTES:
     dance-single:
     Copied from:
     Challenge:
     21:
     1.000,1.000,0.393,0.038,0.053: // measure 1
0000
0000
0001
1000
,  // measure 2
0010
0100
0001
0010
,  // measure 3
0100
1000
0010
0100
,  // measure 4
0001
1000
0001
1000
,  // measure 5
1001
0000
0010
0000
,  // measure 6
1001
0000
1010
0000
,  // measure 7
1001
0000
0101
0000
,  // measure 8
0011
0000
1001
0010
,  // measure 9
0110
0000
1001
0000
,  // measure 10
0110
0000
0011
0000
,  // measure 11
1100
0000
0101
0000
,  // measure 12
1001
0000
1001
1000
,  // measure 13
0100
1000
0100
0010
,  // measure 14
0001
0100
0010
1000
,  // measure 15
0100
0010
0001
0100
,  // measure 16
0010
1000
0001
0100
,  // measure 17
0001
0010
0001
0010
0100
1000
0100
1000
,  // measure 18
0001
0100
0001
0100
0010
1000
0010
1000
,  // measure 19
0001
0100
0010
1000
0001
0100
0010
1000
,  // measure 20
0001
0100
0001
0100
0010
0000
1000
0000
,  // measure 21
1001
1001
2200
0000
,  // measure 22
0000
3300
0022
0000
,  // measure 23
0000
0000
0033
0000
1000
0100
1000
0001
,  // measure 24
0100
0010
1000
0100
0010
0100
1000
0001
,  // measure 25
0100
0010
1000
0100
0010
0100
1000
0001
,  // measure 26
0100
0010
1000
1000
0010
0100
0001
0001
,  // measure 27
0100
0010
1000
1000
0001
0100
0010
1000
,  // measure 28
0100
0010
0100
1000
0001
0100
0010
1000
,  // measure 29
0100
1000
0001
0100
0010
1000
0100
0010
,  // measure 30
0001
0100
0010
1000
0100
0010
0001
0100
,  // measure 31
0010
0000
1000
0000
0001
1000
0001
1000
0001
0000
0010
0000
0100
0000
1000
0000
,  // measure 32
0001
0100
0010
1000
0100
0010
0100
1000
,  // measure 33
0001
0100
0010
1000
0100
0010
0001
0100
,  // measure 34
0010
0000
1000
0000
0001
1000
0001
1000
0001
0000
0100
0000
0010
1000
0010
1000
,  // measure 35
0010
0000
0100
0000
0001
1000
0001
1000
0001
0000
0100
0000
0010
0000
1000
0000
,  // measure 36
0100
0010
0001
0100
0010
1000
0100
1000
,  // measure 37
0001
0100
0010
1000
0100
1000
0001
0100
,  // measure 38
0010
1000
0100
0010
0100
1000
0001
1000
,  // measure 39
1001
0110
1001
0001
0100
0010
1000
0100
,  // measure 40
0010
0100
1000
0001
0100
0010
1000
0001
,  // measure 41
1000
0000
0001
0100
0010
1000
0100
0010
,  // measure 42
0100
0000
1000
0000
0001
0100
0001
0000
1000
0010
1000
0000
0001
0100
0001
0000
,  // measure 43
1000
0010
1000
0000
1001
0000
0000
0000
0110
0000
0000
0000
1001
0000
0000
0000
,  // measure 44
1100
1000
0100
0010
,  // measure 45
0001
0100
0010
1000
,  // measure 46
0100
1000
0001
0100
,  // measure 47
0010
1000
0100
0010
,  // measure 48
0200
1300
0010
0100
,  // measure 49
0010
1000
0100
1000
,  // measure 50
0001
0100
0010
1000
,  // measure 51
0001
0100
0010
1000
,  // measure 52
0100
0010
0100
0000
1000
0000
0001
0000
,  // measure 53
0100
0010
1000
0100
,  // measure 54
0010
0001
0100
0010
,  // measure 55
1000
0000
0001
0000
1000
0001
1000
0000
,  // measure 56
0001
0100
0001
0000
0100
0000
0010
0000
,  // measure 57
1000
0100
0010
0001
,  // measure 58
0100
0010
1000
0001
,  // measure 59
0100
0000
0010
1000
0100
0010
0001
0100
,  // measure 60
0001
0100
0010
1000
0010
1000
0001
0100
,  // measure 61
0010
1000
0100
0010
0100
1000
0001
0100
,  // measure 62
0010
1000
0100
1000
0001
0100
0010
1000
,  // measure 63
0100
0010
0001
0100
0010
1000
0100
1000
,  // measure 64
0001
0100
0010
1000
0100
0010
0100
1000
,  // measure 65
0001
0100
0010
1000
0100
0010
0001
1000
,  // measure 66
0001
0010
0100
1000
,  // measure 67
0000
0000
0001
0000
1000
0000
0100
0010
,  // measure 68
0001
0100
0010
1000
0100
1000
0001
0100
,  // measure 69
0010
1000
0100
0010
0100
1000
0001
0100
,  // measure 70
0010
1000
0100
0010
0100
1000
0001
0100
,  // measure 71
0010
1000
0100
0010
0100
1000
0001
0100
,  // measure 72
0010
1000
0100
0010
0001
0100
0010
1000
,  // measure 73
0001
0010
0100
1000
0001
0100
0001
0000
,  // measure 74
0100
0001
0100
0001
,  // measure 75
0100
0000
0010
0000
1000
0000
0001
0100
,  // measure 76
0001
0100
0010
1000
0010
1000
0001
0100
,  // measure 77
0001
0100
0010
1000
0010
1000
0001
0100
,  // measure 78
0001
0100
0010
1000
0010
1000
0001
0100
,  // measure 79
0010
1000
0100
0010
0100
1000
0001
0100
,  // measure 80
0010
1000
0100
0010
0100
1000
0001
0100
,  // measure 81
0010
1000
0100
0010
0001
0100
0010
0000
,  // measure 82
1000
0010
1000
0010
,  // measure 83
0000
0000
0101
0000
0000
0000
0001
0100
,  // measure 84
0010
1000
0100
0010
0100
1000
0001
0100
,  // measure 85
0010
1000
0100
0010
0100
1000
0001
0100
,  // measure 86
0010
1000
0100
0010
0100
1000
0001
0100
,  // measure 87
0010
1000
0100
1000
0001
0100
0010
1000
,  // measure 88
0100
0010
0100
1000
0001
0100
0010
1000
,  // measure 89
0100
0010
0100
1000
0001
0100
0010
0000
,  // measure 90
1000
0001
0010
0100
,  // measure 91
1000
0001
0100
1010
,  // measure 92
1010
1001
1001
0110
,  // measure 93
0110
1001
1001
0101
,  // measure 94
1010
0110
0101
1001
,  // measure 95
0001
0010
0100
0000
1000
0000
0001
0100
,  // measure 96
0010
1000
1010
1000
0001
0100
0101
0010
,  // measure 97
1010
0000
0010
0000
1010
0000
0100
0000
0001
0100
0010
1000
0010
0000
0000
0000
,  // measure 98
0000
1001
0000
0110
,  // measure 99
0000
1001
1010
0110
,  // measure 100
0110
0000
1000
0010
1000
0010
0100
0001
,  // measure 101
0100
0001
1000
0010
1000
0010
0100
0001
,  // measure 102
0100
0001
1000
0100
1000
0001
0100
0010
,  // measure 103
1000
0100
0010
0100
1000
0001
0100
0010
,  // measure 104
1000
0100
1000
0001
0100
0010
0100
0001
,  // measure 105
0100
0010
1000
0100
0010
0001
0010
0001
,  // measure 106
1000
0100
1000
0100
0010
0001
0010
0001
,  // measure 107
0100
0010
0100
0010
1000
0010
0100
0001
,  // measure 108
1000
0100
0010
0001
1000
0010
0100
0001
,  // measure 109
1000
0100
1000
0100
0010
0001
0010
0001
,  // measure 110
0100
0010
0100
0010
1000
0100
1000
0001
,  // measure 111
0100
0010
0100
0001
1000
0100
1000
0001
,  // measure 112
0100
0010
1000
0100
0010
0100
1000
0001
,  // measure 113
0100
0010
1000
0010
0100
0001
0100
0010
,  // measure 114
1000
0100
1000
0001
0100
0010
0100
0001
,  // measure 115
0100
0010
1000
0100
1000
0001
0100
0010
,  // measure 116
1000
0010
1000
0010
0100
0001
0100
0001
,  // measure 117
1000
0100
1000
0100
0010
0001
0010
0001
,  // measure 118
0100
0010
1000
0100
1000
0001
0100
0010
,  // measure 119
1000
0100
1000
0100
0010
0001
0010
0001
,  // measure 120
0100
0010
0100
0010
1000
0100
1000
0100
,  // measure 121
0010
0001
0010
0001
0100
0010
0100
0010
,  // measure 122
1000
0100
0010
0001
0100
0010
1000
0100
,  // measure 123
0010
0001
0100
0010
1000
0100
1000
0001
,  // measure 124
0100
0010
1000
0100
1000
0001
0100
0010
,  // measure 125
1000
0100
1000
0001
0100
0010
1000
0001
,  // measure 126
0100
0010
0100
0010
1000
0001
1000
0001
,  // measure 127
1000
0100
1000
0100
0010
0001
0010
0001
,  // measure 128
0100
0010
0100
0010
1000
0100
1000
0100
,  // measure 129
0010
0001
0010
0001
0100
0010
0100
0010
,  // measure 130
1000
0100
1000
0001
0100
0010
1000
0100
,  // measure 131
0010
0001
0100
0010
1000
0001
1000
0001
,  // measure 132
1000
0001
1000
0000
0100
0000
1000
0000
,  // measure 133
0100
1000
0001
0010
,  // measure 134
0001
1000
0100
0010
,  // measure 135
0100
1000
0001
0100
,  // measure 136
0010
1000
0100
0010
,  // measure 137
0001
0000
0100
0000
0010
0000
1000
0100
,  // measure 138
1000
0000
0010
0000
0100
0000
0001
0100
,  // measure 139
0001
0000
0010
0000
0100
0000
1000
0001
,  // measure 140
1000
0010
0100
0001
,  // measure 141
0100
0010
1000
0100
,  // measure 142
0010
0100
1000
0001
,  // measure 143
0100
0010
1000
0100
,  // measure 144
1000
0001
0100
0010
,  // measure 145
1000
0100
0010
0001
,  // measure 146
0100
0010
1000
0001
,  // measure 147
1000
0001
1000
1001
,  // measure 148
0010
0100
0001
0100
,  // measure 149
0010
1000
0100
1000
,  // measure 150
0001
0100
0010
1000
,  // measure 151
0100
0010
0100
1000
,  // measure 152
0001
0100
0010
1000
,  // measure 153
0001
0000
1000
0100
1000
0100
1000
0000
,  // measure 154
0100
0000
0010
0001
0010
0001
0010
0000
,  // measure 155
0100
0000
1000
0001
1000
0001
1000
0000
,  // measure 156
0010
0100
0001
1000
,  // measure 157
0100
0010
0100
1000
,  // measure 158
0001
0100
0010
1000
,  // measure 159
0001
0100
0010
1000
,  // measure 160
0100
0010
0001
0100
,  // measure 161
0010
1000
1000
1001
;
