#TITLE:I'll Make the Most of Loving You;
#SUBTITLE:;
#ARTIST:Mary Jess;
#TITLETRANSLIT:;
#SUBTITLETRANSLIT:;
#ARTISTTRANSLIT:;
#CREDIT:;
#BANNER:;
#BACKGROUND:;
#LYRICSPATH:;
#CDTITLE:;
#MUSIC:Did I Make The Most Of Loving You.ogg;
#OFFSET:0.933;
#SAMPLESTART:29.540;
#SAMPLELENGTH:14.360;
#SELECTABLE:YES;
#BPMS:0.000=112.001;
#STOPS:127.000=1.607
;
#BGCHANGES:;

//---------------dance-single - ----------------
#NOTES:
     dance-single:
     :
     Beginner:
     1:
     0.031,0.054,0.004,0.008,0.000: // measure 1
0000
0000
0000
0000
,  // measure 2
0000
0000
0000
0000
,  // measure 3
0000
0000
0000
0000
,  // measure 4
0200
0000
0300
0000
,  // measure 5
0000
0000
0000
1000
,  // measure 6
0000
0000
0000
0001
,  // measure 7
0000
0000
0000
0100
,  // measure 8
0000
0000
0000
0010
,  // measure 9
0000
0000
0000
1000
,  // measure 10
0000
0000
0000
0001
,  // measure 11
0000
0000
0000
0010
,  // measure 12
0000
0000
0000
0100
,  // measure 13
0000
0000
0000
0010
,  // measure 14
0000
0000
0000
1000
,  // measure 15
0000
0001
0000
1000
,  // measure 16
0000
0001
0000
1000
,  // measure 17
0000
0000
0000
0000
,  // measure 18
0000
0000
0000
0000
,  // measure 19
0000
0001
0000
0100
,  // measure 20
0000
0010
0000
1000
,  // measure 21
0000
0000
0000
0000
,  // measure 22
0000
0000
0000
0001
,  // measure 23
0000
0000
0000
0100
,  // measure 24
0000
0000
0000
0010
,  // measure 25
0000
0000
0000
0000
,  // measure 26
0000
0000
0000
0000
,  // measure 27
0000
0000
0000
1000
,  // measure 28
0000
0000
0000
0001
,  // measure 29
0000
0000
0000
1000
,  // measure 30
0000
0000
0000
0001
,  // measure 31
0000
1000
0000
0001
,  // measure 32
0000
1000
0000
0001
,  // measure 33
0000
0000
0100
0000
,  // measure 34
0010
0000
0100
0000
,  // measure 35
0020
0000
0000
0030
,  // measure 36
0000
0000
0000
0000
,  // measure 37
0000
0000
1000
0000
,  // measure 38
0001
0000
1000
0000
,  // measure 39
0001
0000
0000
0000
,  // measure 40
0000
0000
0000
0000
,  // measure 41
0100
0000
0010
0000
,  // measure 42
1000
0000
0001
0000
,  // measure 43
1000
0000
0000
0000
,  // measure 44
0000
0000
0000
0000
,  // measure 45
0000
0000
0001
0000
,  // measure 46
0000
0000
1000
0000
,  // measure 47
0000
0000
0000
0000
,  // measure 48
0000
0000
0000
0000
,  // measure 49
0010
0000
0000
0000
,  // measure 50
0100
0000
0000
0000
,  // measure 51
1000
0000
0000
0000
,  // measure 52
0000
0000
0000
0000
,  // measure 53
0001
0000
0000
0000
,  // measure 54
1000
0000
0000
0000
,  // measure 55
0010
0000
0000
0000
,  // measure 56
0100
0000
0000
0000
,  // measure 57
0110
0000
0000
0000
;

//---------------dance-couple - ----------------
#NOTES:
     dance-couple:
     :
     Hard:
     15:
     0.000,0.000,0.000,0.000,0.000:
00000000
00000000
00000000
00000000
;

//---------------dance-single - Copied from----------------
#NOTES:
     dance-single:
     Copied from:
     Challenge:
     12:
     0.277,0.281,0.012,0.185,0.513:
0000
0000
0000
0000
,
0000
0000
0000
0000
,
0000
0000
0000
0000
,
2000
3020
0230
0302
,
0203
0000
0000
0320
0000
0000
2030
0000
0000
3001
0100
0010
,
1000
0100
1000
0001
0100
0010
1000
0100
0010
0100
1000
0001
,
0100
0010
1000
0100
0010
0001
0100
0010
1000
0100
0010
0001
,
0200
0320
2030
3200
,
0320
0032
0203
0320
,
2030
0000
0000
3200
0000
0000
0320
0000
0000
0031
0000
0001
,
0000
0001
0000
1000
0000
0010
0000
0100
0000
0001
0000
0100
,
0000
0010
0000
2000
0000
0000
0000
0000
0000
3002
0000
0000
,
0000
0000
0000
2003
,
0000
0000
0000
0000
0000
0000
0000
0000
0000
3001
0100
0010
,
1000
0100
0010
0100
1000
0001
0100
0010
1000
0100
0010
0100
,
1000
0001
0100
0010
1000
0100
1000
0001
0100
0010
1000
0100
,
1000
0001
0100
0010
1000
0100
0010
0100
1000
0001
0100
0010
,
1000
0100
0010
0100
1000
0001
0100
0010
1000
0100
0010
0100
,
1000
0001
0100
0010
1000
0100
0010
0100
1000
0001
0100
0010
,
1000
0100
1000
0001
0100
0010
1000
0100
1000
0001
0100
0010
,
1000
0100
0010
0100
1000
0001
0100
0010
1000
0100
0010
0100
,
1000
0010
0100
0001
0100
0010
1000
0100
0010
0100
1000
0001
,
0100
0010
0100
0010
1000
0001
1000
0001
0100
0010
1000
0001
,
0100
0010
1000
0100
1000
0001
0100
0010
1000
0100
1000
0100
,
0010
0001
0100
0001
1000
0001
1000
0001
1000
0001
0100
0010
,
1000
0100
0010
0100
0001
0100
0010
1000
0100
1000
0001
0100
,
0010
1000
0100
0010
0001
0100
0010
1000
0100
1000
0001
0100
,
0010
1000
0010
0100
0001
0100
0010
1000
0100
0010
0100
1000
,
0001
0100
0010
1000
0100
0010
0100
1000
0001
0100
0010
1000
,
0100
1000
0001
0100
0010
1000
0001
0100
0010
2000
0000
0000
,
3020
0230
0302
0203
,
0320
2030
3002
1003
,
0001
0100
0001
1000
0010
1000
0001
0100
0010
1000
0100
0010
,
0100
1000
0001
0100
0010
1000
0100
1000
0001
0100
0010
1000
,
0100
0010
0100
0010
0001
0010
0001
1000
0001
1000
0100
1000
,
0001
0100
0001
0010
0100
0010
0001
0100
0001
1000
0010
1000
,
0001
0100
0001
0100
0010
1000
0100
0010
0100
1000
0001
0100
,
0010
1000
0100
0010
0100
1000
0001
0100
0010
1000
0100
0010
,
0100
1000
0001
0100
0010
1000
0100
0010
0100
1000
0100
1000
,
0001
1000
0010
1000
0001
0100
0001
1000
0001
1000
0010
1000
,
2000
3020
0032
0203
,
0320
0032
2003
3020
,
0130
0001
0100
0010
1000
0100
1000
0001
0100
0010
1000
0100
,
0010
0001
0100
0010
1000
0100
0010
0100
1000
0001
0100
0010
,
1000
0000
0000
1001
0000
0000
0001
0000
0100
0000
0000
0010
,
0000
0000
1000
0000
0000
0100
0000
0000
0010
0000
0000
0000
,
0001
0100
0010
1000
0100
0010
0100
1000
0001
0100
0010
1000
,
0100
0000
0010
0000
0001
0000
0010
0000
0100
0000
1000
0000
0010
0000
0100
0001
0100
0000
0010
0000
1000
0000
0100
0000
,
0020
0032
0203
0320
,
2030
0000
0000
3200
0000
0000
0310
0000
0001
0000
0000
0000
,
2002
0000
0000
3003
,
1000
0010
1000
0010
0100
0001
0010
0001
0100
0001
0010
0001
,
0100
0000
0000
0010
0000
0000
1000
0000
0010
0000
0000
0100
,
0000
0000
0000
0000
0001
0000
0100
0000
0000
0000
0000
0010
,
2000
0000
0000
0000
0000
0000
0200
3000
0000
0000
0000
0000
,
0320
0000
0030
0000
,
1001
0000
0000
0000
;

//---------------dance-single - Copied from----------------
#NOTES:
     dance-single:
     Copied from:
     Hard:
     6:
     0.131,0.173,0.004,0.243,0.033:
0000
0000
0000
0000
,
0000
0000
0000
0000
,
0000
0000
0000
0000
,
2000
3002
0203
0320
,
2030
3002
0003
1000
,
1000
0001
0100
0010
,
1000
0010
0100
0001
,
0020
0230
2300
3002
,
0203
0320
2030
3002
,
0203
0320
2030
3002
,
0000
0000
0000
0203
,
0000
0000
0000
0320
,
0000
0000
0000
2030
,
0000
0000
0000
3001
,
0100
0010
1000
0001
,
0100
0010
1000
0001
,
0200
0010
0010
0001
,
0310
0000
0000
1000
,
0001
0100
0010
1000
,
0000
0000
0010
1000
0000
0010
0000
0000
0100
0000
0000
0000
,
0002
0023
0230
2300
,
3002
0000
0003
1000
,
0001
0100
0100
0010
,
1000
0001
1000
0001
,
0200
0320
2030
3200
,
0320
0000
0030
0000
,
0001
1000
0001
1000
,
0000
0000
0001
0100
0000
0000
0000
0000
0010
1000
0000
0000
,
0002
0203
0320
2030
,
3002
0003
0000
2000
,
3010
0100
0001
0100
,
0010
1000
0100
0010
,
0001
0100
0010
1000
,
0100
0010
0001
0100
,
0020
0000
0100
0000
,
1000
0000
0100
0000
,
0031
0100
0010
1000
,
0100
0010
0001
0100
,
0020
0000
1000
0000
,
0100
0000
1000
0000
,
1030
0001
1000
0001
,
0100
0010
1000
0100
,
0010
0002
0203
0320
,
2030
3200
0300
0000
,
0010
0000
0000
0001
0000
0000
0100
0000
0010
0000
0000
0001
,
0000
0000
1000
0000
0000
0010
0000
0000
0100
0000
0000
0000
,
0002
0203
0320
2030
,
3200
0000
0000
0310
0000
0000
0001
1000
0001
1000
0000
0000
,
0002
0203
0320
2030
,
3200
0000
0000
0320
0000
0000
0031
0000
0100
0000
0000
0000
,
0020
0000
2030
3002
,
0200
0000
0303
0000
,
0001
0000
0000
1000
0000
0000
0010
0000
0100
0000
0000
0001
,
0000
0000
0000
0000
0000
1000
0100
0000
0000
0000
0000
0010
,
0002
0000
0203
0000
,
0020
0000
0000
0330
,
1001
0000
0000
0000
;

//---------------dance-single - ----------------
#NOTES:
     dance-single:
     :
     Medium:
     5:
     0.111,0.162,0.004,0.216,0.000:
0000
0000
0000
0000
,
0000
0000
0000
0000
,
0000
0000
0000
0000
,
2000
3002
0203
0320
,
2030
3002
0003
1000
,
1000
0001
0100
0010
,
1000
0010
0100
0001
,
0020
0230
2300
3002
,
0203
0320
2030
3002
,
0203
0320
2030
3002
,
0000
0000
0000
0203
,
0000
0000
0000
0320
,
0000
0000
0000
2030
,
0000
0000
0000
3001
,
0100
0010
1000
0001
,
0100
0010
1000
0001
,
0200
0000
0000
0000
,
0300
0000
0000
1000
,
0001
0100
0010
1000
,
0000
1000
0000
0000
,
0002
0023
0230
2300
,
3002
0000
0003
1000
,
0001
0100
0100
0010
,
1000
0001
1000
0001
,
0200
0320
2030
3200
,
0320
0000
0030
0000
,
0001
1000
0001
1000
,
0000
0100
0000
1000
,
0002
0203
0320
2030
,
3002
0003
0000
1000
,
0010
0100
0001
0100
,
0010
1000
0100
0010
,
0001
0100
0010
1000
,
0100
0010
0001
0100
,
0020
0000
0000
0000
,
0000
0000
0000
0000
,
0031
0100
0010
1000
,
0100
0010
0001
0100
,
0020
0000
0000
0000
,
0000
0000
0000
0000
,
1030
0001
1000
0001
,
0100
0010
1000
0100
,
0010
0002
0003
0020
,
0030
0200
0300
0000
,
0010
0001
0100
0000
,
0001
0000
0010
0000
,
2000
3000
0020
0030
,
0200
0300
0002
0003
,
0002
0203
0320
2030
,
3200
0320
0031
0000
,
2000
0000
3020
0032
,
0200
0000
0303
0000
,
0001
0000
1000
0000
,
0001
0000
0100
0000
,
0001
0000
1000
0000
,
0010
0000
1000
0000
,
1001
0000
0000
0000
;

//---------------dance-single - Copied from----------------
#NOTES:
     dance-single:
     Copied from:
     Easy:
     3:
     0.078,0.097,0.004,0.081,0.000:
0000
0000
0000
0000
,
0000
0000
0000
0000
,
0000
0000
0000
0000
,
2000
0000
3002
0000
,
1003
0000
0000
1000
,
0100
1000
0100
1000
,
0100
1000
0100
1000
,
0020
0000
2030
0000
,
3002
0000
2003
0000
,
3010
0000
0100
0002
,
0000
0000
0000
0203
,
0000
0000
0000
0320
,
0000
0000
0000
2030
,
0000
0000
0000
3001
,
0100
0010
1000
0001
,
0100
0010
1000
0001
,
0200
0000
0000
0000
,
0300
0000
0000
1000
,
0000
0100
0000
1000
,
0000
1000
0000
0000
,
0001
0000
0000
0000
,
0002
0000
0003
1000
,
0100
1000
0100
1000
,
0100
1000
0100
1000
,
0020
0000
0030
0000
,
0200
0000
0300
0000
,
0001
1000
0001
1000
,
0000
0100
0000
1000
,
0002
0000
0003
0000
,
0002
0000
0003
1000
,
0100
1000
0100
1000
,
0100
1000
0100
1000
,
0001
0010
0001
0010
,
0001
0010
0001
0010
,
0002
0000
0000
0000
,
0003
0000
0000
0000
,
0001
1000
0001
1000
,
0001
1000
0001
1000
,
0002
0000
0000
0000
,
0003
0000
0000
0000
,
1000
0000
0100
0000
,
0010
0000
0001
0000
,
0001
0000
0020
0030
,
2000
3000
0000
0000
,
0100
0000
0010
0000
,
0001
0000
0010
0000
,
1000
0000
0010
0000
,
0100
0000
0001
0000
,
0001
0100
0010
1000
,
0100
0010
0001
0000
,
1000
0000
0010
0001
,
0200
0000
0300
0000
,
0001
0000
1000
0000
,
0001
0000
0100
0000
,
0001
0000
1000
0000
,
0010
0000
1000
0000
,
1001
0000
0000
0000
;
