#TITLE:I Should Be So Lucky;
#SUBTITLE:;
#ARTIST:Susan Bell;
#TITLETRANSLIT:;
#SUBTITLETRANSLIT:;
#ARTISTTRANSLIT:;
#CREDIT:;
#BANNER:;
#BACKGROUND:;
#LYRICSPATH:;
#CDTITLE:;
#MUSIC:[ROUND J] - I Should Be So Lucky.ogg;
#OFFSET:-0.880;
#SAMPLESTART:67.480;
#SAMPLELENGTH:12.000;
#SELECTABLE:YES;
#BPMS:0.000=150.000,328.500=75.000;
#STOPS:64.000=1.800
;
#BGCHANGES:;

//---------------dance-single - ----------------
#NOTES:
     dance-single:
     :
     Easy:
     3:
     0.232,0.297,0.194,0.148,0.000:
0000
0000
0000
0000
,
2000
0000
0000
3000
,
0002
0000
0000
0003
,
2000
0000
0000
3000
,
0020
0000
0000
0030
,
2000
0000
3002
0000
,
0103
0000
0010
0000
,
0100
0000
0100
0000
,
0001
0000
0000
1001
,
0000
1001
0000
0001
,
0000
1000
0000
1001
,
0000
1001
0000
0100
,
0000
0001
0000
0101
,
0000
1001
0000
0001
,
0000
0010
0000
1001
,
0000
1000
0000
0000
,
1000
0000
1000
1000
,
0001
0001
0010
0100
,
0000
0000
1000
0010
,
0100
0000
0000
0100
,
1000
0001
1000
1001
,
0000
1001
0000
0010
,
0000
0000
0001
0000
,
0010
0000
0000
0000
,
1001
1001
1000
0000
,
0001
0000
0100
0000
,
0010
0000
0020
0000
,
0000
0030
0002
0000
,
0000
0000
1003
0000
,
0010
0000
0100
0000
,
1000
0000
1000
0000
,
0100
0000
0010
0000
,
0000
0001
0000
0000
1000
0000
0001
0000
,
0100
0010
2000
3000
,
0000
0001
1000
0001
,
1000
0001
0100
0000
,
0000
0000
1001
0000
,
1000
0000
0001
0000
0000
0000
0000
0200
,
0000
0300
1000
0100
,
0010
0001
1000
0000
,
0000
0000
0000
1001
,
0000
1001
0000
1000
,
0001
0000
0001
1000
,
0001
0010
0100
1000
,
0000
0000
0002
0203
,
0320
0000
2030
0000
3002
0000
0000
0003
,
0000
1000
1000
0001
,
0100
0000
0100
0001
,
0000
0000
0000
0110
,
0000
1001
0000
0100
,
0000
0001
0000
0001
,
0000
1000
0000
0010
,
0000
0000
0001
1000
,
0010
0100
0002
0000
,
0003
0001
1000
0001
,
1000
0000
0001
0000
0010
0000
0000
0010
,
0000
0000
0000
0011
,
0000
1100
0000
1000
,
0000
0000
0001
0010
,
0100
0000
0000
0010
,
1000
0001
0000
1001
,
0000
1010
0000
0010
,
0000
0001
0010
0100
,
1000
0000
0000
0100
,
0001
1001
0000
0000
;

//---------------dance-single - Copied from----------------
#NOTES:
     dance-single:
     Copied from:
     Hard:
     10:
     0.532,0.504,0.342,0.231,0.083:
0000
0000
0000
0000
,
2000
0000
0000
3000
,
0002
0000
0000
0003
,
2000
0000
0000
3000
,
0020
0000
0000
0030
,
2000
0000
0000
0000
3002
0000
0103
0010
,
0100
0010
0100
0000
0010
0000
1000
0000
,
0100
0010
0001
0000
0100
0000
0010
0000
,
1001
0000
0000
0000
1000
0001
1000
0001
1000
0000
0000
0000
1001
0000
0000
0000
,
0010
0000
1001
0000
0001
0100
0010
1000
,
0001
0000
0000
0010
0000
0000
0100
0000
1000
0000
0000
0000
1100
0000
0000
0000
,
0010
0000
1001
0000
0001
0100
0010
1000
,
0100
0010
0001
1000
0001
0000
0101
0000
,
0010
0000
1010
0000
0100
0001
0100
0001
,
0100
0010
1000
1001
,
0010
0000
1000
0001
0000
0100
0000
0010
,
1000
0000
0000
0000
0000
0000
0000
0000
1000
0001
1000
0001
1000
0000
0000
0000
,
0001
0100
0001
0100
0001
0000
1000
0000
0010
0000
0100
0000
0001
0000
0100
0000
,
0000
0000
0010
1000
0000
0010
1000
0000
0001
0000
0100
0000
0010
0000
0000
0000
,
1000
0100
0000
0010
0000
0001
0100
0010
,
1000
0000
1010
0000
0100
0001
0101
0000
,
0010
1000
1010
0000
1000
0100
0010
0001
,
0000
0000
1000
0010
0000
1000
0010
0000
0100
0000
0001
0000
0100
0000
0000
0000
,
0010
1000
0010
0000
0000
0000
0100
0000
0000
0000
0001
0000
0100
0000
0000
0000
,
0101
0000
1001
0000
2000
0000
0000
3010
,
0100
0010
1000
0010
0000
1000
0000
0001
,
0000
0100
0000
0000
0020
0000
0000
2000
,
0000
0000
3030
0000
0002
0000
0000
0203
,
0000
0010
0010
0310
1000
0000
0000
0001
,
0100
0010
1000
0100
0000
0010
0000
0001
,
0000
0100
0000
0010
1000
0100
1000
0001
,
0100
0010
0100
0001
1000
0100
0010
0001
,
0000
0101
0000
0000
1001
0000
0001
0100
,
0010
1000
0010
0000
2000
0000
3100
0010
,
0000
0001
0100
0010
1000
0100
1000
0001
,
1000
0000
0001
0000
0100
0010
1000
0010
,
0000
1000
0000
0000
1001
0000
0001
0100
,
0010
1000
0100
0010
0000
0002
0000
0200
,
0000
0303
0000
0000
1000
0100
1000
0001
,
0100
0001
0100
0001
1000
0100
1000
1001
,
0000
0000
0010
1001
,
0100
0000
1001
0000
1000
0100
1000
0001
,
0100
0010
1000
0000
0002
0000
0203
0000
,
0320
0000
1030
0002
0000
0203
0000
0320
,
0000
1030
0001
1000
1002
0000
0203
0000
,
0320
0000
2030
0000
3002
0000
0000
0103
,
0000
1010
1000
0001
,
0100
0000
0010
1000
0100
0010
0001
0100
,
0010
1000
0100
1000
1001
0000
0101
0000
,
0010
0000
1010
0000
1000
0100
1000
0001
,
0100
0010
1000
0100
0110
0000
0101
0000
,
1001
0000
1000
0010
0100
0001
0100
0010
,
1000
0100
0010
0001
0011
0000
1001
0000
,
1010
0000
0101
0000
1000
0100
0010
0001
,
0100
0010
1001
0000
1000
0000
0001
0000
,
1000
0000
0001
0100
0010
1000
0100
0110
,
0000
0000
0000
0000
0001
0100
1010
0000
,
1000
0100
0011
0000
0001
0100
0010
1000
,
0000
0000
0010
0100
0000
0010
0100
0000
0001
0000
0100
0000
0010
0000
1000
0000
,
0010
0100
0000
0001
0000
0100
0010
0000
,
1000
0000
0000
0000
1001
0000
0000
0000
0001
0100
0001
0100
0001
0000
0000
0000
,
1000
0010
1000
0010
1000
0100
0010
0001
,
0100
0000
0010
1000
0000
0010
1000
0000
0001
0000
0100
0000
0010
0000
0000
0000
,
1000
0001
0000
1000
0000
0010
0100
0000
,
0001
1001
0000
0000
;

//---------------dance-single - Copied from----------------
#NOTES:
     dance-single:
     Copied from:
     Medium:
     7:
     0.351,0.386,0.314,0.175,0.000:
0000
0000
0000
0000
,
2000
0000
0000
3000
,
0002
0000
0000
0003
,
2000
0000
0000
3000
,
0020
0000
0000
0030
,
2000
0000
3002
0000
,
0103
0000
0010
0000
,
0100
0001
0100
0010
,
1001
1000
1000
1001
,
0010
1001
0001
0100
,
0010
1000
0100
1100
,
0010
1001
0001
0100
,
0010
0100
0001
0101
,
0010
1010
0100
0001
,
0100
0010
1000
1001
,
0010
1000
0000
0000
,
1000
0000
0000
0000
1000
0001
1000
0000
,
0001
0100
0001
0000
0010
0000
0100
0000
,
0000
0000
0001
0010
,
0100
0000
0000
0100
,
1000
0100
0100
0101
,
0010
1010
1000
0010
,
0000
0000
0100
0100
,
0010
0000
0000
0100
,
0101
0000
1001
0000
2000
0000
0000
3010
,
0000
1000
0000
0010
0000
1000
0000
0001
,
0000
0100
0000
0000
0020
0000
0000
2000
,
0000
0000
3030
0000
0002
0000
0000
0203
,
0000
0000
0000
0300
1000
0000
0000
0001
,
0000
0010
0000
0100
0000
0010
0000
0001
,
0000
0100
0000
0010
1000
0000
1000
0000
,
0100
0100
0010
0010
,
0000
0101
0000
0000
1001
0000
0001
0000
,
0100
0000
0010
0000
2000
0000
3000
0010
,
0000
0001
1000
0001
,
1000
0000
0001
0000
0100
0000
0000
0010
,
0000
1000
0000
0000
1001
0000
0001
0000
,
0010
0000
0100
0001
0000
0010
0000
0200
,
0000
0300
1000
0100
,
0010
0000
0001
0000
1000
0000
1000
0001
,
0000
0000
0010
1001
,
0100
1001
1000
0100
,
0010
0001
1000
0100
,
0010
0000
0001
0100
0000
0010
0000
1000
,
0000
0010
0000
0000
0002
0000
0203
0000
,
0320
0000
2030
0000
3002
0000
0000
0103
,
0000
1000
1000
0001
,
0100
0010
0100
0001
,
0010
0100
1001
0101
,
0010
1010
1000
0100
,
0010
0001
0101
0101
,
1001
1000
0100
0010
,
0001
0010
0011
1001
,
1010
0000
0101
0000
2000
0000
0000
3001
,
0000
1001
1000
0001
,
1000
0000
0001
0000
0010
0000
0000
0010
,
0000
0000
0001
0011
,
1000
0000
1100
0000
0001
0000
1000
0001
,
0000
0000
0001
0010
,
0100
0000
0000
0010
,
1000
1001
0001
0101
,
1000
1010
1000
0010
,
0010
0001
0010
0100
,
1000
0001
0000
1000
0000
0010
0100
0000
,
0001
1001
0000
0000
;

//---------------dance-single - Copied from----------------
#NOTES:
     dance-single:
     Copied from:
     Beginner:
     3:
     0.152,0.178,0.175,0.074,0.000:
0000
0000
0000
0000
,
2000
0000
3000
0000
,
0002
0000
0003
0000
,
2000
0000
3000
0000
,
0020
0000
0030
0000
,
1000
0000
0001
0000
,
1000
0000
1000
0000
,
0001
0000
0001
0000
,
1000
0000
0000
1001
,
0000
1001
0000
0000
,
0000
0000
0000
1001
,
0000
1001
0000
0000
,
0000
0000
0000
0110
,
0000
1001
0000
0000
,
0000
0000
0000
1001
,
0000
1000
0000
0000
,
1000
0000
1000
0000
,
0001
0000
0010
0000
,
0000
0000
1000
0000
,
0000
0000
0000
0000
,
0000
0000
0000
1001
,
0000
1001
0000
0010
,
0000
0000
0001
0000
,
0010
0000
0000
0000
,
1000
0000
1000
0000
,
0001
0000
0100
0000
,
0010
0000
0020
0000
,
0030
0000
0002
0000
,
0003
0000
1000
0000
,
0010
0000
0100
0000
,
0001
0000
1000
0000
,
0100
0000
0010
0000
,
0000
0000
1001
0000
,
0000
0000
2000
3000
,
0000
0000
1000
0000
,
1000
0000
0001
0000
,
0000
0000
1001
0000
,
0000
0001
0000
0000
,
0000
0000
1000
0000
,
0000
0000
1000
0000
,
0000
0000
0000
1001
,
0000
1001
0000
0000
,
0000
0001
0000
0001
,
0000
0010
0000
1000
,
0000
0000
0001
0000
,
0010
0000
0001
0000
,
0000
0000
1000
0000
,
1000
0000
0001
0000
,
0000
0000
0000
0110
,
0000
1001
0000
0100
,
0000
0001
0000
0001
,
0000
1000
0000
0010
,
0000
0000
0001
0000
,
0010
0000
0002
0000
,
0003
0000
1000
0000
,
1000
0000
0010
0000
,
0000
0000
0000
1001
,
0000
1001
0000
1000
,
0000
0000
0001
0000
,
1000
0000
0000
0010
,
0000
0001
0000
1001
,
0000
1001
0000
0010
,
0000
0000
0000
0000
,
0000
0000
0000
0000
,
0000
0010
0000
0000
;

//---------------dance-single - ----------------
#NOTES:
     dance-single:
     :
     Challenge:
     15:
     0.753,0.979,0.286,0.065,0.489: // measure 1
0000
0000
0000
0000
,  // measure 2
1000
0100
1000
0100
0010
0001
0010
0001
0100
0010
0100
0010
1000
0100
0010
0001
,  // measure 3
0100
0010
1000
0100
0010
0100
1000
0001
0100
0010
1000
0100
0010
0001
0100
0010
,  // measure 4
1000
0100
1000
0100
0010
0001
0010
0001
0100
0010
0100
0010
1000
0100
0010
0001
,  // measure 5
0100
0010
1000
0100
0010
0001
0100
0010
1000
0010
0100
0010
1000
0100
0010
0001
,  // measure 6
0010
0000
0100
0000
1000
0100
0010
0001
0100
0010
1000
0100
0010
0000
0001
0000
,  // measure 7
0010
0000
0100
0000
1000
0100
0010
0001
0010
0100
1000
0010
0100
0001
0100
0010
,  // measure 8
1000
0100
1000
0100
0010
0001
0010
0001
0100
0010
0100
0010
1000
0100
0010
0001
,  // measure 9
1000
0000
0000
0000
1000
0001
1000
0001
1000
0000
0000
0000
1001
0000
0000
0000
,  // measure 10
0010
0000
0001
0000
1001
0000
0000
0000
0001
0000
0100
0000
0010
0000
1000
0001
,  // measure 11
1000
0000
0100
0010
0000
0001
0010
0100
1000
0000
0100
0000
1100
0000
0000
0000
,  // measure 12
0010
0001
1001
0000
0001
0100
0010
1000
,  // measure 13
0100
0000
0010
0001
1000
0100
0010
0001
0100
0000
0001
0000
0101
0000
0000
0000
,  // measure 14
0010
1000
1010
0000
0100
0001
0100
0001
,  // measure 15
0100
0000
0010
0000
1000
0001
1001
0000
,  // measure 16
0010
0000
1001
0010
0000
0010
0000
0010
,  // measure 17
1001
0000
0000
0000
0000
0000
0000
0000
1000
0001
1000
0001
1000
0000
0000
0000
,  // measure 18
0001
0100
0001
0100
0001
0000
1000
0000
0010
0000
0100
0000
0001
0000
0200
0000
,  // measure 19
0000
0000
0310
1000
0000
0010
1000
0000
0001
0000
0100
0000
0010
0000
0000
1000
,  // measure 20
0100
1000
0100
0000
0000
0010
0001
0000
0000
0000
0001
0000
0100
0000
0010
0000
,  // measure 21
1000
0100
0010
0001
0010
0000
0000
0000
0100
1000
0001
0100
0010
0000
0000
0000
,  // measure 22
1000
0100
0010
0001
0010
0000
0100
0000
1000
0000
0100
0000
0010
0000
0001
0000
,  // measure 23
0000
0000
1000
0010
0000
1000
0010
0000
0100
0000
0001
0000
0100
0000
0000
1000
,  // measure 24
0010
1000
0010
0000
0000
0100
0001
0000
0010
0000
0001
0000
0100
0000
0000
0000
,  // measure 25
0001
1000
0001
1000
1001
0000
0000
0000
2000
0000
0000
0000
0000
0000
3010
0000
,  // measure 26
0100
0010
1000
0010
1000
0100
0001
0100
,  // measure 27
1000
0000
0100
0000
0010
0000
0001
0000
0010
0100
0010
0100
0010
0000
0100
0000
,  // measure 28
1000
0001
1000
0001
1000
0000
0100
0000
0010
0001
0010
0001
0010
0000
0100
0000
,  // measure 29
1000
0010
1000
0001
1000
0100
0010
0001
,  // measure 30
0100
0010
1000
0100
0010
0001
0100
0001
,  // measure 31
0010
1000
0010
0001
1000
0100
1000
0001
,  // measure 32
0100
0010
0100
0001
1000
0100
0010
0001
,  // measure 33
0000
0101
0000
0000
1001
0000
0001
0100
,  // measure 34
0010
1000
0010
1000
2010
0000
3100
0010
,  // measure 35
0000
0001
0100
0010
1000
0100
1000
0001
,  // measure 36
1000
0100
0001
0100
1000
0010
1000
0010
,  // measure 37
0100
0001
0100
0001
1001
0000
0001
0100
,  // measure 38
0010
1000
0100
0010
0000
0001
0010
0100
,  // measure 39
1000
0010
0100
0001
1000
0100
1000
0001
,  // measure 40
0100
0001
0100
0001
1000
0100
1000
1001
,  // measure 41
0000
0000
0000
0000
0010
0001
1001
0000
,  // measure 42
0010
1000
1001
0000
1000
0100
1000
0001
,  // measure 43
0100
0010
1000
0000
0001
0100
0010
1000
,  // measure 44
0010
0100
0001
0001
0100
0010
1000
0010
,  // measure 45
0100
0001
1000
0001
1002
0000
0203
0000
,  // measure 46
0320
0000
2030
0000
3001
0100
0010
1000
,  // measure 47
0010
1000
1010
0000
1000
0001
0010
0100
,  // measure 48
1000
0001
0010
1000
0010
0001
0100
0010
,  // measure 49
1000
0100
0010
0001
1000
0001
0101
0000
,  // measure 50
0010
1000
1010
0000
1000
0100
1000
0001
,  // measure 51
0100
0010
1000
0100
0110
0000
0101
0000
,  // measure 52
1001
0000
1000
0010
0100
0001
0100
0010
,  // measure 53
1000
0000
0100
0010
0001
0010
0001
0010
0100
0000
1000
0000
0001
0000
0100
0000
,  // measure 54
0010
1000
0100
0010
0001
0100
0010
1000
,  // measure 55
0100
0010
1001
0000
1000
0100
0001
0100
,  // measure 56
1000
0100
0001
0100
1000
0100
0010
0110
,  // measure 57
0000
0000
0000
0000
0000
0000
0000
0000
0001
0100
0010
0000
1010
0000
0000
0000
,  // measure 58
1000
0100
0010
0000
0011
0000
0000
0000
0001
0000
0001
0000
1000
0000
0100
0000
,  // measure 59
0010
0000
0001
0100
0000
0010
0100
0000
0001
0000
0100
0000
0010
0000
0000
1000
,  // measure 60
0010
0100
0001
0000
0000
0100
0001
0000
0000
0000
0100
0000
0010
0000
0000
0000
,  // measure 61
1001
0000
0000
0000
1001
0000
0000
0000
0001
0100
0001
0100
0001
0000
0000
0000
,  // measure 62
1000
0010
1000
0010
1000
0000
0000
0000
1000
0000
0100
0000
0010
0000
0001
0000
,  // measure 63
0100
0000
0010
1000
0000
0010
1000
0000
0001
0000
0100
0000
0010
0000
0000
1000
,  // measure 64
0100
0010
0001
0000
0000
0100
0010
0000
0000
0000
0100
0000
1000
0000
0000
0000
,  // measure 65
0001
1000
1001
0000
0000
0000
0000
0000
;
