#TITLE:Home;
#SUBTITLE:;
#ARTIST:Groove Coverage;
#TITLETRANSLIT:;
#SUBTITLETRANSLIT:;
#ARTISTTRANSLIT:;
#CREDIT:;
#BANNER:;
#BACKGROUND:;
#LYRICSPATH:;
#CDTITLE:;
#MUSIC:Home.ogg;
#OFFSET:-0.460;
#SAMPLESTART:33.874;
#SAMPLELENGTH:11.960;
#SELECTABLE:YES;
#BPMS:0.000=38.307;
#STOPS:;
#BGCHANGES:;

//---------------dance-single - Copied from----------------
#NOTES:
     dance-single:
     Copied from:
     Challenge:
     9:
     0.354,0.297,0.151,0.162,0.700:
0000
0000
0000
0000
0000
0000
1000
0100
1000
0001
0010
0001
,
0100
0000
0010
0000
0100
0000
0001
0000
0010
0000
0001
0000
1000
0100
1000
0100
0010
0001
0010
0100
1000
0010
0100
0000
,
0001
0010
0001
0010
0100
1000
0001
0010
0100
1000
0100
0000
0020
0000
0001
0000
0031
0000
2000
0000
0010
0000
3010
0000
,
0200
0001
0301
0010
0000
1000
0002
0100
0103
0020
1000
1030
,
0200
0000
0000
0000
0000
0000
0300
0000
0000
0000
0001
1000
0001
0100
0001
0100
0010
1000
0010
0100
0010
0001
0100
0010
,
0100
0010
0100
0001
0100
0010
0100
0001
0100
0000
0010
0000
1000
0100
1000
0001
0100
0010
0100
0001
0100
0010
0100
0000
,
0010
1000
0010
1000
0001
0100
0001
0100
0010
1000
0100
0000
0010
0000
0001
0000
0100
0000
0010
0100
0010
0000
0100
0000
,
0001
0001
0001
0020
0000
0130
1000
1000
1000
0001
0001
0001
,
0201
0000
0000
0000
0000
0000
0310
0000
0000
0000
1000
0001
1000
0100
1000
0100
0010
0001
0010
0001
0100
0010
0100
0000
,
0001
0010
0001
0010
0100
1000
0001
0100
0010
1000
0100
0000
0020
0000
0001
0000
0031
0000
2000
0000
0010
0000
3010
0000
,
0200
0000
0300
0000
0000
0000
0001
1000
0001
0000
1000
0000
1100
0000
0100
0000
0010
0000
0110
0000
0010
0000
0011
0000
,
1001
1000
0010
0110
0100
0100
0101
0010
1000
1010
0100
0010
,
0220
0000
0000
0000
0330
0000
0001
1000
0001
0000
0100
0001
0100
0000
0010
0000
1000
0000
1010
0000
0100
0000
0001
0000
,
0101
0010
1000
0001
0100
1000
0100
0010
0001
0011
0001
0100
,
0220
0000
0000
0000
0330
0000
0001
1000
0001
0000
1000
0000
1001
0000
0000
0000
0000
0000
0000
0000
0000
0000
0000
0000
;

//---------------dance-single - Copied from----------------
#NOTES:
     dance-single:
     Copied from:
     Beginner:
     1:
     0.045,0.045,0.011,0.011,0.000:
0000
0000
0000
0000
,
0000
0000
1000
0000
,
1000
0000
0001
0000
,
0001
0000
0100
0000
,
0100
0000
0010
0010
,
0000
0000
0001
0000
,
0002
0003
1000
0000
,
1000
0000
0010
0000
,
0010
0000
0100
0000
,
0001
0000
1000
1000
,
1000
0000
0001
0000
,
0100
0000
0010
0000
,
1000
0000
0100
0000
,
0010
0000
0001
0000
,
1001
0000
0000
0000
;

//---------------dance-single - Copied from----------------
#NOTES:
     dance-single:
     Copied from:
     Medium:
     5:
     0.177,0.164,0.000,0.043,0.312:
0000
0000
1000
0001
,
0100
0001
1000
0001
,
1000
0000
0000
0001
0000
0001
0010
0100
1000
0100
0010
0001
,
0010
0100
1000
0100
0000
0010
0001
0010
0100
1000
0100
0010
,
0002
0000
0000
0003
0000
0000
0001
0100
0010
1000
0000
0000
,
0001
0100
0010
1000
0000
0001
0100
0010
1000
0100
0010
0100
,
2000
0000
0000
3000
0000
0000
0010
0100
1000
0100
0000
0000
,
0010
0001
0010
0100
0000
1000
0100
1000
0100
0010
0100
0010
,
0200
0300
1000
0100
,
0010
0000
0000
0001
0000
0010
0001
0010
0100
1000
0100
0010
,
0002
0000
0000
1003
0000
0000
1000
0100
0010
0001
0010
0100
,
1000
0100
0010
0001
0000
0000
0010
0100
1000
0100
0010
0001
,
1000
0000
0000
0000
0000
0010
0100
1000
0100
0010
0001
0100
,
0001
0010
1000
0001
0000
0000
0010
0001
0010
0001
0010
0001
,
0010
0000
0000
1000
0001
1000
0001
0000
0000
0000
0000
0000
;

//---------------dance-single - Copied from Copied f----------------
#NOTES:
     dance-single:
     Copied from Copied f:
     Hard:
     7:
     0.259,0.227,0.022,0.129,0.533:
0000
0000
0000
0000
0000
0000
1000
0100
1000
0001
0010
0001
,
0100
0010
0100
0001
0010
0001
1000
0100
1000
0001
0010
0001
,
1000
0010
1000
0001
0100
0001
0020
0001
0031
2000
0010
3010
,
0200
0001
0301
0010
0000
1000
0002
0100
0103
0020
1000
1030
,
0200
0000
0000
0000
0000
0000
0300
0000
0000
0000
0001
1000
0001
0000
0100
0000
0010
0000
1000
0000
0000
0000
0001
1000
,
0001
0100
0010
1000
0000
0001
0100
0010
1000
0100
0010
0100
,
2000
0000
0000
3000
0000
0001
0010
0100
1000
0100
0010
0001
,
0010
0001
0010
0200
0000
1300
0100
0100
0100
0010
0010
0010
,
0200
0000
0000
0000
0000
0000
1300
0000
0000
0000
1000
0001
1000
0000
0100
0000
0010
0000
0001
0000
0100
0000
0010
0000
,
1000
0100
0010
0001
0000
0100
0010
0001
0010
0100
1000
0100
,
0020
0000
0000
0000
0000
0000
0031
1000
0001
0000
1000
0000
1100
0000
0100
0000
0010
0000
0001
0000
0010
0000
0100
0000
,
1000
0010
0100
0010
0001
0100
0010
1000
0010
1000
0100
0010
,
0002
0000
0000
0000
0000
0000
1003
0001
0010
0000
0001
0100
0010
0000
1000
0000
0100
0000
0010
0000
0001
0000
0100
0000
,
0001
0010
1000
0001
0100
1000
0100
0010
0001
0010
0100
0010
,
0200
0000
0000
0000
0300
0000
1000
0001
1000
0000
0001
0000
1001
0000
0000
0000
0000
0000
0000
0000
0000
0000
0000
0000
;

//---------------dance-single - Copied from----------------
#NOTES:
     dance-single:
     Copied from:
     Easy:
     3:
     0.086,0.070,0.000,0.022,0.011:
0000
0000
1000
0001
,
0100
0001
1000
0001
,
1000
0001
0001
0010
,
0001
0100
0001
0100
,
0002
0003
0001
0010
,
0001
0010
0001
0010
,
0100
0000
0010
0100
,
1000
0010
0100
0010
,
0010
0000
1000
0100
,
0010
0001
0001
0100
,
0002
0003
0100
0001
,
0100
0001
0010
0010
,
0001
0000
0010
0001
,
1000
0001
1000
0001
,
1000
0000
0000
0001
0100
0010
1000
0000
0000
0000
0000
0000
;
