#TITLE:Hold On;
#SUBTITLE:;
#ARTIST:Wilson Phillips;
#TITLETRANSLIT:;
#SUBTITLETRANSLIT:;
#ARTISTTRANSLIT:;
#CREDIT:;
#BANNER:;
#BACKGROUND:bg.bmp;
#LYRICSPATH:;
#CDTITLE:./CDTITLES/BEATMANIA IIDX.PNG;
#MUSIC:hold on.mp3;
#OFFSET:-0.378;
#SAMPLESTART:71.010;
#SAMPLELENGTH:11.000;
#SELECTABLE:YES;
#DISPLAYBPM:98.000;
#BPMS:0.000=97.765;
#STOPS:;
#BGCHANGES:;

//---------------dance-single - ----------------
#NOTES:
     dance-single:
     :
     Medium:
     6:
     0.249,0.278,0.046,0.162,0.017: // measure 1
0000
0000
0000
0000
,  // measure 2
1000
0100
0001
0100
,  // measure 3
0110
0000
0000
1100
0000
0000
1000
0010
,  // measure 4
0000
0000
0001
0100
0001
0000
0100
0000
,  // measure 5
0010
0000
0000
1000
0000
1000
0000
0010
,  // measure 6
0000
0001
0010
0000
1000
0000
0100
0000
,  // measure 7
0010
0001
0010
0001
0000
0000
0000
0000
,  // measure 8
0000
0000
0000
0000
1000
0100
1000
0100
,  // measure 9
1000
0000
0001
0000
1000
0020
0000
0230
,  // measure 10
0000
0300
0000
0000
0010
0000
0001
0000
,  // measure 11
1000
0100
0000
0010
0000
0000
0001
0000
,  // measure 12
0000
0001
0000
0000
0020
0000
0130
0000
,  // measure 13
1000
0100
0010
0001
,  // measure 14
0001
0000
0000
0100
0000
0000
0000
0000
0020
0000
0000
0000
1030
0000
0000
0000
,  // measure 15
0010
0000
1000
0100
0000
0010
0001
0000
,  // measure 16
0000
0000
0001
0100
0000
0000
0000
0000
,  // measure 17
0000
0010
0100
0001
0000
0000
0100
0010
,  // measure 18
0000
0000
0000
0000
1000
0100
1000
0001
,  // measure 19
0000
0010
0100
0000
1100
0000
0000
1000
,  // measure 20
0010
0100
0001
0010
,  // measure 21
0100
0000
0000
0000
0100
0000
0000
2000
0000
0000
0000
0000
0000
0000
3000
0000
,  // measure 22
0001
0100
1000
0100
,  // measure 23
0001
0000
0010
0000
0001
1000
0100
0100
,  // measure 24
0000
0010
0010
0000
0001
0001
0000
0000
,  // measure 25
0100
0100
0010
1000
0000
0100
0200
0000
,  // measure 26
0000
0320
0000
0032
0000
0000
1003
0100
,  // measure 27
0010
0001
0000
0000
0000
0100
0200
0000
,  // measure 28
0000
0320
0000
2030
0000
0000
3100
0010
,  // measure 29
0001
0000
1000
0000
0000
0000
0000
0000
0010
0000
0000
1000
0000
0000
0010
0000
,  // measure 30
0100
0001
0100
0010
,  // measure 31
1000
0010
1000
0010
,  // measure 32
0100
0001
0010
0000
,  // measure 33
0000
0000
0100
0002
0000
0003
0010
0000
,  // measure 34
0001
0100
0010
0000
,  // measure 35
2002
3003
0000
0000
;

//---------------dance-single - ----------------
#NOTES:
     dance-single:
     :
     Easy:
     2:
     0.101,0.161,0.012,0.046,0.000: // measure 1
0000
0000
0000
0000
,  // measure 2
0000
0000
0000
0000
,  // measure 3
1000
0000
0000
0000
,  // measure 4
0000
0000
0010
1000
,  // measure 5
0010
0000
0000
0000
,  // measure 6
0100
0000
0000
0000
,  // measure 7
0001
0000
0000
0000
,  // measure 8
0000
0000
0000
0000
,  // measure 9
0001
0000
0000
0000
,  // measure 10
0000
0000
0000
0000
,  // measure 11
0010
0000
0000
0000
,  // measure 12
0100
0000
0001
0100
,  // measure 13
0001
0000
0000
0000
,  // measure 14
0010
0000
0100
1000
,  // measure 15
0100
0000
0000
0000
,  // measure 16
0010
0000
0000
0000
,  // measure 17
0001
0000
0000
0000
,  // measure 18
0010
0000
0000
0000
,  // measure 19
0000
0100
0100
0100
,  // measure 20
1000
0010
0100
0001
,  // measure 21
0100
0010
2000
0000
,  // measure 22
0000
3001
0100
0010
,  // measure 23
1000
0010
1000
0010
,  // measure 24
0000
0100
0000
0000
0100
0000
0000
0000
,  // measure 25
0100
0000
0000
0020
,  // measure 26
0000
0000
0000
1030
0000
0000
1000
0000
,  // measure 27
0000
0000
0000
0002
,  // measure 28
0000
0000
0000
0013
0000
0000
0001
0000
,  // measure 29
0000
0000
2000
0000
,  // measure 30
0010
0000
0010
0000
,  // measure 31
3010
0000
0000
0000
,  // measure 32
0100
0000
0000
0001
0000
0000
0000
0000
,  // measure 33
0000
0010
0000
0010
,  // measure 34
0000
0000
0001
0000
,  // measure 35
0000
0000
1000
1001
;

//---------------dance-single - ----------------
#NOTES:
     dance-single:
     :
     Beginner:
     1:
     0.055,0.079,0.012,0.000,0.000: // measure 1
0000
0000
0000
0000
,  // measure 2
0000
0000
0000
0000
,  // measure 3
1000
0000
0000
1000
,  // measure 4
0000
0000
0000
0000
,  // measure 5
0001
0000
0000
0000
,  // measure 6
0000
0000
0000
0000
,  // measure 7
0010
0000
0000
0000
,  // measure 8
0000
0000
0000
0000
,  // measure 9
0001
0000
0000
0000
,  // measure 10
0000
0000
0000
0000
,  // measure 11
0100
0000
0000
0000
,  // measure 12
0000
0000
0000
0000
,  // measure 13
0010
0000
0000
0000
,  // measure 14
0100
0000
0000
0000
,  // measure 15
0010
0000
0000
0000
,  // measure 16
1000
0000
0000
0000
,  // measure 17
0001
0000
0000
0000
,  // measure 18
1000
0000
0000
0000
,  // measure 19
1000
0000
0000
0000
,  // measure 20
0000
0001
0000
0001
,  // measure 21
0000
1000
0000
0000
,  // measure 22
0000
0010
0000
0010
,  // measure 23
0000
1000
0000
0000
,  // measure 24
0000
0001
0000
0000
,  // measure 25
0000
1000
0000
0000
,  // measure 26
0000
0001
0000
0000
,  // measure 27
0000
0000
0000
0000
,  // measure 28
0000
1000
0000
0000
,  // measure 29
0000
0010
0000
0100
,  // measure 30
0000
0001
0000
1000
,  // measure 31
0000
0001
0000
0000
,  // measure 32
1001
0000
0000
0000
,  // measure 33
1000
0000
0000
0000
,  // measure 34
0010
0000
0000
0000
,  // measure 35
0100
0000
0000
0000
;

//---------------dance-single - Copied from----------------
#NOTES:
     dance-single:
     Copied from:
     Challenge:
     11:
     0.446,0.457,0.162,0.209,0.238: // measure 1
0000
0000
0000
0000
,  // measure 2
1000
0000
0000
1000
0100
0000
0010
0000
0001
0000
0000
0001
0010
0000
0100
0000
,  // measure 3
0110
0000
0000
0011
0000
0000
0101
0110
,  // measure 4
0000
0000
1000
0010
1000
0000
0100
0010
0001
0000
0100
0010
1000
0000
0100
0010
,  // measure 5
0001
0000
0010
0100
0010
0000
0100
1000
0010
0000
1000
0001
0100
0000
0001
0010
,  // measure 6
0100
1000
0010
0001
0010
1000
0100
0001
,  // measure 7
0100
1000
0010
0100
0001
0100
0010
1000
,  // measure 8
0010
0100
0001
0100
0010
1000
0010
0100
,  // measure 9
0001
0100
0001
0010
0100
2000
0000
3020
,  // measure 10
0000
0030
0000
0000
1100
0100
0110
0010
,  // measure 11
0011
0000
0001
0000
0100
0000
0010
0000
0000
0010
1000
0000
0010
0000
0100
0000
,  // measure 12
0000
0100
0001
0000
0000
0000
0000
0000
0020
0000
0000
0000
0130
0000
1000
0000
,  // measure 13
0010
0001
0010
0100
0001
0100
1000
0100
,  // measure 14
0010
0000
1000
0100
0000
0000
0000
0000
0020
0000
0000
0000
0031
0000
0100
0000
,  // measure 15
0001
1000
0001
0100
0000
0001
0010
0100
,  // measure 16
1000
0010
0100
0001
0000
0000
0000
0000
,  // measure 17
0000
0000
0010
0100
0010
0100
2000
0000
0000
0000
0000
0000
3100
0000
0020
0000
,  // measure 18
0000
0030
0000
0000
0001
1000
0001
0010
,  // measure 19
0000
0000
0011
0000
0110
0000
0000
0000
1100
0000
0000
0000
0000
0000
1000
0100
,  // measure 20
0010
0000
0001
0000
0100
0000
0010
0000
1000
0010
0100
0001
0010
0100
1000
0100
,  // measure 21
0010
0001
0100
0001
0010
0000
0100
2000
0000
0000
0000
0000
0000
0000
3100
0010
,  // measure 22
0001
0100
0010
0000
1000
0000
0010
0000
0100
0000
0001
0010
0100
1000
0100
0010
,  // measure 23
0001
0100
0001
0100
0001
0000
0010
0100
1000
0010
1000
0000
0010
1000
0100
0000
,  // measure 24
0000
0000
0010
0001
0010
0000
0000
0000
0100
1000
0010
0000
0000
0000
0000
0000
,  // measure 25
0100
0001
0100
0000
0010
0000
1000
0000
0000
0000
0100
0010
0002
0000
0000
0000
,  // measure 26
0000
0023
0000
0230
0000
0000
1300
0010
,  // measure 27
0001
0000
0010
0000
0000
0000
0000
0000
0000
0000
1000
0100
0020
0000
0000
0000
,  // measure 28
0000
0032
0000
0023
0000
0000
0130
1000
,  // measure 29
0001
0000
1000
0000
0000
0000
0000
0000
0100
0000
0010
0001
0000
0001
0010
0000
,  // measure 30
0100
1000
1100
0110
,  // measure 31
0011
0001
0010
0100
1000
0100
0010
0000
,  // measure 32
0002
0100
0100
0203
0010
0000
0010
0000
,  // measure 33
0001
0000
0000
0000
0301
0000
0020
0000
0000
0000
0130
0000
1000
0000
0100
0010
,  // measure 34
0001
1000
0001
0010
0100
1000
0001
1000
,  // measure 35
2002
3003
0000
0000
;

//---------------dance-single - Copied from----------------
#NOTES:
     dance-single:
     Copied from:
     Hard:
     8:
     0.331,0.318,0.070,0.186,0.017: // measure 1
0000
0000
0000
0000
,  // measure 2
1000
0000
0100
0010
0001
0000
0010
0100
,  // measure 3
0110
0000
0000
1100
0000
0000
1000
0010
,  // measure 4
0000
0100
0001
0100
0001
0000
0100
0000
,  // measure 5
0010
0000
0000
1000
0000
1000
0100
0010
,  // measure 6
0000
0001
0010
0100
1000
0010
0100
0001
,  // measure 7
0100
0010
1000
0001
0000
0000
0000
0000
,  // measure 8
0000
0000
0000
0000
0100
0010
1000
0010
,  // measure 9
0100
0001
0010
0100
1000
0020
0000
0230
,  // measure 10
0000
0300
0000
0000
1100
0000
0110
0000
,  // measure 11
0001
0100
0010
1000
0000
1000
0010
0100
,  // measure 12
0000
0001
0000
0000
0020
0000
0130
1000
,  // measure 13
0100
0010
0001
0100
0010
1000
0010
0100
,  // measure 14
0001
0000
0000
0100
0000
0000
0000
0000
0020
0000
0000
0000
1030
0000
0100
0000
,  // measure 15
0010
0001
1000
0100
0000
0010
0001
0100
,  // measure 16
0010
1000
0010
1000
0000
0000
0000
0000
,  // measure 17
0000
0010
0100
0002
0000
0000
0103
0020
,  // measure 18
0000
0030
0000
0000
1000
0100
1000
0001
,  // measure 19
0000
0010
0100
0000
1100
0000
0000
1000
,  // measure 20
0010
0100
0001
0010
0100
1000
0100
0001
,  // measure 21
0010
0000
1000
0000
0100
0000
0000
2000
0000
0000
0000
0000
0000
0000
3100
0000
,  // measure 22
0001
0010
0100
1000
0100
0010
0001
0100
,  // measure 23
0010
1000
0010
0100
0001
1000
0100
0100
,  // measure 24
0000
0010
0010
0000
0001
0001
0000
0000
,  // measure 25
0100
0100
0010
1000
0000
0100
0200
0000
,  // measure 26
0000
0320
0000
0032
0000
0000
1003
0100
,  // measure 27
0010
0001
0000
0000
0000
0100
0200
0000
,  // measure 28
0000
0320
0000
2030
0000
0000
3100
0010
,  // measure 29
0001
0000
1000
0000
0000
0000
0000
0000
0010
0000
0000
1000
0000
0000
0010
0000
,  // measure 30
0100
0001
0100
0010
,  // measure 31
1000
0001
0010
0100
1000
0100
0010
0000
,  // measure 32
0001
0100
0010
1000
0010
0000
0000
0000
,  // measure 33
0000
0000
0100
0002
0000
0103
0010
0100
,  // measure 34
0001
0010
0100
1000
0010
1000
0001
1000
,  // measure 35
2002
3003
0000
0000
;
