#TITLE:Grey;
#SUBTITLE:;
#ARTIST:DevonAkins;
#TITLETRANSLIT:;
#SUBTITLETRANSLIT:;
#ARTISTTRANSLIT:;
#CREDIT:;
#BANNER:;
#BACKGROUND:;
#LYRICSPATH:;
#CDTITLE:;
#MUSIC:Grey.ogg;
#OFFSET:0.100;
#SAMPLESTART:66.938;
#SAMPLELENGTH:16.000;
#SELECTABLE:YES;
#BPMS:0.000=60.000,3.000=120.000,67.000=60.000,83.000=120.000,321.000=60.000;
#STOPS:;
#BGCHANGES:;

//---------------dance-single - ----------------
#NOTES:
     dance-single:
     :
     Medium:
     6:
     0.302,0.367,0.035,0.539,0.000:
0000
0000
0000
1001
,
0000
1000
1000
0001
,
0001
0100
0100
0010
,
1000
0001
1000
0010
,
0100
0001
1000
0001
,
0200
0320
2030
3001
,
0200
0320
2030
3001
,
0200
0000
0320
0000
2030
0000
3001
1000
,
0001
1000
0010
0200
,
0301
0000
1000
0001
0100
0000
0020
0000
,
1030
0000
0001
0100
0001
0000
0020
0000
,
0130
0000
1000
0001
0100
0000
0020
0000
,
1030
0000
0002
0000
1003
0000
0010
0100
,
0010
0000
2000
0000
3001
0000
0100
0100
,
0100
0000
0020
0000
1030
0000
0001
0001
,
0001
0000
1000
0000
0001
0000
1000
0001
,
1000
0001
1000
2002
,
0000
0003
0002
0000
0000
0000
3003
0000
,
2000
0002
0003
0002
,
3000
0200
0003
0320
,
0000
0000
0200
0000
0000
0330
2000
0000
,
0000
0000
0000
0200
,
0000
0000
3000
0002
,
0000
0000
0300
0200
,
0003
0000
1000
1000
1300
0000
0002
0000
,
0000
0000
0000
2003
,
0000
0000
0010
0010
3020
0000
2030
0000
,
0000
0000
0000
3001
,
0000
0000
0000
1001
,
0000
0000
0100
1000
0100
0000
0000
0000
,
0000
0100
1000
0000
,
0000
0000
0001
0100
0001
0000
0000
0000
,
0000
0000
1000
0010
1000
0000
0001
0000
,
0100
0000
0010
1000
0001
0000
0100
0000
,
0100
0000
0010
0010
1000
0000
0001
0000
,
0100
0000
0001
0000
0010
0000
0001
1000
,
0001
1000
0001
0200
,
0320
2030
3001
0200
,
0320
2030
3001
0100
,
0100
0010
0010
1000
,
1000
0002
1003
1000
,
0001
0100
1000
0100
,
0001
0000
0010
1000
0010
0000
0001
0000
,
0100
0010
1000
0001
,
0000
1000
0001
2000
,
0000
0000
3020
0000
,
0230
0302
0203
0000
,
0320
2030
3002
0000
,
2003
3020
0230
0000
,
0302
0023
0230
0000
,
2300
3002
0203
0000
,
0320
0000
2030
0000
3002
0000
0000
0003
,
2002
0000
0000
3003
;

//---------------dance-single - ----------------
#NOTES:
     dance-single:
     :
     Easy:
     4:
     0.230,0.298,0.052,0.252,0.000:
0000
0000
0000
0110
,
0000
0000
1000
0000
,
0001
0000
1000
0000
,
0010
0100
0010
0000
,
1000
0001
1000
0000
,
0001
0100
0001
0000
,
1000
0010
1000
0000
,
0001
0000
1000
0001
,
1000
0000
0001
0100
,
0010
1000
0001
1000
,
1000
0010
0100
0001
,
1000
0000
0001
1000
,
0010
0100
0001
1000
,
1000
0001
0100
0010
,
1000
0001
1000
0001
,
0100
0100
1000
0100
,
0001
1000
0001
0002
,
0000
2003
0000
3020
,
0000
0230
0000
0302
,
0000
2003
0000
3020
,
0000
0230
0000
0301
,
0000
1000
0001
1000
,
0000
0010
0010
1000
,
0000
0001
0100
0001
,
0000
1000
1000
0001
,
0000
0100
0100
0010
,
0000
1000
0001
1000
,
0000
0010
0000
2002
,
0000
0000
0000
0000
0000
3003
1001
0000
,
0001
1000
0001
0100
,
0100
0010
0000
1000
,
1000
0001
0100
0010
,
1000
0001
0000
1000
,
1000
0001
0001
0100
,
0100
0010
0000
1000
,
0100
0001
0100
1000
,
0001
0100
0010
2000
,
0000
3002
0000
2003
,
0000
3002
0000
1003
,
1000
1000
0000
0001
,
0001
0001
0000
1000
,
0001
1000
0000
0010
,
0100
0010
0000
1000
,
0001
0100
0100
0010
,
1000
0001
1000
0001
,
1000
0001
1000
0000
,
0020
2030
3002
0003
,
2000
3020
2030
3000
,
0002
0203
0302
0003
,
2002
0000
0000
3003
,
2002
0000
0000
3003
,
0220
0000
0000
0000
,
0000
0000
0000
0330
;

//---------------dance-single - ----------------
#NOTES:
     dance-single:
     :
     Beginner:
     1:
     0.076,0.132,0.017,0.043,0.000:
0000
0000
0000
0000
,
0000
0000
0000
0001
,
0000
0000
0000
1000
,
0000
0000
0000
0100
,
0000
0000
0000
0010
,
0000
0000
0000
0001
,
0000
0000
0000
1000
,
0000
0000
0000
0001
,
0000
0000
0000
0100
,
0000
0000
0000
0010
,
0000
0000
0000
0001
,
0000
0000
0000
1000
,
0000
0000
0000
0100
,
0000
0000
0000
0010
,
0000
0000
0000
0001
,
0000
0000
0000
1000
,
0000
0001
0000
2002
,
0000
0000
3003
0200
,
0000
0000
0300
0020
,
0000
0000
0030
2000
,
0000
0000
3000
0001
,
0000
0000
0000
1000
,
0000
0000
0000
0100
,
0000
0000
0000
0010
,
0000
0000
0000
0001
,
0000
0000
0000
1000
,
0000
0000
0000
0001
,
0000
0000
0000
0100
,
0000
0000
0000
1001
,
0000
0000
0000
0001
,
0000
0000
0000
1000
,
0000
0000
0000
0100
,
0000
0000
0000
0001
,
0000
0000
0000
0100
,
0000
0000
0000
0001
,
0000
0000
0000
1000
,
0000
0000
0000
0001
,
0000
0000
0000
0100
,
0000
0000
0000
0001
,
0000
0000
0000
0100
,
0000
0000
0000
0010
,
0000
0000
0000
1000
,
0000
1000
0000
0001
,
0000
0001
0000
0100
,
0000
0001
0000
0001
,
0000
0000
0000
1000
,
0000
0000
0000
0001
,
0000
0000
0000
0100
,
0000
0000
0000
0001
,
0000
0000
0000
1000
,
0000
0000
0000
0001
;

//---------------dance-single - Copied from----------------
#NOTES:
     dance-single:
     Copied from:
     Challenge:
     13:
     0.563,0.653,0.061,0.374,0.457:
0000
0000
0000
0000
0000
0000
0000
0000
0000
0000
0000
0000
1001
0000
0000
1000
,
0100
0000
0000
0100
0010
0000
0001
0000
1000
0000
0000
0000
0001
0000
0100
0000
,
0002
0000
0000
0000
0203
0000
0000
0000
0310
0000
0000
0010
1000
0000
0000
1000
,
0001
0000
1000
0100
2000
0000
3001
0100
,
0001
1000
1000
0001
0200
0000
0310
1000
,
0001
0000
1000
0000
0001
0000
1000
0100
,
1000
0000
0001
0000
0100
0010
0100
0000
0001
0000
0000
1000
0100
0000
0000
1000
,
0100
0000
0000
0000
0010
0000
0001
0000
1000
0000
0000
0000
0001
0000
0010
0100
,
0010
0000
0000
0000
0001
0000
0000
0000
1000
0000
0000
0000
0001
0000
0000
0001
,
0200
0000
0000
0000
0010
0000
0010
0000
0310
0000
0000
0000
0001
1000
0001
1000
,
0001
0000
0000
0000
1000
0100
1000
0000
0001
0000
0000
0000
1000
0100
1000
0100
,
1000
0000
0000
0000
0001
0100
0010
0000
1000
0000
0000
0000
0001
0100
0001
1000
,
0001
0000
0000
0000
1000
0010
0100
0000
0001
0000
1000
0100
0010
0001
0010
0100
,
1000
0000
0001
0100
0010
1000
0001
0000
1000
0000
0001
0100
0010
1000
0010
0100
,
0001
0000
1000
0100
2000
0000
0000
0000
3001
0000
0100
0010
0100
0000
0001
1000
,
0001
0000
1000
0010
1000
0000
0001
0000
0100
0000
0010
0000
1000
0000
0001
1000
,
0001
0000
1000
0010
0100
0001
2002
0003
,
0000
3020
2030
3002
,
0000
0000
2003
0000
3020
0000
0000
1030
,
0010
0100
0002
0000
2003
0000
0000
3000
,
0002
0000
0000
0000
2003
0000
0000
0000
3100
0000
0000
0000
1001
0000
0000
1000
,
0100
0000
0000
0100
0010
0000
0001
0000
1000
0000
0000
0000
0001
0000
0100
0000
,
0001
1000
1000
0001
0200
0000
0310
1000
,
0100
0000
0001
0000
0100
0000
1000
0000
0001
0100
0000
0000
0001
0000
0100
0000
,
0010
0000
1000
0000
0002
0000
0000
0000
1003
0000
0000
0000
0001
0100
0001
0100
,
0001
0000
1000
0100
1000
0001
1000
0000
0001
0000
1000
0100
0010
0100
1000
0001
,
0100
0000
0010
1000
0020
0000
0000
0000
1030
0000
0001
0100
0001
0100
0001
1000
,
0010
0000
0100
0001
0100
0001
0100
0000
0001
0000
1000
0100
2000
0000
0000
0000
,
0000
0000
0000
0000
0000
0000
0000
0000
3000
0000
0000
0000
1000
0001
1000
0001
,
1000
0000
0001
0100
0001
0100
0001
0000
0100
0000
0010
1000
0001
0100
0001
0100
,
0001
0000
1000
0010
1000
0010
1000
0000
0001
0000
1000
0100
0010
0100
1000
0001
,
0100
0000
0010
1000
0001
0100
0001
0000
1000
0001
0000
0000
1000
0010
0100
0001
,
0100
0000
0010
1000
0010
1000
0010
0000
1000
0000
0001
1000
0100
0010
0001
0010
,
0100
0000
1000
0100
0010
0001
0100
0000
0010
0000
1000
0001
0100
0010
1000
0100
,
0010
0000
0001
1000
0002
0000
0103
0000
0001
0000
1000
0100
1000
0100
1000
0001
,
1000
0000
0001
0000
0100
0000
0001
0000
1000
0000
0000
0000
0001
0000
0000
0000
1000
0000
0100
0000
1000
0000
0000
0000
1001
0000
0000
0000
0001
1000
0001
1000
,
0001
0000
0000
0000
1000
0100
1000
0100
0010
0001
0010
0001
1000
0000
0010
0100
,
0010
0000
1000
0000
0001
0000
0100
0000
0101
0000
0000
0000
0010
1000
0010
0100
,
0001
0000
1000
0010
1000
0000
0001
0000
1001
0000
0000
0000
1000
0100
1000
0100
,
1000
0000
0001
0100
0001
0000
1000
0000
0001
0000
0000
0000
1000
0100
1000
0100
,
1000
0000
0001
0100
0020
0000
0000
0000
1030
0000
0001
0100
0010
1000
0100
1000
,
0001
0000
0100
0010
1000
0100
1000
0000
0001
0000
0000
0000
0100
0000
0100
0000
,
0010
1000
0100
0010
0001
0000
1000
0010
,
0001
0000
0000
0000
0001
0000
0010
0000
1000
0000
0000
0000
0100
0000
0010
0001
,
1000
0000
0001
0100
0001
1000
0001
0000
,
0200
0320
2030
3000
,
0002
2003
3020
0030
,
0200
0302
0023
0030
,
0200
2300
3002
0003
,
2000
3020
0230
0300
,
0002
2003
3020
0030
,
2002
0000
0000
3003
;

//---------------dance-single - Copied from----------------
#NOTES:
     dance-single:
     Copied from:
     Hard:
     10:
     0.414,0.388,0.035,0.287,0.043:
0000
0000
0000
0000
0000
0000
1000
0001
,
0001
0000
1000
0010
0100
0000
0001
0010
,
0100
0000
1000
1000
0001
0000
0100
0010
,
1000
0000
0001
0001
1000
0000
0010
0100
,
0010
0000
1000
0001
1000
0000
0001
0000
,
0200
0320
2030
3000
,
0002
2003
3020
0130
,
0001
0000
0000
0000
1000
0000
0000
0000
0010
0000
0000
0000
0100
0000
0001
1000
,
0001
1000
0001
1000
,
0001
0000
0100
0010
1000
0000
0001
0010
,
0001
1000
0010
0100
0001
0000
1000
0100
,
1000
0100
0010
0001
0100
0000
0010
1000
,
0010
0100
0001
0001
1000
0000
0010
0100
,
0010
1000
0100
0010
0001
0000
1000
0100
,
0001
0100
1000
1000
0001
0000
1000
0100
,
1000
0000
0001
0000
0100
0000
0100
0000
0010
0000
0010
0000
1000
0000
0001
1000
,
0001
0000
1000
0010
1000
0010
2000
0000
,
0000
0001
3002
0000
,
0000
0000
0203
0000
0320
0000
0000
1000
,
1030
0001
0020
0000
0230
0000
0000
0000
,
0302
2000
0003
3001
,
0100
0000
0010
1000
0100
0000
0010
0000
,
0100
0000
1000
0001
0100
0000
0010
0000
,
1000
0000
0001
0100
0010
0000
1000
0000
,
0100
0000
0010
0001
1000
0000
0001
0100
,
1000
0100
0001
1000
0001
0000
1000
0100
,
0001
0100
1000
0001
1000
0000
0001
0100
,
0010
1000
0100
0010
0100
0000
2002
0000
,
0000
0000
0000
0000
3003
0000
1000
1000
,
0001
0100
0010
1000
0100
0000
0010
0001
,
0100
0000
0010
0000
1000
0001
1000
0000
0001
0000
0000
0000
1000
0000
0010
0000
,
0100
0000
0001
0000
1000
0000
0100
0000
0010
0001
0000
0000
1000
0000
0010
0000
,
1000
0000
0001
0000
1000
0100
0010
0000
0001
0000
0000
0000
1000
0000
1000
0000
,
0010
0000
0100
0000
0001
1000
0001
0000
1000
0000
0000
0000
0001
0000
0100
0000
,
0010
1000
0100
0100
0001
0000
0100
1000
,
0001
0000
0001
0000
1000
0000
0100
0000
0010
0000
0001
0000
1000
0000
0001
1000
,
0001
0000
1000
0100
0010
0010
0001
1000
,
0100
0000
0010
0000
0001
0010
0001
0000
0010
0000
0001
0000
1000
0000
0010
0000
,
1000
0000
0100
0000
1000
0100
1000
0000
0001
0000
0000
0000
1000
0000
0100
0000
,
0001
0100
1000
0001
0100
0010
1000
0100
,
0010
0001
1000
0000
1001
0000
0001
0100
,
0010
1000
0100
0100
0010
0001
1000
0100
,
0001
0100
1000
0000
1001
0000
0001
0100
,
0100
0000
1000
0000
0100
0000
0100
0000
0001
0000
0100
0000
0010
0000
1000
0001
,
1000
0000
0001
0100
0001
1000
0001
0000
,
1000
0000
0001
0000
0100
0010
1000
0000
,
0002
0203
2300
3000
,
0200
0302
2003
3000
,
0002
0203
2300
3000
,
0002
0023
2030
3000
,
0002
0203
0320
0030
,
0220
0000
0000
0000
,
0000
0000
0330
0000
;
