#TITLE:Future Destination;
#SUBTITLE:;
#ARTIST:Renard;
#TITLETRANSLIT:;
#SUBTITLETRANSLIT:;
#ARTISTTRANSLIT:;
#CREDIT:Braeden47;
#BANNER:Future Destination-ban.PNG;
#BACKGROUND:Future Destination-bg.png;
#LYRICSPATH:;
#CDTITLE:;
#MUSIC:Future Destination.ogg;
#OFFSET:0.005;
#SAMPLESTART:41.912;
#SAMPLELENGTH:12.000;
#SELECTABLE:YES;
#DISPLAYBPM:200.000;
#BPMS:0.000=200.000;
#STOPS:11.000=1.200
,15.000=0.900
,20.000=1.200
,34.000=0.600
,270.000=0.900
,275.000=1.200
,279.000=0.900
;
#BGCHANGES:;

//---------------dance-single - ----------------
#NOTES:
     dance-single:
     :
     Challenge:
     17:
     0.899,0.971,0.346,0.471,0.606:
0000
0000
0000
0000
,
0000
0000
0000
0000
0000
0000
0000
0000
0000
0000
0000
0000
0000
0000
1000
0100
,
0010
0001
1000
0010
1000
0000
010M
0000
,
2000
0000
0000
3020
0000
0000
013M
0000
,
0000
0000
0001
0010
0100
0000
1000
0000
0010
0000
0100
0000
0001
0000
0000
0000
,
1M00
0000
0002
0000
0000
0023
0000
0000
,
0031
0000
0000
0000
0000
0000
0000
0000
0000
0000
1000
0100
1000
0000
0010
0000
,
0100
0000
0001
0100
0010
0000
1000
0000
0010
0000
0100
0000
0001
0000
0010
0000
,
0100
0000
0100
1000
0001
0000
0000
0000
010M
0000
0010
1000
0020
0000
0000
0000
,
0000
0230
0000
0000
0302
0000
0000
0000
,
0003
0000
0100
0010
1000
0000
0010
0000
0100
0000
0001
1000
0010
0000
0100
0000
,
0001
0100
0001
0100
0020
0000
0000
0000
,
0000
0000
0000
0000
0000
0030
0110
0020
,
0000
1000
2030
0000
0010
3020
0000
0100
,
0230
0000
0301
0100
0010
1000
0100
0200
,
0000
0010
0320
0000
0001
0032
0000
0100
,
0203
0000
0310
1000
0010
1000
1010
0020
,
0000
0100
0230
0000
0001
0302
0000
0100
,
0203
0000
0310
1000
0010
1000
1010
2000
,
0000
0100
3200
0000
0010
0320
0000
0001
,
0032
0000
1003
0010
0100
0001
0101
0200
,
0000
0010
0320
0000
1000
2030
0000
0100
,
3200
0000
0010
0310
0001
0010
0011
0020
,
0000
0100
0230
0000
1000
2300
0000
0100
,
3200
0000
0010
0310
0001
0001
0011
0000
,
0010
0110
0100
1100
,
1000
1010
0010
0110
,
0100
0000
0101
0000
0001
0000
0010
0100
,
1000
0000
0010
0000
1000
0010
0100
0001
0020
0000
0000
0000
0031
0000
0000
0000
,
1000
0000
0100
0000
0000
0000
0010
0001
0010
0000
0100
0000
1000
0000
0010
0000
,
0000
0000
0100
0001
0100
0000
0010
0000
1000
0000
0001
0000
1000
0000
0000
0100
,
0000
0000
0010
0000
0001
0000
0010
0000
0100
0000
1000
0000
0001
0100
0010
1000
,
0001
0100
0001
1000
0010
1000
0001
1000
0010
1000
0001
0100
0010
0000
1000
0000
,
0001
1000
0010
0000
0100
0000
1000
0010
0100
0000
0001
0000
0100
0000
0000
0000
,
0010
0000
1000
0000
0010
0000
0100
0000
0001
0000
0100
0000
0010
0000
1000
0010
,
0100
0000
0001
0000
0100
0000
0010
0000
1000
0000
0100
0000
0010
0001
1000
0010
,
1000
0000
0000
0010
0000
0000
0100
0000
0000
0001
0000
0000
0100
0000
0000
0010
0000
0000
1000
0000
0000
0001
0000
0000
0100
0000
0000
0010
0000
0000
1000
0000
0000
0100
0000
0000
0010
0000
0000
0000
0001
0000
0000
0000
0010
0000
0000
0000
,
0001
0000
0010
0000
0100
0000
1000
0000
0000
0000
0010
0000
0000
0000
0100
0000
0000
0000
0000
0000
0000
0001
0000
0000
,
0000
0000
0010
0100
1000
0000
0001
0000
0200
0000
0000
0000
0320
0000
0000
0000
,
0000
0000
1030
0100
0010
0000
0001
0000
0100
0000
0101
0000
0000
0000
1010
0000
,
0000
0000
1000
0100
0010
0000
0001
0000
0011
0000
0000
0000
0100
0000
0000
0000
,
0000
0000
1000
0010
0100
0000
0001
0000
0100
0000
0020
0000
0000
0000
2030
0000
,
0000
0000
3001
0100
0010
0000
1000
0000
0010
0000
0000
0000
0100
0000
0000
0000
,
0000
0000
0001
0100
0010
0000
1000
0000
0010
0000
0100
0000
0000
0000
0100
0000
,
0000
0000
0001
0010
0100
0000
1000
0000
0001
0000
0000
0000
1000
0000
0000
0000
,
1100
0000
0100
0010
0110
0010
0000
0001
,
0011
0000
0001
0010
0011
0000
0001
0000
,
0011
0000
0001
1000
1001
1000
0000
0010
,
1010
0000
0010
1000
0100
0000
0020
0000
,
0032
0000
0103
0010
1000
0020
0000
0130
,
0010
0000
1000
0100
0010
0000
0010
0001
0010
0000
0000
0000
0011
0000
0001
0010
,
0000
0010
0100
0000
0100
1000
0000
1000
0001
0100
0010
1000
0010
0000
0100
0001
,
0000
0001
0100
0000
0100
0010
0000
0010
1000
0000
0001
0100
0010
1000
0010
1000
,
0000
0001
0100
0000
0100
0010
0000
0010
1000
0010
0100
0001
1000
0000
1000
0010
,
0000
0010
0100
0000
0001
0010
0001
1000
0001
0100
0010
1000
0001
0000
0001
0100
,
0000
0100
0010
0000
0010
1000
0000
1000
0100
0010
0100
1000
0100
0000
0010
0001
,
0000
0001
0100
0000
0100
0010
0000
0010
1000
0000
1000
0100
0010
0000
0001
0010
,
0000
0010
0100
0000
0100
0010
0000
0010
0001
0100
0010
1000
0001
0000
1000
0010
,
0000
0010
1000
0000
0100
0010
0001
0010
0100
1000
0100
0010
0100
0000
0010
0000
,
0001
0000
1000
0000
1100
0000
0000
0110
0000
0000
0011
0000
0001
0000
0010
0100
,
0000
0010
0001
0000
0100
0010
0000
1000
0100
0000
0010
0001
1000
0000
0010
0000
,
0100
0000
0001
0000
0011
0000
0000
0110
0000
0000
1100
0000
0100
0000
0010
0001
,
0000
0001
0100
0000
0010
1000
0010
0100
0001
1000
0010
0100
0010
0000
1000
0000
,
0001
0000
1000
0000
1001
0000
0000
0101
0000
0000
0110
0000
0010
0000
1000
0100
,
0000
0100
0010
0000
0001
0100
0000
0100
0010
0000
1000
0010
1000
0000
0100
0000
,
0010
0000
0001
0000
0011
0000
0000
0110
0000
0000
1100
0000
0010
0000
0001
0100
,
0000
0100
0010
0000
1000
0100
0010
0001
0010
0100
1000
0100
2000
0000
0000
0000
,
0000
0000
3002
0000
0000
0000
0000
0000
1M03
0000
0000
0000
0000
0000
0100
0010
,
0001
0100
0010
1000
0020
0000
013M
0000
,
0020
0000
0000
2030
0000
0000
30M1
0000
,
0000
0000
0100
0010
1000
0000
0010
0000
0100
0000
0001
0000
2000
0000
0000
0000
,
3020
0000
0000
0000
,
0000
0030
1M1M
0M1M
1M0M
0M1M
0000
0000
,
0100
0000
0001
0000
MM10
0000
MM00
0000
MM00
0000
0M01
0010
0001
0000
1000
0000
,
0010
0000
M0M0
M0M0
M1M0
0001
0100
0000
,
0000
0000
0010
1000
001M
0000
100M
0000
010M
0000
100M
0100
100M
0000
0010
0000
,
0100
0001
01M0
00M1
10M0
00M1
0000
0000
,
0100
0000
0010
0000
1M0M
0000
000M
0000
0000
0000
0100
0010
0001
0000
1000
0000
,
0010
0100
M0M1
0100
0010
1000
0001
0000
,
0000
0000
001M
0100
1000
0000
0001
0010
,
0001
1000
2002
0000
0000
0000
3003
0000
;

//---------------dance-single - ----------------
#NOTES:
     dance-single:
     :
     Hard:
     15:
     0.790,0.699,0.038,0.616,0.274: // measure 1
0000
0000
0000
0000
,  // measure 2
0000
0000
0000
0000
0000
0000
0000
0000
0000
0000
0000
0000
0000
0000
1000
0100
,  // measure 3
1000
0001
1000
0010
1000
0000
010M
0000
,  // measure 4
2000
0000
0000
3020
0000
0000
013M
0000
,  // measure 5
0000
0000
0001
0010
0100
0000
1000
0000
0010
0000
1000
0000
0001
0000
0000
0000
,  // measure 6
1M00
0000
0002
0000
0000
0023
0000
0000
,  // measure 7
0031
0000
0000
0000
0000
0000
0000
0000
0000
0000
1000
0100
1000
0000
0010
0000
,  // measure 8
0100
0000
0001
0010
0001
0000
1000
0000
0010
0000
0100
0000
0001
0000
0010
0000
,  // measure 9
0100
0000
1000
0100
0010
0000
0000
0000
001M
0000
0000
0000
0200
0000
0000
0000
,  // measure 10
0000
2300
0000
0000
3002
0000
0000
0000
,  // measure 11
0003
0000
0010
0100
1000
0000
0100
0000
0010
0000
0001
0010
0100
0000
1000
0000
,  // measure 12
0001
0100
0001
0100
0020
0000
0000
0000
,  // measure 13
0000
0000
0000
0000
0000
0030
0110
0020
,  // measure 14
0000
1030
0200
0000
0310
0002
0000
0103
,  // measure 15
0020
0000
1030
0100
0010
0001
0100
0002
,  // measure 16
0000
1003
0020
0000
0130
0002
0000
0013
,  // measure 17
0200
0000
0310
1000
0010
1000
1010
2000
,  // measure 18
0000
3010
2000
0000
3001
0020
0000
0130
,  // measure 19
2000
0000
3010
1000
0001
1000
0010
2000
,  // measure 20
0000
3100
0020
0000
0031
0020
0000
0130
,  // measure 21
2000
0000
3010
0100
0001
0100
0010
2000
,  // measure 22
0000
3010
0200
0000
0301
2000
0000
3100
,  // measure 23
0020
0000
0031
0100
0010
1000
0100
0020
,  // measure 24
0000
0031
0200
0000
0310
2000
0000
3010
,  // measure 25
0200
0000
0301
0010
0100
1000
0010
0100
,  // measure 26
0000
0001
0010
0000
0010
0100
0000
0100
,  // measure 27
1000
0000
0010
0100
0001
0100
0001
1000
,  // measure 28
0000
1000
0100
0000
0100
0010
0000
0010
,  // measure 29
0001
0000
0010
0000
0001
1000
0001
0100
0002
0000
0000
0000
1003
0000
0000
0000
,  // measure 30
1000
0000
0100
0000
0000
0000
0010
0001
0010
0000
0100
0000
1000
0000
0010
0000
,  // measure 31
0000
0000
0100
0001
0100
0000
0010
0000
1000
0000
0001
0000
1000
0000
0000
0100
,  // measure 32
0000
0010
0001
0010
0100
1000
0001
0010
,  // measure 33
1000
0010
0001
0100
1000
0100
0001
1000
,  // measure 34
0001
0010
0100
0000
1000
0000
0100
0010
0001
0000
0100
0000
0010
0000
0000
0000
,  // measure 35
1000
0000
0010
0000
0100
0000
0001
0000
0100
0000
0010
0000
1000
0000
0010
0100
,  // measure 36
0001
0100
0010
1000
0100
0010
0001
0100
,  // measure 37
1000
0100
0001
0010
1000
0010
0001
0000
,  // measure 38
0000
0000
0010
0100
0010
0000
0100
0000
1000
0000
0100
0000
0000
0000
0010
0000
,  // measure 39
0000
0000
0001
0100
0001
0000
0010
0000
0200
0000
0000
0000
2300
0000
0000
0000
,  // measure 40
0000
0000
3100
0010
0001
0000
0010
0000
0100
0000
2000
0000
0000
0000
3020
0000
,  // measure 41
0000
0000
1030
0001
1000
0000
0100
0000
0020
0000
0000
0000
0032
0000
0000
0000
,  // measure 42
0000
0000
1003
0100
1000
0000
0001
0000
0100
0000
0020
0000
0000
0000
2030
0000
,  // measure 43
0000
0000
3001
0100
0010
0000
1000
0000
2000
0000
0000
0000
3020
0000
0000
0000
,  // measure 44
0000
0000
0031
0010
0100
0000
1000
0000
0001
0000
0002
0000
0000
0000
0203
0000
,  // measure 45
0000
0000
0310
1000
0010
0000
1000
0000
0001
0000
0000
0000
1000
0000
0000
0000
,  // measure 46
0200
0000
0310
0001
2000
3010
0000
0100
,  // measure 47
0002
0000
0013
0100
0020
0000
0130
0000
,  // measure 48
2000
0000
3001
1000
0020
0130
0000
0001
,  // measure 49
0200
0000
0310
1000
0100
0000
0020
0000
,  // measure 50
0032
0000
0103
0010
1000
0020
0000
0130
,  // measure 51
0010
0000
1000
0100
1000
0000
0001
0010
0001
0000
0000
0000
1000
0000
0100
0010
,  // measure 52
0000
0000
0001
0000
0010
0100
0000
0000
1000
0000
0010
0000
0100
0000
0001
0010
,  // measure 53
0000
0000
0100
0000
1000
0100
0000
0000
0010
0000
0001
0100
0001
0000
0010
0100
,  // measure 54
0000
0000
1000
0000
0100
0010
0000
0000
0001
0000
0100
0000
0010
0000
1000
0010
,  // measure 55
0000
0000
0100
0000
0001
0000
0100
0000
0001
0000
0100
0000
0010
0000
1000
0100
,  // measure 56
0000
0000
0010
0000
0001
0010
0000
0000
0100
0000
0100
0000
0010
0000
0001
0100
,  // measure 57
0000
0000
0010
0000
1000
0100
0000
0000
1000
0000
0100
0010
0001
0000
0001
0010
,  // measure 58
0000
0000
0100
0000
1000
0100
0000
0000
1000
0000
0010
0000
0100
0000
0001
0010
,  // measure 59
0000
0100
1000
0001
0100
0010
1000
0010
,  // measure 60
0100
0000
0001
0000
1000
0000
0000
0100
0000
0000
0010
0000
0001
0000
0010
0100
,  // measure 61
0000
0000
1000
0000
0100
0010
0000
0000
0001
0000
0100
0000
0010
0000
1000
0000
,  // measure 62
0100
0000
0010
0000
0001
0000
0000
0100
0000
0000
0010
0000
1000
0000
0100
0010
,  // measure 63
0000
0001
0100
0010
1000
0010
0100
0001
,  // measure 64
0010
0000
0100
0000
1000
0000
0000
0100
0000
0000
0010
0000
0001
0000
1000
0100
,  // measure 65
0000
0000
0010
0000
0001
0100
0000
0000
0010
0000
1000
0000
0010
0000
0100
0000
,  // measure 66
0001
0000
0010
0000
0001
0000
0000
0010
0000
0000
0010
0000
0100
0000
1000
0100
,  // measure 67
0000
0010
0001
0010
0100
1000
0020
0000
,  // measure 68
0000
0000
2030
0000
0000
0000
0000
0000
3M10
0000
0000
0000
0000
0000
0001
0100
,  // measure 69
0010
1000
0010
1000
0020
0000
013M
0000
,  // measure 70
0020
0000
0000
2030
0000
0000
30M1
0000
,  // measure 71
0000
0000
0100
0010
1000
0000
0010
0000
0100
0000
0001
0000
2000
0000
0000
0000
,  // measure 72
3020
0000
0000
0000
,  // measure 73
0000
0030
1010
0010
1000
0010
0000
0000
,  // measure 74
0100
0000
0001
0000
0010
0000
0000
0000
0000
0000
0001
0010
0001
0000
1000
0000
,  // measure 75
0010
0000
0000
0000
0100
0001
0100
0000
,  // measure 76
0000
0000
0010
1000
0010
0000
1000
0000
0100
0000
1000
0100
1000
0000
0010
0000
,  // measure 77
0100
0001
0100
0001
1000
0001
0000
0000
,  // measure 78
0100
0000
0010
0000
1000
0000
0000
0000
0000
0000
0100
0010
0001
0000
1000
0000
,  // measure 79
0010
0100
0001
0100
0010
1000
0001
0000
,  // measure 80
0000
0000
0010
0100
1000
0000
0001
0010
,  // measure 81
0001
1000
2002
0000
0000
0000
3003
0000
;

//---------------dance-single - ----------------
#NOTES:
     dance-single:
     :
     Medium:
     12:
     0.638,0.621,0.250,0.279,0.024: // measure 1
0000
0000
0000
0000
,  // measure 2
0000
0000
0000
0000
0000
0000
0000
1000
,  // measure 3
0100
0000
0010
0001
0010
0000
0011
0000
,  // measure 4
1000
0000
0000
0010
0000
0000
0011
0000
,  // measure 5
0000
0001
0010
0000
0100
1000
0001
0000
,  // measure 6
0011
0000
0001
0000
0000
0010
0000
0000
,  // measure 7
0001
0000
0000
0000
0000
1000
0100
0010
,  // measure 8
0001
0010
0001
0100
0001
0100
0001
0010
,  // measure 9
0100
1000
0001
0000
1100
0000
0100
0000
,  // measure 10
0000
1000
0000
0000
0001
0000
0000
0000
,  // measure 11
0000
0100
1000
0100
0010
0001
0010
0100
,  // measure 12
1000
0100
0010
0001
0020
0000
0000
0000
,  // measure 13
0000
0000
0000
0000
0000
0030
0100
1000
,  // measure 14
0000
1000
0100
0000
0010
0001
0000
0100
,  // measure 15
0010
0000
1000
0100
0010
0001
0100
0001
,  // measure 16
0000
1000
0010
0000
0100
0002
0000
0013
,  // measure 17
0100
0000
1000
0010
1000
0010
0100
0001
,  // measure 18
0000
0100
0010
0000
0010
1000
0000
0100
,  // measure 19
1000
0000
0010
1000
0001
1000
0010
1000
,  // measure 20
0000
0100
0010
0000
0001
0010
0000
0100
,  // measure 21
1000
0000
0010
0000
0100
0000
0010
1000
,  // measure 22
0000
0010
0100
0000
0001
1000
0000
0100
,  // measure 23
0010
0000
0001
0000
0010
0000
0100
0010
,  // measure 24
0000
0001
0100
0000
0010
1000
0000
0010
,  // measure 25
0100
0000
0001
0000
0100
0000
0010
1000
,  // measure 26
0000
0001
0010
0000
0010
0100
0000
0100
,  // measure 27
1000
0000
0010
0000
1000
0000
0001
1000
,  // measure 28
0000
0100
0010
0000
0010
0001
0000
0010
,  // measure 29
0001
0010
0001
1000
0002
0000
1003
0000
,  // measure 30
0100
0010
0000
0001
0100
0010
1000
0100
,  // measure 31
0000
0000
1000
0000
0010
0000
0000
0000
0010
0000
0100
0000
0001
0000
0000
0100
,  // measure 32
0000
0010
1000
0010
0100
0001
0100
0000
,  // measure 33
0001
0000
0010
0000
0100
0000
1000
0100
,  // measure 34
0010
0001
0100
0010
1000
0010
0100
0000
,  // measure 35
0001
0000
0100
0000
0010
0000
0100
0001
,  // measure 36
1000
0000
0010
1000
0001
0000
0001
0000
,  // measure 37
0100
0010
1000
1000
,  // measure 38
0000
0010
1000
0010
0100
0001
0000
0010
,  // measure 39
0000
0100
1000
0010
0200
0000
0302
0000
,  // measure 40
0000
0103
0001
0010
0100
2000
0000
3020
,  // measure 41
0000
1030
0100
0010
0002
0000
0203
0000
,  // measure 42
0000
0310
1000
0001
0100
0020
0000
2030
,  // measure 43
0000
3010
0100
0010
2000
0000
3200
0000
,  // measure 44
0000
0310
0001
0100
0010
2000
0000
3200
,  // measure 45
0000
0310
0001
0010
0100
0000
1000
0000
,  // measure 46
0110
0000
1000
0010
0100
0001
0000
0001
,  // measure 47
0011
0000
0100
1000
1100
0000
0010
0000
,  // measure 48
0011
0000
0001
0010
0100
1000
0000
0001
,  // measure 49
0101
0000
0010
1000
0100
0000
0020
0000
,  // measure 50
0032
0000
0103
0010
1000
0020
0000
0130
,  // measure 51
0010
1000
0100
0010
,  // measure 52
0011
0001
1001
1000
,  // measure 53
1010
0000
0010
0000
0100
0010
0100
0001
,  // measure 54
0010
0001
1001
1000
,  // measure 55
1100
0000
1000
0100
0010
0100
1000
0000
,  // measure 56
0020
0130
0002
0013
,  // measure 57
0200
0000
1300
0000
0010
0100
0001
0100
,  // measure 58
0020
1030
0020
0130
,  // measure 59
0002
0000
0013
0100
1000
0010
0100
0001
,  // measure 60
0100
0000
0010
0000
1000
0000
0000
0100
0000
0000
0010
0000
0001
0000
0000
0000
,  // measure 61
0011
0000
0010
0000
0011
0000
0001
1000
,  // measure 62
0100
0000
0010
0000
0001
0000
0000
0100
0000
0000
0010
0000
1000
0000
0000
0000
,  // measure 63
1100
0000
0100
0000
1100
0000
0100
1000
,  // measure 64
0010
0000
0100
0000
0001
0000
0000
0100
0000
0000
0001
0000
1000
0000
0000
0000
,  // measure 65
1100
0000
0100
0000
0110
0000
1000
0001
,  // measure 66
1000
0000
0100
0000
0010
0000
0000
0001
0000
0000
0100
0000
0001
0000
0000
0000
,  // measure 67
0011
0010
0110
2000
,  // measure 68
0000
3010
0000
0000
1010
0000
0000
0001
,  // measure 69
0010
0100
1000
0100
0010
0000
1100
0000
,  // measure 70
0010
0000
0000
1000
0000
0000
1100
0000
,  // measure 71
0000
0100
1000
0010
0100
0001
2000
0000
,  // measure 72
3020
0000
0000
0000
,  // measure 73
0000
0030
0100
0001
0100
0001
0000
0000
,  // measure 74
0010
0001
0010
0000
0000
0100
1000
0010
,  // measure 75
0100
0000
0000
0000
0001
0100
0010
0000
,  // measure 76
0000
0010
1000
0010
0100
0001
1000
0010
,  // measure 77
0100
0001
0100
0001
1000
0001
0000
0000
,  // measure 78
0100
0010
1000
0000
0000
0010
1000
0001
,  // measure 79
0100
0010
1000
0010
1000
0001
0010
0000
,  // measure 80
0000
0000
0100
0010
0001
0000
0010
0100
,  // measure 81
1000
0001
2002
0000
0000
0000
3003
0000
;

//---------------dance-single - ----------------
#NOTES:
     dance-single:
     :
     Easy:
     7:
     0.405,0.466,0.231,0.404,0.000: // measure 1
0000
0000
0000
0000
,  // measure 2
0000
0000
0000
0000
,  // measure 3
1000
0100
0010
0010
,  // measure 4
0001
0000
0000
0100
0000
0000
0010
0000
,  // measure 5
0000
1000
0100
0010
,  // measure 6
0001
0000
0001
0000
0000
0010
0000
0000
,  // measure 7
0001
0000
0000
0010
,  // measure 8
0100
1000
0010
0100
,  // measure 9
0001
0010
0001
0100
,  // measure 10
0000
0010
0000
0000
1000
0000
0000
0000
,  // measure 11
0000
1000
0010
0010
,  // measure 12
1000
0010
0020
0000
,  // measure 13
0000
0000
0000
0000
0000
0030
1000
0000
,  // measure 14
0000
0010
0000
0000
0100
0000
0000
0001
,  // measure 15
0000
1000
0010
0100
,  // measure 16
0000
0001
0000
0000
0100
0000
0000
0010
,  // measure 17
0000
1000
0001
1001
,  // measure 18
0000
0001
0000
0000
0010
0000
0000
0100
,  // measure 19
0000
1000
0100
1100
,  // measure 20
0000
0010
0000
0000
0001
0000
0000
0100
,  // measure 21
0000
0010
1000
1010
,  // measure 22
0000
0100
0000
0000
0001
0000
0000
0010
,  // measure 23
0000
0001
0100
0101
,  // measure 24
0000
0010
0000
0000
1000
0000
0000
0100
,  // measure 25
0000
0010
0001
0011
,  // measure 26
0000
0001
0000
0000
1000
0000
0000
0010
,  // measure 27
0000
1000
0010
0100
,  // measure 28
0001
0100
0010
0100
,  // measure 29
0001
1000
0002
2003
,  // measure 30
0000
0000
0000
3020
,  // measure 31
0000
0000
0000
0230
,  // measure 32
0000
0302
0000
0103
,  // measure 33
0010
1000
0010
2000
,  // measure 34
0000
3020
0000
0230
,  // measure 35
0000
0302
0000
0203
,  // measure 36
0000
0302
0000
0013
,  // measure 37
0100
1000
0010
0200
,  // measure 38
0000
0302
0000
2000
,  // measure 39
3003
2001
0000
0020
,  // measure 40
3030
2010
0000
0002
,  // measure 41
3003
0201
0000
0020
,  // measure 42
0330
2000
0000
0020
,  // measure 43
3030
2010
0000
0002
,  // measure 44
3003
2001
0000
0020
,  // measure 45
3030
0100
0001
1000
,  // measure 46
0100
0000
0010
0000
0000
0011
0000
0000
,  // measure 47
0100
1000
0100
0010
,  // measure 48
0011
0000
0002
0000
0000
0103
0000
0000
,  // measure 49
0010
1000
0100
0020
,  // measure 50
0032
0000
0103
0000
0000
0020
0000
0000
,  // measure 51
1030
1000
0100
0000
,  // measure 52
0011
0000
1001
0000
,  // measure 53
1010
0010
0100
0100
,  // measure 54
0001
1000
1001
0000
,  // measure 55
1100
1000
0001
1000
,  // measure 56
0020
0130
0002
0013
,  // measure 57
0200
1300
0010
0100
,  // measure 58
0020
1030
0020
0130
,  // measure 59
0002
0013
0100
1000
,  // measure 60
0010
0000
1000
0000
0000
0100
0000
0000
,  // measure 61
0011
0000
0011
0001
,  // measure 62
0100
0000
0001
0000
0000
0010
0000
0000
,  // measure 63
1100
0000
1100
0100
,  // measure 64
0010
0000
0001
0000
0000
1000
0000
0000
,  // measure 65
0101
0000
0110
0010
,  // measure 66
1000
0000
0010
0000
0000
0100
0000
0000
,  // measure 67
0001
0000
1000
2000
,  // measure 68
0000
3010
0000
0000
0010
0000
0000
0000
,  // measure 69
0100
0001
0100
0010
,  // measure 70
1000
0000
0000
0010
0000
0000
0100
0000
,  // measure 71
0000
0001
0100
0020
,  // measure 72
2030
0000
0000
0000
,  // measure 73
3000
0000
0100
0000
0000
1000
0000
0000
,  // measure 74
0010
0010
0000
0100
,  // measure 75
0001
0000
0010
0100
,  // measure 76
0000
1000
0010
0100
,  // measure 77
0001
0100
0010
0000
,  // measure 78
1000
0010
0000
0100
,  // measure 79
0001
0100
0001
1000
,  // measure 80
0000
0010
1000
0001
,  // measure 81
1000
2002
0000
3003
;

//---------------dance-single - ----------------
#NOTES:
     dance-single:
     :
     Beginner:
     3:
     0.173,0.232,0.106,0.077,0.000: // measure 1
0000
0000
0000
0000
,  // measure 2
0000
0000
0000
0000
,  // measure 3
0001
0000
0001
0000
,  // measure 4
1000
0000
0000
0010
,  // measure 5
0100
0000
0000
0000
,  // measure 6
0001
0010
0000
0000
,  // measure 7
0010
0000
0000
0000
,  // measure 8
0000
0100
0000
0100
,  // measure 9
0000
0100
0000
1000
,  // measure 10
0000
0000
0010
0000
,  // measure 11
0000
1000
0000
0010
,  // measure 12
0000
0100
0000
0000
,  // measure 13
0000
0000
0000
0110
,  // measure 14
0000
0000
0000
0000
,  // measure 15
0000
0001
0000
1000
,  // measure 16
0000
0000
0000
0000
,  // measure 17
0000
0100
0000
0010
,  // measure 18
0000
0000
0000
0000
,  // measure 19
0000
0001
0000
0001
,  // measure 20
0000
0000
0000
0000
,  // measure 21
0000
0010
0000
0110
,  // measure 22
0000
0000
0000
0000
,  // measure 23
0001
0000
0000
0001
,  // measure 24
0000
0000
0000
0010
,  // measure 25
0000
0000
0000
0100
,  // measure 26
0000
0010
0000
0100
,  // measure 27
0000
0010
0000
0100
,  // measure 28
0000
1000
0000
0100
,  // measure 29
0100
0100
0000
0010
,  // measure 30
0000
0000
0000
0001
,  // measure 31
0000
0000
0000
1000
,  // measure 32
0000
0010
0000
0100
,  // measure 33
0000
0001
0000
0010
,  // measure 34
0000
0100
0000
1000
,  // measure 35
0000
0010
0000
0100
,  // measure 36
0000
0001
0000
0100
,  // measure 37
0000
0010
0000
2000
,  // measure 38
0000
0000
3000
0002
,  // measure 39
0000
0000
0003
0020
,  // measure 40
0000
0000
0030
0000
,  // measure 41
0000
0000
0000
0200
,  // measure 42
0000
0000
0300
0200
,  // measure 43
0000
0000
0300
2000
,  // measure 44
0000
0000
3000
0000
,  // measure 45
0000
0000
0000
0100
,  // measure 46
0000
1000
0000
0010
,  // measure 47
0000
0100
0000
0001
,  // measure 48
0000
0010
0000
0100
,  // measure 49
0000
1000
0000
0010
,  // measure 50
0000
0100
0000
0001
,  // measure 51
0000
0010
0000
0100
,  // measure 52
0000
0000
0000
1000
,  // measure 53
0000
0000
0000
0010
,  // measure 54
0000
0000
0000
0100
,  // measure 55
0000
0000
0000
0010
,  // measure 56
0000
0000
0000
1000
,  // measure 57
0000
0000
0000
0010
,  // measure 58
0000
0000
0000
0010
,  // measure 59
0000
0000
0000
0110
,  // measure 60
0000
1001
0000
0100
,  // measure 61
0000
0000
0000
0110
,  // measure 62
0000
1001
0000
0010
,  // measure 63
0000
0000
0000
1001
,  // measure 64
0000
0110
0000
0100
,  // measure 65
0000
0001
0000
1001
,  // measure 66
0000
0110
0000
0010
,  // measure 67
0000
0100
0000
1000
,  // measure 68
0000
0000
1000
0000
,  // measure 69
0001
0000
0000
0010
,  // measure 70
0100
0000
0000
1000
,  // measure 71
0000
0010
0000
0000
,  // measure 72
0100
0000
0000
0000
,  // measure 73
0000
0001
0000
0000
,  // measure 74
0010
0000
0000
0000
,  // measure 75
0000
0100
0000
0000
,  // measure 76
0000
1000
0000
0000
,  // measure 77
0000
0010
0000
0000
,  // measure 78
0000
0100
0000
0000
,  // measure 79
0000
0001
0000
0000
,  // measure 80
0000
2002
0000
0000
,  // measure 81
0000
3003
0000
0000
;
