#TITLE:Energize;
#SUBTITLE:;
#ARTIST:N-Logic;
#TITLETRANSLIT:;
#SUBTITLETRANSLIT:;
#ARTISTTRANSLIT:;
#CREDIT:;
#BANNER:;
#BACKGROUND:;
#LYRICSPATH:;
#CDTITLE:;
#MUSIC:energize.ogg;
#OFFSET:0.006;
#SAMPLESTART:73.880;
#SAMPLELENGTH:12.000;
#SELECTABLE:YES;
#BPMS:0.000=143.010;
#STOPS:;
#BGCHANGES:;

//---------------dance-single - ----------------
#NOTES:
     dance-single:
     :
     Easy:
     8:
     0.405,0.525,0.501,0.410,0.155: // measure 1
0000
0000
0000
0000
,  // measure 2
0000
0000
0000
0000
,  // measure 3
0000
0000
0000
0000
,  // measure 4
0000
0000
0000
0000
,  // measure 5
1001
0000
1000
0000
,  // measure 6
0001
0000
1000
0000
,  // measure 7
0010
0000
0100
0000
,  // measure 8
0001
0000
1000
0000
,  // measure 9
0001
0000
1000
0000
,  // measure 10
0010
0000
0100
0000
,  // measure 11
0001
0000
2000
0000
,  // measure 12
3002
0000
0003
0000
,  // measure 13
1001
1000
0001
0000
1000
0000
1000
0000
,  // measure 14
0010
0000
0000
0100
0000
0000
0010
0000
0100
0000
0000
0000
0110
0000
0000
0000
,  // measure 15
0001
0011
0001
1001
,  // measure 16
0010
0110
0001
0011
,  // measure 17
0001
0010
0011
0000
0001
0000
1001
0000
,  // measure 18
0100
0000
0000
0010
0000
0000
0100
0000
0010
0000
0000
0000
0001
0000
0000
0000
,  // measure 19
2002
0000
0000
3003
,  // measure 20
1001
0000
0000
1000
0000
0000
0100
0000
1100
0000
0000
0110
0000
0000
1001
0000
,  // measure 21
1002
0000
1003
0100
,  // measure 22
0020
0000
0130
0001
,  // measure 23
0200
0000
1300
0010
,  // measure 24
2000
0000
3001
0010
,  // measure 25
0002
0000
0013
0100
,  // measure 26
0020
0000
0100
0001
,  // measure 27
0230
0000
2300
3010
,  // measure 28
1000
0000
0000
0001
0000
0000
1000
0000
1001
0000
0000
1001
0000
0000
1001
0000
,  // measure 29
1000
0100
1000
0000
0010
0000
0010
0000
,  // measure 30
0010
0000
0000
0100
0000
0000
0100
0000
0010
0000
0000
0000
0001
0000
0000
0000
,  // measure 31
1000
0100
1000
0000
0001
0000
0010
0000
,  // measure 32
0220
0330
0000
0000
2002
0000
3003
0000
,  // measure 33
0011
0000
0001
0000
0010
0001
0010
0000
,  // measure 34
0001
2000
0002
3003
,  // measure 35
2002
3003
0220
0330
,  // measure 36
2200
3300
0220
0330
,  // measure 37
0001
0000
0000
0010
0000
0000
0001
0000
0000
0010
0000
0000
0001
0000
0000
0000
,  // measure 38
1000
0000
0000
0010
0000
0000
1000
0000
0000
0010
0000
0000
1000
0000
0000
0000
,  // measure 39
0001
0000
0000
1000
0000
0000
0010
0000
0000
1000
0000
0000
0001
0000
0000
0000
,  // measure 40
1000
0000
0000
0010
0000
0000
0100
0000
0000
0001
0000
0000
0100
0000
0000
0000
,  // measure 41
1001
0000
0000
1001
0000
0000
1001
0000
0000
1001
0000
0000
0000
0000
0000
0000
,  // measure 42
0110
0000
0000
0110
0000
0000
0110
0000
0000
0110
0000
0000
0000
0000
0000
0000
,  // measure 43
1001
0000
0000
1001
0000
0000
1001
0000
0000
1001
0000
0000
0000
0000
0000
0000
,  // measure 44
0220
0000
0000
0330
,  // measure 45
0012
0013
0200
1300
,  // measure 46
0002
0013
0200
1300
,  // measure 47
0020
0130
0002
1003
,  // measure 48
1001
0100
0010
0100
,  // measure 49
0110
0001
1000
0100
,  // measure 50
1100
0010
0011
0002
,  // measure 51
2000
3003
1002
0000
,  // measure 52
0103
0000
0000
0000
0000
0000
0000
0000
0010
0000
0000
0100
0000
0100
0000
0000
,  // measure 53
1002
0000
0000
0000
0000
0000
0000
0000
1003
0000
0000
1000
0000
0000
0000
0000
,  // measure 54
2100
0000
0000
0000
0000
0000
0000
0000
3001
0000
0000
0001
0000
0000
0000
0000
,  // measure 55
2100
0000
0000
0000
3000
0000
0000
0000
0001
0000
0000
0001
0000
0000
0000
0000
,  // measure 56
0012
0000
0000
0000
0003
0000
0000
0000
0010
0000
0000
0010
0000
0000
0000
0000
,  // measure 57
2200
3300
0000
0000
0022
0033
0000
0000
,  // measure 58
1100
0000
0000
1100
0000
0000
0000
0000
0011
0000
0000
0011
0000
0000
0000
0000
,  // measure 59
0001
0000
0000
0100
0000
0000
0000
0000
0100
0000
0000
1000
0000
0000
0000
0000
,  // measure 60
1000
0000
0000
0100
0000
0000
0000
0000
0001
0000
0000
0100
0000
0010
0000
0000
,  // measure 61
1000
0001
0100
0010
,  // measure 62
1000
0010
0100
0001
,  // measure 63
0010
0000
0100
0000
,  // measure 64
0001
0001
1000
0001
,  // measure 65
1001
0000
0000
0000
;

//---------------dance-single - ----------------
#NOTES:
     dance-single:
     :
     Hard:
     15:
     0.736,0.757,0.255,0.164,0.911: // measure 1
0000
0000
0000
0000
,  // measure 2
0000
0000
0000
0000
,  // measure 3
0002
0000
0000
0000
,  // measure 4
1003
0100
1000
0100
0010
0001
0010
0100
,  // measure 5
1000
0000
0100
0010
0000
0010
0001
0000
0010
0000
0100
1000
0000
1000
0010
0000
,  // measure 6
0100
0000
0001
0100
0000
0100
0010
0000
1000
0000
0100
0010
0000
0010
0100
0000
,  // measure 7
1000
0000
0001
0010
0000
0010
0001
0000
0100
0000
1000
0001
0000
1000
0001
0000
,  // measure 8
1000
0000
0100
0010
0000
0100
0010
0000
0001
0000
1000
0010
0000
1000
0010
0000
,  // measure 9
0100
0000
0001
0010
0000
0001
0010
0000
0100
0000
1000
0001
0000
1000
0001
0000
,  // measure 10
0010
0000
0100
1000
0000
1000
0100
0000
0010
0000
0001
0100
0000
0100
0001
0000
,  // measure 11
0020
0130
1000
0010
0200
0301
0010
0100
,  // measure 12
0220
0000
0000
0330
,  // measure 13
1000
0000
0100
0000
0010
0001
0000
0100
0010
0000
1000
0100
0000
0010
0001
0000
,  // measure 14
0100
0000
0000
0010
0000
0000
1000
0000
2010
0000
0000
0000
3010
0000
0000
0000
,  // measure 15
0120
0000
0000
0000
0130
0000
0000
0000
0100
0000
0000
0010
0000
0000
1000
0000
,  // measure 16
0010
0000
0000
0100
0000
0000
0001
0000
0010
0000
0000
0001
0000
0000
1000
0000
,  // measure 17
1000
0000
0010
0000
0100
0001
0000
0001
0100
0000
0100
0010
0000
0010
1000
0000
,  // measure 18
0100
0000
0000
0010
0000
0000
0001
0000
0011
0000
0000
0000
0110
0000
0000
0000
,  // measure 19
0020
0000
0230
0000
,  // measure 20
1300
0000
0010
1000
0000
1000
0001
0000
0010
0000
0000
0100
0000
0000
1000
0000
,  // measure 21
1100
0000
0010
0000
0001
0000
0100
0010
0000
0010
1000
0000
0100
0000
0010
0000
,  // measure 22
0001
0000
1000
0000
0001
0000
0010
0100
0000
0100
1000
0000
0100
0000
0010
0000
,  // measure 23
0001
0000
0100
0000
0010
0000
1000
0010
0000
0010
0100
0000
0001
0000
0010
0000
,  // measure 24
0100
0000
1000
0000
0100
0000
0010
0001
0000
0001
0100
0000
0010
0000
1000
0000
,  // measure 25
0010
0000
0100
0000
0001
0000
1000
0100
0000
1000
0001
0000
0100
0000
0010
0000
,  // measure 26
1000
0000
0100
0000
0010
0000
0001
1000
0000
0100
1000
0000
0001
0000
0010
0000
,  // measure 27
0100
0000
1000
0000
0010
0000
1000
0001
0000
0001
0010
0000
0100
0000
1000
0000
,  // measure 28
0100
0000
0010
0001
0000
0001
0100
0000
0010
0000
0000
1000
0000
0000
0100
0000
,  // measure 29
0100
0000
0010
0000
0001
0100
0000
0010
1000
0000
0100
0010
0000
0001
0010
0000
,  // measure 30
0200
0000
0000
1000
0000
0000
1000
0000
1300
0000
0000
0000
0010
0000
0000
0000
,  // measure 31
0100
0000
0001
0000
0010
0100
0000
0100
1000
0000
1000
0001
0000
0001
1000
0000
,  // measure 32
0010
0000
0000
0010
0000
0000
1000
0000
1000
0000
0000
0001
0000
0000
0010
0000
,  // measure 33
0200
0000
0000
1000
0000
0000
1300
0000
0002
0000
0000
0100
0000
0000
0103
0000
,  // measure 34
0020
0000
0000
1000
0000
0000
1030
0000
0200
0000
0000
0010
0000
0000
0310
0000
,  // measure 35
0001
0000
0000
0010
0000
0000
0001
0000
0100
0000
0000
0010
0000
0000
1000
0000
,  // measure 36
0100
0000
0000
0010
0000
0000
0001
0000
0010
0000
0000
0100
0000
0000
1000
0000
,  // measure 37
0020
0000
0000
0100
0000
0000
0100
0000
0000
0100
0000
0000
0130
0000
0001
0000
,  // measure 38
0020
0000
0000
0100
0000
0000
0100
0000
0000
0100
0000
0000
0130
0000
1000
0000
,  // measure 39
0002
0000
0000
0010
0000
0000
0010
0000
0000
0010
0000
0000
0013
0000
0100
0000
,  // measure 40
2000
0000
0000
0010
0000
0000
0010
0000
0000
0010
0000
0000
3010
0000
0100
0000
,  // measure 41
0101
0000
0000
1010
0000
0000
1001
0000
0000
1010
0000
0000
0100
0000
0001
0000
,  // measure 42
0101
0000
0000
1001
0000
0000
0101
0000
0000
1010
0000
0000
1000
0000
0100
0000
,  // measure 43
1100
0000
0000
0110
0000
0000
0011
0000
0000
0101
0000
0000
0010
0000
1000
0000
,  // measure 44
1010
0000
0000
1001
0000
0000
0011
0000
0000
0110
0000
0000
1100
0000
0000
0000
,  // measure 45
1000
0100
0000
0010
0000
0001
0100
0000
0010
0000
1000
0100
0000
0010
0001
0100
,  // measure 46
0001
0000
0010
0100
0000
0100
1000
0000
0010
0100
0000
0001
0000
0010
0100
0010
,  // measure 47
0100
0000
1000
0100
0000
0100
0010
0000
0001
0000
1000
0001
0000
0010
0100
0010
,  // measure 48
0100
0000
1000
0100
0000
0100
0010
0000
0001
0100
0000
0010
0000
1000
0100
0010
,  // measure 49
0001
0000
0001
0010
0000
0100
1000
0000
0010
0000
0100
0001
0000
0001
0010
0100
,  // measure 50
1000
0010
1000
0010
0000
0100
0001
0100
0001
0100
0010
1000
0000
0010
1000
0010
,  // measure 51
1000
0010
0000
0100
0000
0001
0010
0001
0010
0001
0000
0010
0000
0001
0100
0001
,  // measure 52
0100
0000
0010
1000
0000
1000
0010
0000
0100
0001
0010
0100
0000
1000
0000
0000
,  // measure 53
0100
0010
0000
0001
0000
0100
0010
0000
1000
0100
0000
1100
0000
0010
0001
0010
,  // measure 54
0100
0000
1000
0010
0000
0010
1000
0000
0001
0010
0000
1001
0000
0001
1000
0001
,  // measure 55
0010
0000
0100
1000
0000
0100
0010
0000
0001
0100
0000
0001
0000
1000
0001
0100
,  // measure 56
0001
0000
0010
0100
0000
1000
0100
0000
1000
0001
0000
1001
0000
0100
0010
0001
,  // measure 57
0010
0000
0100
1000
0000
1000
0010
0000
0100
0000
0001
0010
0000
0100
1000
0100
,  // measure 58
1000
0001
1000
0001
0000
1000
0100
0010
0001
1000
0100
1000
0000
0100
1000
0100
,  // measure 59
1000
0100
0000
0010
0000
0001
0100
0001
0100
0001
0000
0010
0000
0100
1000
0010
,  // measure 60
1000
0000
0100
0010
0000
0010
0001
0000
0010
0100
0010
0100
0000
1000
0000
0000
,  // measure 61
0010
0100
0001
0100
0010
1000
0100
0010
,  // measure 62
0001
0010
0100
1000
0010
0100
0001
0100
,  // measure 63
0010
1010
0010
0101
,  // measure 64
1000
0100
1000
0100
0010
0001
0010
0001
1000
0100
1000
0100
0010
0001
1000
0001
;

//---------------dance-single - ----------------
#NOTES:
     dance-single:
     :
     Medium:
     11:
     0.532,0.526,0.073,0.137,0.519: // measure 1
0000
0000
0000
0000
,  // measure 2
0000
0000
0000
0000
,  // measure 3
0000
0000
0000
0000
,  // measure 4
0000
0000
0000
0000
,  // measure 5
1000
0000
0000
0100
0000
0000
0010
0000
0001
0000
0000
0100
0000
0000
0010
0000
,  // measure 6
0100
0000
0000
0001
0000
0000
0010
0000
0100
0000
0000
1000
0000
0000
0010
0000
,  // measure 7
0100
0000
0000
0001
0000
0000
0100
0000
0010
0000
0000
1000
0000
0000
0100
0000
,  // measure 8
0010
0000
0000
0010
0000
0000
0001
0000
0100
0000
0000
0010
0000
0000
1000
0000
,  // measure 9
0100
0000
0000
0001
0000
0000
0010
0000
0100
0000
0000
0001
0000
0000
0100
0000
,  // measure 10
1000
0000
0000
1000
0000
0000
1000
0000
0100
0000
0000
0100
0000
0000
0100
0000
,  // measure 11
0010
0001
0100
0010
0100
0001
0010
0100
,  // measure 12
0020
0000
0000
0030
,  // measure 13
1000
0000
0100
0000
0010
0001
0000
0000
0100
0000
0000
0010
0000
0000
0100
0000
,  // measure 14
0010
0000
1000
1000
2010
0000
3010
0000
,  // measure 15
0120
0130
0201
0301
,  // measure 16
0012
0013
0120
0130
,  // measure 17
1000
0000
0010
0000
0100
0001
0000
0000
0100
0000
0000
0010
0000
0000
1000
0000
,  // measure 18
0100
0000
0000
0010
0000
0000
0001
0000
0011
0000
0000
0000
0110
0000
0000
0000
,  // measure 19
0020
0000
0230
0000
,  // measure 20
1300
0000
0000
0010
0000
0000
1000
0000
0010
0000
0000
0100
0000
0000
1000
0000
,  // measure 21
0100
0000
0010
0000
0001
0000
0000
0010
0000
0000
0100
0000
1000
0000
0010
0000
,  // measure 22
0001
0000
1000
0000
0001
0000
0000
0100
0000
0000
1000
0000
0100
0000
0010
0000
,  // measure 23
0001
0000
0100
0000
0010
0000
0000
0010
0000
0000
0100
0000
0001
0000
0010
0000
,  // measure 24
0100
0000
1000
0000
0100
0000
0000
0001
0000
0000
0100
0000
0010
0000
0010
0000
,  // measure 25
1000
0000
0100
0000
0001
0000
0000
1000
0000
0000
0001
0000
0100
0000
0010
0000
,  // measure 26
1000
0000
0100
0000
0010
0000
0000
0001
0000
0000
0001
0000
0010
0000
0100
0000
,  // measure 27
1000
0000
0100
0000
0010
0000
0000
0001
0000
0000
0010
0000
0100
0000
1000
0000
,  // measure 28
0100
0000
0000
0010
0000
0000
0001
0000
0100
0000
0000
0010
0000
0000
1000
0000
,  // measure 29
0100
0000
0010
0000
0001
0000
0000
0010
0000
0000
0100
0000
0000
0100
0000
0000
,  // measure 30
0200
0000
0000
1000
0000
0000
1000
0000
1300
0000
0000
0000
0010
0000
0000
0000
,  // measure 31
0100
0000
0001
0000
0010
0001
0000
0000
0010
0000
0000
0100
0000
0000
1000
0000
,  // measure 32
1000
0000
0000
0010
0000
0000
1000
0000
0100
0000
0000
0010
0000
0000
0001
0000
,  // measure 33
0010
0010
0100
1000
0100
0010
0001
1000
,  // measure 34
0001
0010
0100
0010
0100
1000
0100
0010
,  // measure 35
0100
0000
0000
0010
0000
0000
0001
0000
0100
0000
0000
0010
0000
0000
1000
0000
,  // measure 36
0100
0000
0000
0010
0000
0000
0001
0000
0010
0000
0000
0100
0000
0000
1000
0000
,  // measure 37
0020
0000
0000
0100
0000
0000
0100
0000
0000
0100
0000
0000
0130
0000
0001
0000
,  // measure 38
0020
0000
0000
0100
0000
0000
0100
0000
0000
0100
0000
0000
0130
0000
1000
0000
,  // measure 39
0002
0000
0000
0010
0000
0000
0010
0000
0000
0010
0000
0000
0013
0000
0100
0000
,  // measure 40
2000
0000
0000
0010
0000
0000
0010
0000
0000
0010
0000
0000
3010
0000
0100
0000
,  // measure 41
0001
0000
0000
0010
0000
0000
0100
0000
0000
1000
0000
0000
0100
0000
0010
0000
,  // measure 42
0001
0000
0000
1000
0000
0000
0001
0000
0000
0010
0000
0000
0100
0000
1000
0000
,  // measure 43
0100
0000
0000
0010
0000
0000
0001
0000
0000
0100
0000
0000
0010
0000
0000
0000
,  // measure 44
1000
0000
0000
0001
0000
0000
0010
0000
0000
0100
0000
0000
1000
0000
0000
0000
,  // measure 45
1000
0000
0000
1000
0000
0000
1000
0000
0010
0000
0000
0100
0000
0001
0100
0000
,  // measure 46
0001
0000
0000
0010
0000
0000
0100
0000
1000
0100
0000
1000
0000
0100
1000
0000
,  // measure 47
0001
0000
0000
0100
0000
0000
0010
0000
1000
0000
0001
0010
0000
0001
0010
0001
,  // measure 48
0010
0000
0000
0100
0000
0000
1000
0000
0010
0100
0000
0010
0000
0100
0010
0000
,  // measure 49
1000
0000
0000
0010
0000
0000
0100
0000
0010
0000
0000
0100
0000
0000
0001
0000
,  // measure 50
0100
0000
0000
0010
0000
0000
1000
0000
0001
0000
0010
0100
0000
1000
0010
0000
,  // measure 51
0010
1000
0000
0100
0000
0010
0001
0000
0001
0010
0000
0100
0000
1000
0010
0000
,  // measure 52
0100
0000
0000
0001
0000
0000
0100
0000
0010
0000
1000
0100
0000
0010
0000
0000
,  // measure 53
0001
0000
0000
0100
0000
0000
0010
0000
1000
0010
0000
0100
0000
0001
0100
0000
,  // measure 54
0010
0000
0000
1000
0000
0000
0100
0000
0010
0001
0000
0001
0000
1000
0100
0000
,  // measure 55
0100
0000
0000
0010
0000
0000
0001
0000
1000
0010
0000
1000
0000
0001
1000
0000
,  // measure 56
0100
0000
0000
0010
0000
0000
0001
0000
0010
0000
0000
0100
0000
1000
0100
0000
,  // measure 57
0010
0000
0000
0001
0000
0000
0100
0000
0010
0000
0000
0010
0000
0000
1000
0000
,  // measure 58
0100
0000
0000
0010
0000
0000
0001
0000
0100
0000
0001
0010
0000
0100
1000
0000
,  // measure 59
1000
0100
0000
0010
0000
0001
0100
0000
0100
0001
0000
0010
0000
0100
1000
0000
,  // measure 60
1000
0000
0000
0100
0000
0000
0010
0000
0001
0000
0010
0100
0000
1000
0000
0000
,  // measure 61
0010
0100
0001
0100
0010
1000
0100
0010
,  // measure 62
0001
0010
0100
1000
0010
0100
0001
0100
,  // measure 63
0010
1000
0000
0100
,  // measure 64
0000
0000
0000
0000
0010
0000
0000
0000
0001
0000
0000
0000
1000
0000
0000
2002
,  // measure 65
0000
0000
0000
3003
0000
0000
0000
0000
0000
0000
0000
0000
0000
0000
0000
0000
;

//---------------dance-single - ----------------
#NOTES:
     dance-single:
     :
     Challenge:
     18:
     0.999,1.000,0.519,0.173,1.000:
0000
0000
0000
0000
,
0000
0000
0000
0000
,
1000
0000
0100
1000
0100
0000
1000
0000
0001
0000
0100
0000
0010
0000
1000
0000
0001
0100
0001
0100
0001
0000
0100
0000
0010
0000
1000
0000
0100
0000
1000
0000
,
0001
0000
0100
0000
0010
0000
1000
0000
0100
0000
0010
0000
0100
0000
1000
0000
0001
0000
0100
0000
0010
0000
1000
0000
0001
0010
0001
0010
0001
0010
0001
0010
,
0001
0000
0010
0100
0000
0100
1000
0100
0010
0000
0010
0001
0000
0001
0100
0010
,
1000
0000
1000
0010
0000
0010
0100
0001
0010
0000
0010
0100
0000
1000
0100
1000
,
0001
0000
0001
0100
0000
0100
0001
0010
0100
0000
0100
1000
0000
0010
0100
0001
,
0100
0000
0010
0100
0000
0010
0100
0010
1000
0000
0001
0100
0000
0001
0100
0010
,
1000
0000
0100
0010
0000
0010
0001
0010
0001
0000
0001
1000
0000
0001
1000
0000
,
0001
0000
0100
0010
0000
0100
0010
0000
1000
0000
0001
0100
0010
1000
0100
0010
,
0001
0000
1000
0001
1000
0000
0001
0000
0100
0000
0010
0000
1000
0000
0001
0000
1000
0010
1000
0010
1000
0000
0001
0000
0100
0000
0010
0000
1000
0000
0001
0000
,
1000
0000
0000
0000
0010
0000
1000
0000
0000
0000
0010
0000
0100
0000
0001
0000
1000
0000
0000
0000
0001
0000
0100
0000
0001
0000
1000
0000
0001
1000
0001
1000
,
0001
0000
0100
0000
0010
0001
0000
0100
0010
0000
1000
0100
0000
0010
0001
0000
,
1010
0000
0000
0010
0000
1000
0001
0000
1001
0000
0000
0010
0000
1000
0010
0000
,
0110
0000
0000
0100
0000
0001
0100
0000
0101
0000
0000
0001
0000
0010
0001
0000
,
0011
0000
0000
0010
0000
0100
1000
0000
1100
0000
0010
0001
0000
0001
1000
0000
,
1001
0000
0010
0000
0100
0001
0000
0001
0100
0000
0100
0010
0000
0010
1000
0000
,
0100
0000
0000
0010
0000
0000
0001
0000
0011
0000
0000
0000
0110
0000
0000
0000
,
1000
0100
1000
0100
1000
0000
0001
0000
0100
0000
0010
0000
1000
0000
0001
0000
1000
0100
1000
0100
1000
0000
0001
0000
0100
0000
0010
0000
1000
0000
0001
0000
,
1000
0000
0000
0000
0010
0000
1000
0000
0000
0000
1000
0000
0001
0000
0000
0000
0110
0000
0000
0000
0000
0000
1010
0000
0000
0000
0000
0000
1000
0010
1000
0010
,
1000
0000
1000
0000
0001
0000
0100
0010
0000
0010
1000
0000
1010
0000
1000
0000
,
0001
0000
1000
0000
0001
0000
0010
0100
0000
0100
1000
0000
1100
0000
1000
0000
,
0001
0000
0100
0000
0010
0000
1000
0010
0000
0010
0100
0000
0101
0000
0001
0000
,
1000
0000
0001
0000
0100
0000
0100
0001
0000
0001
0100
0000
0101
0000
0010
0000
,
1000
0000
0100
0000
0010
0000
0001
0010
0000
0010
0001
0000
0011
0000
0001
0000
,
1000
0000
0100
0000
0010
0000
0001
0010
0000
0100
1000
0000
1100
0000
1000
0000
,
0100
0000
1000
0000
0010
0000
1000
0001
0000
0001
0010
0000
0011
0000
0001
0000
,
1001
0000
0000
0000
0010
0000
0001
0000
0000
0000
0001
0000
0100
0000
0000
0000
1010
0000
0000
0000
0000
0000
1001
0000
0000
0000
0000
0000
0001
0010
0001
0010
,
0001
0000
0010
0000
0001
0100
0000
0010
1000
0000
0100
0010
0000
0001
0010
0000
,
1100
0000
1000
0100
0000
0100
1000
0000
1002
0000
0000
0000
0013
0000
0000
0000
,
0100
0000
0001
0000
0010
0100
0000
1000
0010
0000
0100
0001
0000
0010
0100
0000
,
1000
0000
0000
0000
0010
0000
1000
0000
0000
0000
1000
0000
0010
0000
0000
0000
1010
0000
0000
0000
0000
0000
0101
0000
0000
0000
0000
0000
0001
0000
0010
0100
,
1000
0001
0100
0010
1000
0100
0010
0100
1000
0001
0100
0010
1000
0100
1000
0001
,
0010
0001
0100
0010
1000
0100
1000
0100
0010
0001
0010
0001
1000
0100
1000
0100
,
1000
0001
0100
0010
1000
0100
0010
0100
1000
0001
0100
0010
1000
0100
0010
0001
,
0010
0100
1000
0001
1000
0001
1000
0000
1100
0000
0000
1001
0000
0000
0011
0000
,
0200
0000
0000
2300
0000
0000
3020
0000
0000
0230
0000
0000
0301
0000
0010
0000
,
1002
0000
0000
0203
0000
0000
0320
0000
0000
0230
0000
0000
0301
0000
1000
0000
,
2001
0000
0000
3020
0000
0000
2030
0000
0000
3200
0000
0000
0310
0000
0001
0000
,
2001
0000
0000
3020
0000
0000
0230
0000
0000
0302
0000
0000
1000
0000
1003
0000
,
1100
0000
0000
1010
0000
0000
0101
0000
0000
1001
0000
0000
1100
0000
1000
0000
,
1001
0000
0000
1001
0000
0000
0101
0000
0000
1010
0000
0000
1100
0000
1000
0000
,
1100
0000
0000
0110
0000
0000
0011
0000
0000
0101
0000
0000
0110
0000
0010
0000
,
1010
0000
0000
1001
0000
0000
0011
0000
1000
0100
1000
0100
0010
0001
1000
0000
,
1000
0100
0000
0010
0000
0001
0100
0000
0010
0000
1000
0100
0000
0010
0001
0100
,
0001
0000
0010
0100
0000
0100
1000
0000
0010
0100
0000
0001
0000
0010
0100
0010
,
0100
0000
1000
0100
0000
0100
0010
0000
0001
0000
1000
0001
0000
0010
0100
0010
,
0100
0000
1000
0100
0000
0100
0010
0000
0001
0100
0000
0010
0000
1000
0100
0010
,
0001
0000
0001
0010
0000
0100
1000
0000
0010
0000
0100
0001
0000
0001
0010
0100
,
1000
0010
1000
0010
0000
0010
0100
0001
0010
0100
1000
0100
0000
1000
0010
1000
,
0010
1000
0000
0100
0000
0010
0001
0010
0001
0010
0000
0100
0000
1000
0010
1000
,
0010
0000
0000
0000
0100
0000
0001
0000
0000
0000
0001
0000
0100
0000
0000
0000
0010
0000
1000
0000
0100
0000
0010
0000
0000
0000
0001
0000
0010
0100
0010
0100
,
0010
0100
0000
1000
0000
0010
0100
0000
0001
0010
0000
0011
0000
0100
1000
0100
,
0010
0000
0001
0100
0000
0100
0001
0000
0010
0100
0000
0110
0000
1000
0001
1000
,
0100
0000
0010
0001
0000
0010
0100
0000
1000
0010
0000
1000
0000
0001
1000
0010
,
1000
0000
0100
0010
0000
0001
0010
0000
0100
1000
0000
1100
0000
1000
0100
1000
,
0100
0000
0010
0001
0000
0001
0100
0000
0010
0000
1000
0100
0000
0010
0001
0100
,
0010
1000
0001
1000
0000
0001
0100
0001
0100
0001
0010
0100
0000
1000
0001
0100
,
0001
0100
0000
0010
0000
1000
0100
1000
0100
1000
0010
0100
0001
0100
0010
1000
,
0001
0000
0000
0000
0100
0000
0010
0000
0000
0000
0010
0000
0001
0000
0000
0000
0010
0000
0100
0000
0010
0000
0100
0000
0000
0000
1000
0000
0001
0010
0001
0010
,
0001
1000
0010
0100
0001
1000
0100
0010
0100
1000
0001
0010
0001
1000
0010
0100
,
0001
1000
0100
1000
0001
0100
0010
1000
0001
0100
0010
1000
0100
1000
0100
1000
,
1001
1010
0101
1010
,
1000
0100
1000
0100
0010
0001
0010
0001
1000
0100
1000
0100
0010
0001
0010
0001
,
1000
2002
0000
3003
0000
0000
0000
0000
0000
0000
0000
0000
0000
0000
0000
0000
;

//---------------dance-single - ----------------
#NOTES:
     dance-single:
     :
     Beginner:
     5:
     0.185,0.289,0.082,0.036,0.036: // measure 1
0000
0000
0000
0000
,  // measure 2
0000
0000
0000
0000
,  // measure 3
0000
0000
0000
0000
,  // measure 4
0000
0000
0000
0000
,  // measure 5
1001
0000
1000
0000
,  // measure 6
0001
0000
1000
0000
,  // measure 7
0010
0000
0100
0000
,  // measure 8
0001
0000
1000
0000
,  // measure 9
0001
0000
1000
0000
,  // measure 10
0010
0000
0100
0000
,  // measure 11
0001
0000
2000
0000
,  // measure 12
3002
0000
0003
0000
,  // measure 13
0001
0000
1000
0000
,  // measure 14
0100
0000
1000
0000
,  // measure 15
0100
0000
0100
0000
,  // measure 16
0000
0000
0000
0000
,  // measure 17
0010
0000
0010
0000
,  // measure 18
1000
0000
0001
0000
,  // measure 19
2000
0000
3002
0003
,  // measure 20
1001
0000
1001
0000
,  // measure 21
0110
0000
0100
0000
,  // measure 22
0010
0000
1000
0000
,  // measure 23
0001
0000
1000
0000
,  // measure 24
0001
0000
1000
0000
,  // measure 25
0010
0000
0010
0000
,  // measure 26
0100
0000
0100
0000
,  // measure 27
0001
0000
1000
0000
,  // measure 28
0001
0000
1000
0000
,  // measure 29
1001
0000
0001
0000
,  // measure 30
1000
0000
1000
1000
,  // measure 31
1000
0000
0001
0000
,  // measure 32
0001
0000
1000
0000
,  // measure 33
1001
0000
1000
0000
,  // measure 34
0001
0000
0100
0000
,  // measure 35
0010
0000
1000
0000
,  // measure 36
0001
0000
1000
0000
,  // measure 37
0001
0000
0000
0001
0000
0000
0001
0000
0000
0000
0000
0000
0000
0000
0000
0000
,  // measure 38
0001
0000
0000
0001
0000
0000
0001
0000
0000
0000
0000
0000
0000
0000
0000
0000
,  // measure 39
0010
0000
0000
0010
0000
0000
0010
0000
0000
0000
0000
0000
0000
0000
0000
0000
,  // measure 40
0100
0000
0000
0100
0000
0000
0100
0000
0000
0000
0000
0000
0000
0000
0000
0000
,  // measure 41
1000
0000
0000
1000
0000
0000
1000
0000
0000
0000
0000
0000
0000
0000
0000
0000
,  // measure 42
0001
0000
0000
0001
0000
0000
0001
0000
0000
0000
0000
0000
0000
0000
0000
0000
,  // measure 43
0010
0000
0000
0010
0000
0000
0010
0000
0000
0000
0000
0000
0000
0000
0000
0000
,  // measure 44
0100
0000
0000
0100
0000
0000
0100
0000
0000
0000
0000
0000
0000
0000
0000
0000
,  // measure 45
1000
0000
0001
0000
,  // measure 46
0100
0000
0100
0000
,  // measure 47
0010
0000
1000
0000
,  // measure 48
1000
0000
0001
0000
,  // measure 49
1001
0000
1000
0000
,  // measure 50
0001
0000
0100
0000
,  // measure 51
0010
0000
1000
0000
,  // measure 52
0001
0000
1000
1000
,  // measure 53
1000
0000
0001
0000
,  // measure 54
1001
0000
0010
0000
,  // measure 55
1001
0000
1000
0000
,  // measure 56
0010
0000
0010
0000
,  // measure 57
1000
0000
0001
0000
,  // measure 58
1000
0000
1000
0000
,  // measure 59
0001
0000
1000
0000
,  // measure 60
0001
0000
1000
0000
,  // measure 61
0001
0001
0001
0000
,  // measure 62
1000
1000
1000
0000
,  // measure 63
0010
0000
0100
0000
,  // measure 64
0001
0000
1000
0000
;
