#TITLE:E for Extinction;
#SUBTITLE:;
#ARTIST:Thousand Foot Krutch;
#TITLETRANSLIT:;
#SUBTITLETRANSLIT:;
#ARTISTTRANSLIT:;
#CREDIT:;
#BANNER:E for Extinction-ban.png;
#BACKGROUND:E for Extinction-bg.png;
#LYRICSPATH:;
#CDTITLE:;
#MUSIC:E for Extinction.mp3;
#OFFSET:1.085;
#SAMPLESTART:32.027;
#SAMPLELENGTH:15.000;
#SELECTABLE:YES;
#BPMS:0.000=115.000,67.000=230.000,131.000=115.000,243.000=230.000,306.000=115.000;
#STOPS:305.000=0.261
;
#BGCHANGES:;

//---------------dance-single - ----------------
#NOTES:
     dance-single:
     :
     Hard:
     13:
     0.596,0.820,0.278,0.326,0.075: // measure 1
0000
0000
0000
0000
,  // measure 2
0000
0000
0000
0000
,  // measure 3
0000
0000
0000
0000
,  // measure 4
0000
0000
0000
0000
0000
2000
0000
3010
,  // measure 5
0100
0002
0000
0013
0100
1000
0000
0001
,  // measure 6
1000
0000
0020
0100
0000
0032
0000
0000
,  // measure 7
1003
0000
0020
0000
1030
0001
1000
0010
,  // measure 8
0100
0001
0010
0000
0100
2000
0000
3001
,  // measure 9
0100
0010
0000
1000
0001
0100
0010
1000
,  // measure 10
0100
0010
0001
0100
0010
0200
0310
1000
,  // measure 11
0001
0100
0010
1000
0100
0020
0031
1000
,  // measure 12
0010
0001
0010
1000
0100
0002
0000
0103
,  // measure 13
1000
0200
0000
0310
0001
1000
0001
0100
,  // measure 14
0001
0100
0010
1000
0010
1000
0100
0010
,  // measure 15
0100
0010
0001
0010
0001
0010
0100
1000
,  // measure 16
0100
1000
0010
0100
0001
1000
0010
0100
,  // measure 17
0001
0010
0100
1000
1001
0000
1010
0000
,  // measure 18
1000
0010
0100
0001
,  // measure 19
0010
0100
0220
0330
,  // measure 20
0010
0001
0010
0000
0100
0000
1000
0000
,  // measure 21
0001
1000
0001
0000
1000
0000
1001
0000
,  // measure 22
0001
0100
0010
1000
,  // measure 23
0100
0010
0022
0033
,  // measure 24
1000
0010
1000
0000
0001
0100
0001
0000
,  // measure 25
1000
0010
1000
0010
0100
0001
1000
0000
,  // measure 26
0010
0100
0001
1000
,  // measure 27
0010
0100
0202
0303
,  // measure 28
2000
0000
3002
0000
1003
0010
2000
0000
,  // measure 29
3001
0000
1001
0000
1000
0010
0200
0000
,  // measure 30
0301
1000
0010
1000
,  // measure 31
0001
0100
0001
0000
0101
0000
0000
0000
,  // measure 32
0010
1000
0002
0000
0103
0000
0001
0000
,  // measure 33
1000
0000
0020
0000
0030
0000
1000
0001
,  // measure 34
1001
0000
0000
1000
0010
0000
0100
0000
0001
0000
1000
0000
0010
0000
0100
0000
,  // measure 35
0001
0000
0000
0001
0010
0000
0100
0000
0010
0000
0000
0000
1100
0000
1000
0000
,  // measure 36
0100
0000
0010
0001
0010
0000
0100
0000
1000
0000
0001
0000
0100
0000
0010
0000
,  // measure 37
1000
0000
0001
0100
0001
0000
1000
0001
1000
0000
0001
1000
0010
0000
0100
0000
,  // measure 38
1001
0000
0000
0001
0100
0000
0010
0000
1000
0000
0001
0000
0100
0000
0100
0000
,  // measure 39
0010
0000
0000
1000
0010
0000
0100
0000
0001
0000
1000
0000
1001
0000
0000
0000
,  // measure 40
0010
0000
0000
1000
0010
0000
0100
0000
0001
0000
0001
0000
0100
0000
0010
1000
,  // measure 41
0010
0000
0200
0000
0000
0000
0001
0000
0001
0000
0301
0000
1000
0000
0100
1000
,  // measure 42
0100
0000
1100
0000
1000
0000
0001
0000
1001
0000
1000
0010
1000
0000
0001
0100
,  // measure 43
0001
0000
0101
0000
1000
0000
0010
0000
1010
0000
1000
0010
0100
0001
0100
0010
,  // measure 44
1000
0000
1010
0000
1000
0000
0001
0000
1001
0000
0001
1000
0010
0100
0001
0100
,  // measure 45
0010
1001
1000
0100
0010
0100
0110
0000
,  // measure 46
0010
0001
0010
0001
1000
0010
1000
0000
,  // measure 47
0001
0100
0001
0010
0100
1000
1000
0000
,  // measure 48
0001
0100
0010
1000
0100
0020
0000
0031
,  // measure 49
0100
0020
0000
1030
0001
2000
0000
3000
,  // measure 50
0100
0010
1000
0100
0010
0010
0000
0001
,  // measure 51
1000
0010
0100
0001
0010
0010
0000
0100
,  // measure 52
1000
0001
0100
0010
1000
0002
0000
1003
,  // measure 53
0010
0200
0000
0301
0010
0100
1000
0001
,  // measure 54
1000
0001
1000
0010
1000
0010
0100
0001
,  // measure 55
0100
0001
1000
0010
0001
0010
1000
0100
,  // measure 56
0001
0100
1000
0010
0100
0002
0000
0013
,  // measure 57
0100
2000
0000
3001
0100
0010
1000
0010
,  // measure 58
1010
0000
0100
0001
0101
0000
0001
0010
,  // measure 59
0011
0000
0001
1000
0001
0100
0010
1000
,  // measure 60
0100
0010
0001
0100
0010
1000
0001
0100
,  // measure 61
0010
1000
0001
0010
0011
0000
1001
0000
,  // measure 62
1000
0010
0100
0001
,  // measure 63
1000
0101
2002
3003
,  // measure 64
1000
0010
1000
0000
0001
0000
1000
0000
,  // measure 65
0001
0100
0001
0000
1000
0000
1001
0000
,  // measure 66
0001
1000
0100
0010
,  // measure 67
0100
1100
2002
3003
,  // measure 68
0001
0010
0100
0000
1000
0100
0010
0000
,  // measure 69
0001
0100
0010
1000
0001
0010
0001
0000
,  // measure 70
1000
0010
0100
0001
,  // measure 71
0010
0011
1001
0000
,  // measure 72
0020
0000
2030
0000
3001
0100
0002
0000
,  // measure 73
2003
3002
0003
1001
,  // measure 74
1000
0100
0010
0001
,  // measure 75
0100
0001
1000
0000
2002
0000
3003
0000
,  // measure 76
1000
0010
1000
0000
0001
0000
1000
0001
,  // measure 77
1000
0001
1000
0000
1001
0000
0000
0000
;

//---------------dance-single - ----------------
#NOTES:
     dance-single:
     :
     Medium:
     9:
     0.356,0.395,0.151,0.103,0.000: // measure 1
0000
0000
0000
0000
,  // measure 2
0000
0000
0000
0000
,  // measure 3
0000
0000
0000
0000
,  // measure 4
0000
0000
0000
0000
0000
2000
0000
0000
,  // measure 5
0000
3002
0000
0000
0000
0103
0000
0000
,  // measure 6
0010
0000
1000
0010
0000
0200
0000
0000
,  // measure 7
0301
0000
0010
0000
0100
2000
0000
0000
,  // measure 8
0000
0000
3000
0000
0001
1000
0000
0010
,  // measure 9
1000
0010
0000
1000
0001
1000
0001
0000
,  // measure 10
0100
0010
1000
1010
,  // measure 11
0001
0000
1000
0000
0001
1000
0001
0000
,  // measure 12
1000
0000
0001
0100
0010
1000
0000
1000
,  // measure 13
0010
0100
0000
0100
0001
1000
0000
0000
,  // measure 14
0010
1000
0010
0000
1000
0000
0001
1000
,  // measure 15
0001
0000
1000
0000
0010
0000
1000
0001
,  // measure 16
1000
0001
1000
0010
,  // measure 17
0100
0001
0100
0000
0101
0000
1001
0000
,  // measure 18
0000
0000
1000
0001
,  // measure 19
0100
0010
0010
0000
,  // measure 20
0010
1000
0010
0100
,  // measure 21
0001
0010
0100
1000
,  // measure 22
0000
0000
0001
1000
,  // measure 23
0010
1000
1000
0000
,  // measure 24
0001
0100
0010
1000
,  // measure 25
0100
0010
0001
1000
,  // measure 26
0000
0000
0001
1000
,  // measure 27
0010
1000
1000
0000
,  // measure 28
0001
0100
0010
1000
,  // measure 29
0000
0001
0000
1001
,  // measure 30
0000
0000
0010
0010
,  // measure 31
1000
0001
1000
0000
,  // measure 32
0010
1000
0001
0010
,  // measure 33
0100
1000
0000
1001
,  // measure 34
1000
0000
0001
1000
0001
0000
1000
0000
,  // measure 35
0010
0000
1000
0100
0001
0000
0001
0000
,  // measure 36
0001
0000
0001
0100
1000
0000
0010
1000
,  // measure 37
0000
0020
0000
2030
0000
0000
3000
0000
,  // measure 38
1001
0000
0010
1000
0010
0000
1000
0000
,  // measure 39
0001
0000
1000
0010
1000
0000
0001
0000
,  // measure 40
0010
0000
0100
1000
0001
0000
0100
0000
,  // measure 41
0010
1000
0000
0001
1000
0001
1000
0000
,  // measure 42
0000
1001
0000
0000
1100
0000
0000
0000
,  // measure 43
0000
1001
0000
0000
1010
0000
0000
0000
,  // measure 44
0000
0101
0000
0000
1001
0000
1000
0000
,  // measure 45
0000
1001
0000
0000
0010
0000
1000
0000
,  // measure 46
0001
0000
1000
0000
0001
2000
0000
3000
,  // measure 47
0010
0000
1000
0000
0001
2000
0000
0000
,  // measure 48
3000
0000
0000
0000
0000
0020
0000
1030
,  // measure 49
0001
2000
0000
3001
1000
0002
0003
0000
,  // measure 50
1000
0000
0010
0000
1000
0020
0000
0030
,  // measure 51
1000
0000
0001
0000
1000
0001
0000
0000
,  // measure 52
1000
0000
0010
0000
1000
0010
0000
1000
,  // measure 53
0001
1000
0000
0001
1000
0001
1000
0000
,  // measure 54
1000
0010
0010
1010
,  // measure 55
1001
0000
1000
0000
0001
2000
0000
0000
,  // measure 56
3000
0000
0000
0001
1000
0001
0000
1000
,  // measure 57
0010
1000
0000
0001
1000
0000
0001
1000
,  // measure 58
0001
0000
0100
0010
0100
0000
0001
0010
,  // measure 59
0001
0000
1000
0100
1000
0000
0001
1000
,  // measure 60
0001
0000
1000
0010
1000
0000
0001
1000
,  // measure 61
0001
1000
1001
1001
,  // measure 62
0000
0000
1000
0010
,  // measure 63
0100
0001
0001
0000
,  // measure 64
1000
0010
0100
0001
,  // measure 65
0010
0100
1000
0001
,  // measure 66
0000
0000
1000
0010
,  // measure 67
1000
0001
1000
0000
,  // measure 68
0010
1000
0001
0010
,  // measure 69
0100
0100
0100
0100
,  // measure 70
0000
0000
1000
0001
,  // measure 71
1000
0010
0010
0000
,  // measure 72
1000
0100
0010
0001
,  // measure 73
0100
0010
0000
1010
,  // measure 74
0000
0000
0001
1000
,  // measure 75
0010
1000
1000
0000
,  // measure 76
0001
0100
0010
1000
,  // measure 77
0001
1000
1001
0000
;

//---------------dance-single - ----------------
#NOTES:
     dance-single:
     :
     Easy:
     5:
     0.220,0.304,0.048,0.079,0.000: // measure 1
0000
0000
0000
0000
,  // measure 2
0000
0000
0000
0000
,  // measure 3
0000
1000
0000
0000
,  // measure 4
0000
0001
0000
0000
,  // measure 5
0000
0010
0000
0100
,  // measure 6
0000
1000
0000
0001
,  // measure 7
0000
1000
0000
0010
,  // measure 8
0000
1000
0000
0001
,  // measure 9
0000
1000
0000
0010
,  // measure 10
1000
1000
0001
1000
,  // measure 11
1000
0010
0000
1000
,  // measure 12
0000
0001
0000
1000
,  // measure 13
0000
0010
0000
1000
,  // measure 14
0001
1000
0001
0100
,  // measure 15
0010
0100
0010
1000
,  // measure 16
0100
1000
0001
0100
,  // measure 17
0010
1000
0000
1001
,  // measure 18
0000
0000
0000
1000
,  // measure 19
0001
1000
0001
0000
,  // measure 20
0000
0100
0000
0010
,  // measure 21
0000
1000
0010
1000
,  // measure 22
0000
0000
0000
0001
,  // measure 23
1000
0001
1000
0000
,  // measure 24
0000
0010
0000
1000
,  // measure 25
0000
0001
1000
0001
,  // measure 26
0000
0000
0000
1000
,  // measure 27
0000
0010
1000
0000
,  // measure 28
0000
0001
0000
0100
,  // measure 29
0000
0010
0000
1010
,  // measure 30
0000
0000
0000
1000
,  // measure 31
0000
0001
1000
0000
,  // measure 32
0000
0001
0000
1000
,  // measure 33
0000
0001
0000
1001
,  // measure 34
0000
1000
0000
0010
,  // measure 35
0000
1000
0000
0001
,  // measure 36
1000
0010
0000
2000
,  // measure 37
0000
3000
0000
0002
,  // measure 38
0000
0003
0000
0020
,  // measure 39
0000
0030
0000
0200
,  // measure 40
0000
0300
0000
1000
,  // measure 41
0000
0001
0000
1000
0000
0000
0001
0000
,  // measure 42
0000
1000
0000
0000
0001
0000
0100
0000
,  // measure 43
0000
0010
0000
0000
1000
0000
0001
0000
,  // measure 44
0000
1000
0000
0000
0010
0000
0000
0000
,  // measure 45
0000
1000
0000
0000
0001
0000
1000
0000
,  // measure 46
1000
0010
0010
1000
,  // measure 47
0001
1000
0010
1000
,  // measure 48
0001
0000
0100
0000
0000
0002
0000
0000
,  // measure 49
0000
2003
0000
0000
3000
0010
0000
0000
,  // measure 50
1000
0000
0001
0000
0000
1000
0000
0000
,  // measure 51
0010
0000
1000
0000
0000
0200
0000
0000
,  // measure 52
0300
0000
0000
0000
0000
0001
0000
0100
,  // measure 53
0000
1000
0000
0100
0000
0000
0001
0000
,  // measure 54
0001
1000
0010
1000
,  // measure 55
1000
0000
0001
0000
0000
2000
0000
0000
,  // measure 56
3000
0000
0000
0000
0000
0002
0000
0000
,  // measure 57
0000
2003
0000
0000
0000
0000
3010
0000
,  // measure 58
0010
0100
0100
0001
,  // measure 59
1001
1000
0010
1000
,  // measure 60
0010
1000
0001
1000
,  // measure 61
0001
1000
0000
1001
,  // measure 62
0000
0000
0000
1000
,  // measure 63
0001
1000
0000
0000
,  // measure 64
0000
0001
0000
0100
,  // measure 65
0000
0001
0100
0001
,  // measure 66
0000
0100
0000
0010
,  // measure 67
0000
1000
0010
0000
,  // measure 68
0000
1000
0000
0001
,  // measure 69
0000
1000
0001
1000
,  // measure 70
0000
0010
0000
1000
,  // measure 71
0000
0001
1000
0000
,  // measure 72
0000
0001
0000
1000
,  // measure 73
0001
1000
0000
0010
,  // measure 74
0000
1000
0000
0001
,  // measure 75
0000
0100
0001
0000
,  // measure 76
0000
1000
0000
0001
,  // measure 77
0000
0001
1001
0000
;

//---------------dance-single - Copied from----------------
#NOTES:
     dance-single:
     Copied from:
     Beginner:
     2:
     0.113,0.121,0.064,0.000,0.000: // measure 1
0000
0000
0000
0000
,  // measure 2
0000
0000
0000
0000
,  // measure 3
0000
0000
0000
0000
,  // measure 4
0000
1000
0000
0000
,  // measure 5
0000
0000
0000
0000
,  // measure 6
0000
0001
0000
0000
,  // measure 7
0000
0010
0000
0000
,  // measure 8
0000
0100
0000
0000
,  // measure 9
0000
1000
0000
0001
,  // measure 10
0000
0000
0000
1000
,  // measure 11
0000
0000
0000
0010
,  // measure 12
0000
0000
0000
0100
,  // measure 13
0000
0000
0000
1000
,  // measure 14
0000
1000
0000
0001
,  // measure 15
0000
0001
0000
0010
,  // measure 16
0000
0100
0000
0010
,  // measure 17
0000
0000
0000
1001
,  // measure 18
0000
0000
0000
1000
,  // measure 19
0000
1000
0000
0000
,  // measure 20
0000
0001
0000
0001
,  // measure 21
0000
1000
0000
0010
,  // measure 22
0000
0000
0000
0100
,  // measure 23
0000
0100
0000
0000
,  // measure 24
0000
0001
0000
0001
,  // measure 25
0000
0000
0000
1001
,  // measure 26
0000
0000
0000
0010
,  // measure 27
0000
0010
0000
0000
,  // measure 28
0000
0100
0000
0100
,  // measure 29
0000
0000
0000
1001
,  // measure 30
0000
0000
0000
0010
,  // measure 31
0000
0010
0000
0000
,  // measure 32
0000
1000
0000
0000
,  // measure 33
0000
1000
0000
0000
,  // measure 34
1001
0000
0000
1000
,  // measure 35
0000
0000
0000
0001
,  // measure 36
0000
0000
0000
0010
,  // measure 37
0000
0000
0000
0100
,  // measure 38
0000
0000
0000
1000
,  // measure 39
0000
0000
0000
0001
,  // measure 40
0000
0000
0000
0110
,  // measure 41
0000
0000
0000
0000
,  // measure 42
0000
0000
1000
0000
,  // measure 43
0000
1000
0001
0000
,  // measure 44
0000
0000
0010
0000
,  // measure 45
0000
0000
1001
0000
,  // measure 46
1000
1000
0000
0000
,  // measure 47
0000
0001
0000
0000
,  // measure 48
0000
0010
0000
0000
,  // measure 49
0000
0100
0000
0000
,  // measure 50
0000
1000
0000
0000
,  // measure 51
0000
0001
0000
0000
,  // measure 52
0000
0010
0000
0010
,  // measure 53
0000
0100
0000
0000
,  // measure 54
0000
1000
1000
1000
,  // measure 55
0000
0001
0000
0000
,  // measure 56
0000
0000
0000
0010
,  // measure 57
0000
0100
0000
0010
,  // measure 58
0000
0000
0000
0000
,  // measure 59
1000
0000
0000
0000
,  // measure 60
0001
0000
0000
0000
,  // measure 61
0010
0000
0000
1001
,  // measure 62
0000
0000
0000
1000
,  // measure 63
0000
1000
0000
0000
,  // measure 64
0000
0001
0000
1000
,  // measure 65
0000
0001
0000
1000
,  // measure 66
0000
0000
0000
0010
,  // measure 67
0000
0010
0000
0000
,  // measure 68
0000
0100
0000
0000
,  // measure 69
0000
0001
0000
0001
,  // measure 70
0000
0000
0000
1000
,  // measure 71
0000
1000
0000
0000
,  // measure 72
0000
0010
0000
0000
,  // measure 73
0000
0100
0000
0100
,  // measure 74
0000
0000
0000
0001
,  // measure 75
0000
0001
0000
0000
,  // measure 76
0000
1000
0000
0001
,  // measure 77
0000
0000
1001
0000
;
