#TITLE:Crescent Island;
#SUBTITLE:[Diddy Kong Racing];
#ARTIST:David Wise;
#TITLETRANSLIT:;
#SUBTITLETRANSLIT:;
#ARTISTTRANSLIT:;
#CREDIT:;
#BANNER:CrescentIsland-ban.png;
#BACKGROUND:CrescentIsland-bg.png;
#LYRICSPATH:;
#CDTITLE:CDTitle.png;
#MUSIC:[Diddy Kong Racing] - Crescent Island.mp3;
#OFFSET:0.040;
#SAMPLESTART:33.940;
#SAMPLELENGTH:12.000;
#SELECTABLE:YES;
#BPMS:0.000=137.950;
#STOPS:;
#BGCHANGES:;

//---------------dance-single - ----------------
#NOTES:
     dance-single:
     :
     Hard:
     12:
     0.625,0.592,0.246,0.179,0.525:
0000
0000
0000
0000
,
0000
0000
0000
0000
1000
0000
0000
0001
0000
0000
0010
0000
0000
0000
0100
0000
,
1100
0000
0000
0000
1001
0000
0000
0001
0000
0000
0100
0000
0000
0000
0010
0000
,
1000
0000
0010
0000
1010
0000
0000
1000
0000
0000
0010
0000
0000
0000
0100
0000
,
0001
0000
0010
0000
0100
0000
1000
0001
0000
1000
0001
0000
0000
1000
0100
1000
,
0100
0000
0010
0000
0001
0000
0100
0000
0001
0000
1000
0100
0000
0000
1000
0000
,
0000
0100
0000
0000
0001
0000
0000
0100
0000
0000
1000
0000
0000
0001
0100
0001
,
0100
0001
0100
0000
0010
0000
1000
0000
0001
0000
1000
0010
0000
0000
1000
0000
,
0100
0000
0010
0000
0001
0000
0010
0100
0000
1000
0100
0000
0010
0000
0001
0010
,
0000
0100
0010
0000
0001
0000
1000
0100
0000
1000
0100
0000
0010
0000
0001
0100
,
0000
0001
0100
0000
0010
0000
1000
0010
0000
1000
0010
0000
0000
1000
0001
1000
,
0001
1000
0001
0000
1000
0000
0010
0000
1000
0000
0001
0010
0000
0000
0000
0000
,
0000
0000
0001
1000
0001
0000
0000
1001
0000
0000
1000
0000
0100
0000
0000
1100
,
0000
0000
0100
0000
0010
0000
0000
0001
0000
0000
0010
0000
0001
0000
0000
0000
,
0000
0000
1000
0100
1000
0000
0000
1100
0000
0000
0100
0000
0010
0000
0000
0110
,
0000
0000
0010
0000
0001
0000
1000
0010
0000
1000
0010
0000
1000
0001
1000
0001
,
1000
0000
0000
0000
0002
0000
0000
1000
0000
0000
1003
0000
0000
0000
0010
0000
,
0100
0000
0001
0000
2000
0000
0000
0010
0000
0000
3010
0000
0000
0000
0100
0000
,
0101
0000
0000
0000
2000
0000
0000
0010
0000
0000
3010
0000
0000
0000
0001
0000
,
0010
0000
1000
0000
0002
0000
0000
0100
0000
0000
0103
0000
0000
0000
0010
0000
,
1000
0000
0001
0000
1001
0000
1000
0100
0000
1000
0200
0000
0000
0000
0000
0000
,
0310
0000
0001
0000
0100
0000
0100
0000
0010
0000
1000
0001
0000
0000
0000
0000
,
1000
0000
0010
0000
0100
0000
0001
0100
0000
0100
0001
0000
0000
1000
0001
0000
,
1000
0000
1000
0000
0001
0000
0100
0000
0010
0000
1000
0010
0000
0000
0000
0000
,
1000
0100
0020
0000
0031
0010
0200
0000
,
1300
0000
0100
0000
0020
0000
0000
0000
0130
0000
1000
0100
0000
0000
0000
0000
,
0001
0000
0010
0000
0001
0000
0000
0001
0000
0000
0001
0000
0000
0000
0000
0000
,
0001
0000
0001
0000
1000
0000
1000
0000
0010
0000
0100
0001
0000
1000
0010
0100
,
0001
0000
1000
0001
1000
0000
0000
1001
0000
0000
0001
0000
0100
0000
0000
0101
,
0000
0000
0001
0000
0100
0000
0000
0100
0000
0000
0010
0000
1000
0000
0000
0000
,
0000
0000
0001
1000
0001
0000
0000
1001
0000
0000
0100
0000
1000
0000
0000
1100
,
0000
0000
0100
0000
0020
0000
0000
0001
0000
0000
0001
0000
0031
0000
0000
0000
,
1000
0000
0001
0000
1000
0000
0000
1000
0000
0000
0010
0000
0100
0000
0000
0100
,
0000
0000
0001
0000
1000
0000
0000
1000
0000
0000
0001
0000
0100
0000
0000
0000
,
0010
0000
0010
0000
0000
0000
0000
1000
0001
1000
0001
1000
0001
0000
1000
0000
,
0010
0000
1000
0000
0100
0000
0010
0100
0000
1000
0100
0000
0010
0000
0000
0000
,
0001
0000
0100
0000
0002
0000
0000
1000
0000
0000
1003
0000
2000
0000
0000
0010
,
0000
0000
3010
0000
0020
0000
0000
1000
0000
0000
1030
0000
0001
0000
0000
0000
,
1000
1000
0000
0000
1000
0010
0001
0010
,
0100
0000
0010
0000
1000
0000
0000
0000
0001
0000
0000
1000
0100
1000
0100
0000
,
0010
0000
0000
0000
0001
0000
1000
0001
0000
1000
0001
0000
2000
0000
0000
0000
,
3001
0000
0100
0000
0010
0000
1000
0010
0000
1000
0010
0000
2000
0000
0000
0000
,
3001
0000
1000
0000
0010
0000
0100
0001
0000
0100
0001
0000
2000
0000
0000
0000
,
3001
0000
0100
0000
0010
0000
1000
0001
0000
1000
0100
0000
0010
0001
0010
0001
,
0010
0000
0100
0000
1000
0000
0000
1001
0000
0000
1000
0000
0100
0000
0010
0000
,
0001
0000
0010
0000
0100
0000
0000
1100
0000
0000
1000
0000
0010
0000
0100
0000
,
0001
0000
0100
0000
0001
0000
0000
1001
0000
0000
1000
0000
0001
0100
0001
0100
,
0001
0000
1000
0000
0010
0000
0000
1010
0000
0000
1000
0000
0001
0000
0100
0000
,
0010
1000
1001
0000
1100
0000
0011
0000
,
1001
0000
0000
0000
1100
0000
0000
0000
1000
0000
0000
1000
0100
0000
0010
0000
,
0001
0000
1000
0001
2000
0000
0000
0000
3000
0000
0000
0000
0000
0000
0000
0000
;

//---------------dance-single - ----------------
#NOTES:
     dance-single:
     :
     Easy:
     5:
     0.260,0.309,0.123,0.089,0.078: // measure 1
0000
0000
0000
0000
,  // measure 2
0000
0000
1000
0000
0000
0001
0000
0000
,  // measure 3
1001
0000
0010
0000
0000
0100
0000
0000
,  // measure 4
0010
0000
1001
0000
0000
1000
0000
0000
,  // measure 5
0001
0000
1000
0000
0000
1000
0000
0000
,  // measure 6
0000
0000
0001
1000
0001
0000
0000
0000
,  // measure 7
0000
0000
1000
0000
0000
0001
0000
0000
,  // measure 8
0000
0000
1000
0100
1000
0000
0000
0000
,  // measure 9
0000
1000
0001
0100
,  // measure 10
0010
1000
0001
1000
,  // measure 11
0010
0000
1000
0000
0000
0001
0000
0000
,  // measure 12
0000
1000
0000
0000
,  // measure 13
0000
0000
0000
0000
0001
0000
0000
1000
0000
0000
0000
0000
0001
0000
0000
1000
,  // measure 14
0000
0000
0000
0000
0001
0000
0000
0010
0000
0000
0000
0000
0001
0000
0000
0000
,  // measure 15
0000
0000
0000
0000
1000
0000
0000
0100
0000
0000
0000
0000
0010
0000
0000
0001
,  // measure 16
0000
1000
0000
0001
,  // measure 17
0000
0000
1000
0000
0000
0001
0000
0000
,  // measure 18
0010
0000
0100
0000
0000
1000
0000
0000
,  // measure 19
1001
0000
0010
0000
0000
0100
0000
0000
,  // measure 20
0001
0000
1000
0000
0000
0001
0000
0000
,  // measure 21
1000
0000
0001
0000
0000
1000
0000
0000
,  // measure 22
0000
0000
0010
0000
0000
1000
0000
0000
,  // measure 23
0001
0000
0010
0000
0000
0100
0000
0000
,  // measure 24
0000
0000
1000
0000
0000
0001
0000
0000
,  // measure 25
1000
0000
0010
0000
1000
0001
1000
0000
,  // measure 26
0001
0010
0100
1000
,  // measure 27
0001
1000
0001
0000
0000
1000
0000
0000
,  // measure 28
0000
0000
0010
0000
0000
1000
0000
0000
,  // measure 29
0000
0000
0000
0000
0001
0000
0000
0100
0000
0000
0000
0000
0010
0000
0000
1000
,  // measure 30
0000
0000
0000
0000
0001
0000
0000
1000
0000
0000
0000
0000
0010
0000
0000
0000
,  // measure 31
0000
0000
0000
0000
1000
0000
0000
0100
0000
0000
0000
0000
0010
0000
0000
0001
,  // measure 32
0000
1000
0000
0001
,  // measure 33
0000
1000
0000
0001
,  // measure 34
0000
0100
0000
0010
,  // measure 35
1000
1000
0000
0000
0000
0000
0000
0000
,  // measure 36
0001
1000
0000
0001
,  // measure 37
1000
0010
1000
0000
0000
0000
0001
0000
,  // measure 38
0000
0010
0000
0100
,  // measure 39
1000
0001
0000
0000
1000
0000
0001
0000
,  // measure 40
0100
0010
1000
0001
,  // measure 41
1000
2002
0000
3003
,  // measure 42
1100
2002
0000
0000
,  // measure 43
3003
0022
0000
0033
,  // measure 44
1001
2200
0000
3300
,  // measure 45
0000
0000
0000
0000
1000
0000
0000
1000
0000
0000
0000
0000
0000
0000
0000
0000
,  // measure 46
0001
0000
1000
0000
0001
0000
0000
1000
0000
0000
0000
0000
0000
0000
0000
0000
,  // measure 47
0000
0000
0000
0000
0001
0000
0000
0001
0000
0000
0000
0000
0000
0000
0000
0000
,  // measure 48
1000
0000
0010
0000
1000
0000
0000
0001
0000
0000
0000
0000
0000
0000
0000
0000
,  // measure 49
0000
1000
0001
0100
,  // measure 50
0010
0000
1001
0000
1000
0000
0001
1000
,  // measure 51
0001
1001
0000
0000
;

//---------------dance-single - ----------------
#NOTES:
     dance-single:
     :
     Medium:
     9:
     0.459,0.449,0.246,0.100,0.290:
0000
0000
0000
0000
,
0000
0000
0000
0000
1000
0000
0000
0001
0000
0000
1000
0000
0000
0000
0000
0000
,
1001
0000
0000
0000
0001
0000
0000
0100
0000
0000
0010
0000
0000
0000
0000
0000
,
1000
0000
0000
0000
0001
0000
0000
1000
0000
0000
0010
0000
0000
0000
0000
0000
,
1000
0000
0001
0000
1000
0000
0000
0001
0000
0000
0100
0000
0000
0000
0010
0000
,
1000
0000
0000
0000
0001
0000
0010
0000
0001
0000
0000
1000
0000
0000
0010
0000
,
0000
1000
0000
0000
0010
0000
0000
1000
0000
0000
0010
0000
0000
0000
1000
0000
,
0001
0000
0010
0000
0100
0000
1000
0000
0001
0000
0000
0100
0000
0000
0010
0000
,
1000
0000
0010
0000
1000
0000
0000
0001
0000
0000
1000
0000
0010
0000
0000
0100
,
0000
0000
0001
0000
0010
0000
0000
0100
0000
0000
1000
0000
0001
0000
0000
0100
,
0000
0000
0010
0000
1000
0000
0000
1000
0000
0000
1000
0000
0000
0000
0001
0000
,
1000
0000
0001
0000
1000
0000
0010
0000
1000
0000
0000
0100
0000
0000
0000
0000
,
0000
0000
0001
0000
1000
0000
0000
1001
0000
0000
0000
0000
1000
0000
0000
1001
,
0000
0000
0000
0000
0001
0000
0000
1000
0000
0000
0010
0000
0100
0000
0000
0000
,
0000
0000
0001
0000
0010
0000
0000
0011
0000
0000
0001
0000
1000
0000
0000
1001
,
0000
0000
1000
0000
0020
0000
0000
1000
0000
0000
1000
0000
1030
0000
0000
0000
,
1001
0000
0000
0000
1000
0000
0000
0010
0000
0000
1000
0000
0000
0000
0001
0000
,
0010
0000
0100
0000
1000
0000
0000
0001
0000
0000
1000
0000
0000
0000
0000
0000
,
1001
0000
0000
0000
0010
0000
0000
0100
0000
0000
0010
0000
0000
0000
1000
0000
,
0100
0000
0001
0000
0100
0000
0000
1000
0000
0000
0010
0000
0000
0000
1000
0000
,
0010
0000
0100
0000
0001
0000
0000
0001
0000
0000
0001
0000
0000
0000
1000
0000
,
0010
0000
0000
0000
1000
0000
0001
0000
0010
0000
0000
0100
0000
0000
0000
0000
,
1000
0000
0001
0000
1000
0000
0000
0010
0000
0000
0100
0000
0000
0000
0001
0000
,
0010
0000
0100
0000
1000
0000
0001
0000
0100
0000
0000
0010
0000
0000
0000
0000
,
1000
0100
2000
0000
3001
0010
0002
0000
,
1003
0000
0010
0000
2000
0000
0000
0000
3001
0000
0000
0001
0000
0000
0000
0000
,
1000
0000
0010
0000
1000
0000
0000
1000
0000
0000
0001
0000
0000
0000
0000
0000
,
1001
0000
0000
0000
0010
0000
1000
0000
0010
0000
0000
2000
0000
0000
0001
0000
,
3001
0000
1000
0000
0001
0000
0000
1001
0000
0000
0001
0000
0100
0000
0000
0101
,
0000
0000
0001
0000
0010
0000
0000
0010
0000
0000
0100
0000
1000
0000
0000
0000
,
0000
0000
0001
0000
1000
0000
0000
1001
0000
0000
1000
0000
0100
0000
0000
1100
,
0000
0000
0100
0000
0020
0000
0000
0001
0000
0000
0001
0000
0031
0000
0000
0000
,
1000
0000
0001
0000
1000
0000
0000
0100
0000
0000
1000
0000
0100
0000
0000
0001
,
0000
0000
0100
0000
1000
0000
0000
0100
0000
0000
0010
0000
0001
0000
0000
0000
,
1000
0001
0000
0000
0100
0100
0100
0000
,
0010
0000
1000
0000
0010
0000
0000
1000
0000
0000
0001
0000
0010
0000
0000
0000
,
0100
0000
1000
0000
0100
0000
0000
0010
0000
0000
0001
0000
0100
0000
0000
1000
,
0000
0000
0100
0000
0001
0000
0000
0100
0000
0000
0010
0000
1000
0000
0000
0000
,
0001
0001
0000
0000
1000
0010
1000
0001
,
1000
0100
0010
0000
0001
0000
1000
0100
,
1000
0000
0000
0000
0002
0000
0000
1000
0000
0000
0000
0000
0000
0000
0000
0000
,
0103
0000
0010
0000
0200
0000
0000
0001
0000
0000
0000
0000
0000
0000
0000
0000
,
0301
0000
1000
0000
0020
0000
0000
1000
0000
0000
1000
0000
0000
0000
0000
0000
,
1000
0000
1000
0000
1030
0000
0000
0001
0000
0000
1000
0000
0000
0000
0010
0000
,
1000
0000
0000
0000
0001
0000
0000
1001
0000
0000
0000
0000
0000
0000
0000
0000
,
1000
0000
0010
0000
0100
0000
0000
0101
0000
0000
0000
0000
0000
0000
0000
0000
,
0000
0000
0000
0000
1000
0000
0000
1001
0000
0000
0000
0000
0000
0000
0000
0000
,
0001
0000
0100
0000
0010
0000
0000
0110
0000
0000
0000
0000
0000
0000
0000
0000
,
0000
1100
1001
0101
,
0011
0000
1001
0000
1000
0000
0010
0100
,
0001
1000
1001
0000
0000
0000
0000
0000
;

//---------------dance-single - ----------------
#NOTES:
     dance-single:
     :
     Beginner:
     1:
     0.107,0.110,0.033,0.000,0.000:
0000
0000
0000
0000
,
0000
0000
0000
0000
,
1001
0000
0000
0000
,
0000
0000
0000
0000
,
0010
0010
0000
0000
,
0000
0100
0000
0000
,
0000
0001
0000
0000
,
0000
0100
0000
0000
,
0000
0010
0000
0010
,
0000
1000
0000
1000
,
0000
0001
0000
0000
,
0000
1000
0000
0000
,
0000
0000
0000
1000
,
0000
0001
0000
1000
,
0000
0010
0000
0100
,
0000
0010
0000
0000
,
0000
0001
0000
0000
,
0000
1000
0000
0000
,
1001
0000
0000
0000
,
0000
0010
0000
0000
,
0000
1000
0000
0000
,
0000
1000
0000
0000
,
0000
0001
0000
0000
,
0000
0010
0000
0000
,
0000
0100
0000
0100
,
0000
0100
0000
0000
,
0000
0010
0000
0000
,
0000
0010
0000
0000
,
0000
0000
0000
0001
,
0000
1000
0000
0010
,
0000
0100
0000
0001
,
0000
1000
0000
0000
,
0000
1000
0000
0100
,
0000
0010
0000
0001
,
0000
0000
0000
0000
,
0000
1000
0000
0001
,
0000
0100
0000
0100
,
0000
0001
0000
0001
,
0000
0000
0000
1000
,
0000
1000
0000
0000
,
0000
0001
0000
0000
,
0100
0100
0000
0000
,
0000
0001
0000
0000
,
1000
1000
0000
0000
,
0000
1000
0000
0000
,
0001
0001
0000
0000
,
0000
0100
0000
0000
,
0010
0010
0000
0000
,
0000
0001
0000
1000
,
0000
1001
0000
0000
;

//---------------dance-double - ----------------
#NOTES:
     dance-double:
     :
     Hard:
     12:
     0.525,0.507,0.279,0.212,0.313:
00000000
00000000
00000000
00000000
,
00000000
00000000
00000000
00000000
00010000
00000000
00000000
00001000
00000000
00000000
00010000
00000000
00000000
00000000
00001000
00000000
,
00011000
00000000
00010000
00000000
00000010
00010000
00000000
00000010
,
00010000
00000000
00001000
00000000
00011000
00000000
00000000
00001000
00000000
00000000
00100000
00000000
00000000
00000000
00010000
00000000
,
01000000
00000000
00100000
00000000
10000000
00000000
00000000
00010000
00000000
00000000
10000000
00000000
00000000
00100000
10000000
00100000
,
10000000
00000000
00000000
00000000
00010000
00000000
01000000
00000000
00001000
00000000
01000000
00001000
00000000
00000000
00010000
00000000
,
00000000
00000100
00000000
00000000
00001000
00000000
00000000
00000010
00000000
00000000
00000100
00000000
00000000
00000000
00000001
00000000
,
00001000
00000000
00000001
00000000
00001000
00000000
00000100
00000000
00000010
00000000
00000001
00000010
00000000
00000000
00000100
00000000
,
00010000
00000000
00000100
00000000
00010000
00000000
00000000
00001000
00000000
00000000
00010000
00000000
00001000
00000000
00000000
00100000
,
00000000
00000000
00010000
00000000
10000000
00000000
00000000
01000000
00000000
00000000
00010000
00000000
01000000
00000000
00000000
00100000
,
00000000
00000000
00010000
00000000
00100000
00000000
00000000
01000000
00000000
00000000
10000000
00000000
00000000
00000000
00010000
00000000
,
01000000
00000000
00010000
00000000
01000000
00000000
00001000
00000000
00010000
00000000
00001000
00010000
00000000
00000000
00000000
00000000
,
00000000
00000000
00000001
00001000
00000001
00000000
00000000
00001001
00000000
00000000
00000010
00000000
00010000
00000000
00000000
00010100
,
00000000
00000000
00001000
00000000
00100000
00000000
00000000
00010000
00000000
00000000
01000000
00000000
00100000
00000000
00000000
00000000
,
00000000
00000000
10000000
01000000
10000000
00000000
00000000
11000000
00000000
00000000
01000000
00000000
00100000
00000000
00000000
01100000
,
00000000
00000000
00100000
00000000
00002000
00000000
00000000
00100000
00000000
00000000
00100000
00000000
00103000
00000000
00010000
00000000
,
00110000
00000000
00000000
00000000
00020000
00000000
00000000
00000100
00000000
00000000
00030100
00000000
00000000
00000000
00001000
00000000
,
00000010
00000000
00000100
00000000
00000002
00000000
00000000
00001000
00000000
00000000
00001003
00000000
00000000
00000000
00000010
00000000
,
00001001
00000000
00000000
00000000
00000002
00000000
00000000
00001000
00000000
00000000
00001003
00000000
00000000
00000000
00000010
00000000
,
00001000
00000000
00000100
00000000
00020000
00000000
00000000
00000010
00000000
00000000
00030010
00000000
00000000
00000000
00000100
00000000
,
00000010
00010000
00012000
00000000
00000000
01003000
00000000
00000000
,
00010000
00000000
10000000
00000000
00010000
00000000
01000000
00000000
00100000
00000000
10000000
00100000
00000000
00000000
00000000
00000000
,
10000000
00010000
02000000
00000000
00000000
03010000
00000000
00000000
,
00010000
00000000
00000100
00000000
00010000
00000000
00000100
00000000
00001000
00000000
00000010
00000100
00000000
00000000
00000000
00000000
,
00000001
00000010
00002000
00000000
00013000
00100000
20000000
00000000
,
30100000
00000000
00010000
00000000
00002000
00000000
00000000
00000000
00003010
00000000
00000000
00000001
00000000
00000000
00000000
00000000
,
00000001
00000000
00001000
00000000
00000010
00000000
00000000
00010000
00000000
00000000
00001000
00000000
00000000
00000000
00000000
00000000
,
10000000
00000000
00010000
00000000
01000000
00000000
00001000
00000000
00010000
00000000
00000100
00001000
00000000
00000100
00001000
00000100
,
00001000
00000000
00000100
00010000
00000100
00000000
00000000
00010100
00000000
00000000
00001000
00000000
00100000
00000000
00000000
00101000
,
00000000
00000000
00010000
00000000
10000000
00000000
00000000
01000000
00000000
00000000
00010000
00000000
01000000
00000000
00000000
00000000
,
00000000
00000000
10000000
00010000
10000000
00000000
00000000
01010000
00000000
00000000
00100000
00000000
00001000
00000000
00000000
00101000
,
00000000
00000000
00010000
00000000
00001000
00000000
00000000
00010000
00000000
00000000
00000100
00000000
00001000
00000000
00000000
00000000
,
00000001
00000000
00000010
00000000
00000001
00000000
00000000
00000001
00000000
00000000
00000001
00000000
00001000
00000000
00000000
00001000
,
00000000
00000000
00001000
00000000
00000100
00000000
00000000
00000100
00000000
00000000
00000100
00000000
00020000
00000000
00000000
00000000
,
00001000
00031000
00000000
00000000
00000000
00000000
00000000
00000000
,
10000000
00000000
00100000
00000000
10000000
00000000
00000000
00100000
00000000
10000000
00010000
00000000
10000000
00000000
00000000
00000000
,
10000000
00000000
01000000
00000000
00010000
00000000
00000000
00001000
00000000
00000000
00000100
00000000
00000001
00000000
00000000
00000001
,
00000000
00000000
00000100
00000000
00001000
00000000
00000000
00010000
00000000
00000000
01000000
00000000
20000000
00000000
00000000
00000000
,
01000000
31000000
00000000
00000000
00100000
00010000
01000000
00100000
,
00001000
00100000
01000000
00000000
01010000
00000000
00010000
10000000
,
00010000
20020000
00000000
00030000
,
00100000
00100000
30200000
00000000
00000000
00000000
01300000
00001000
,
00010000
00000100
00020200
00000000
00000000
00000000
00000300
00000000
,
00000010
00000010
00030020
00000000
00000000
00000000
00001030
00000001
,
00001000
00000000
00000100
00000000
00010000
00000000
00000000
00010100
00000000
00000000
00000000
00000000
00000000
00000000
00000000
00000000
,
00010000
00000000
01000000
00000000
00010000
00000000
00000000
01010000
00000000
00000000
00000000
00000000
10000000
00000000
00010000
00000000
,
01000000
00000000
00001000
00000000
01000000
00000000
00000000
01001000
00000000
00000000
00000000
00000000
00100000
00000000
00001000
00000000
,
00010000
00000000
00000100
00000000
00010000
00000000
00000000
00010100
00000000
00000000
00000000
00000000
00001000
00000000
00000010
00000000
,
00001000
00000001
00001001
00000000
00001010
00000000
00010100
00000000
,
00101000
00000000
00000000
00000000
01001000
00000000
00000000
00000000
00001000
00000000
00000000
00001000
01000000
00000000
01000000
00000000
,
00010000
00000000
10000000
00010000
20000000
00000000
00000000
00000000
30000000
00000000
00000000
00000000
00000000
00000000
00000000
00000000
;
