#TITLE:Chipscape;
#SUBTITLE:;
#ARTIST:t+pazolite;
#TITLETRANSLIT:;
#SUBTITLETRANSLIT:;
#ARTISTTRANSLIT:;
#CREDIT:;
#BANNER:;
#BACKGROUND:;
#LYRICSPATH:;
#CDTITLE:;
#MUSIC:chipscape.ogg;
#OFFSET:-0.060;
#SAMPLESTART:68.213;
#SAMPLELENGTH:12.000;
#SELECTABLE:YES;
#BPMS:0.000=220.000,128.000=110.000,144.000=220.000,400.000=110.000;
#STOPS:;
#BGCHANGES:;

//---------------dance-single - ----------------
#NOTES:
     dance-single:
     :
     Challenge:
     19:
     1.000,1.000,0.024,0.759,1.000:
0000
0000
0000
0000
,
0000
0000
0000
0000
,
1000
0000
0100
0010
0001
0000
0100
0000
0010
0000
1000
0000
0010
0000
0200
0000
,
0000
0000
0301
0000
0010
0000
0100
0000
1000
0000
0001
0100
0001
0000
0000
0000
,
0010
0000
0100
1000
0100
0000
0010
0000
0001
0000
0100
0000
0010
0000
2000
0000
,
0000
0000
3010
0000
0100
0000
0001
0000
0010
0000
0100
1000
0100
0000
0010
0000
,
0001
0000
0100
0010
1000
0000
0010
0000
0100
0000
0001
0000
0010
0000
0100
0000
,
1000
0100
1000
0000
0001
0010
0001
0000
1000
0100
0010
0000
0001
0100
0001
0000
,
1000
0000
0100
0010
0100
0000
1000
0001
0100
0001
1000
0000
0100
0000
0010
0000
,
0000
0000
0001
0000
0010
0000
0100
0000
1000
0000
0001
0010
0100
0000
1000
0000
,
0010
0000
0100
0001
0010
0000
0100
1000
0001
1000
0001
0000
0010
0000
0100
0000
,
0000
0000
1000
0000
0001
0000
0100
0000
0101
0000
0010
1000
0010
0000
0000
0000
,
0100
0000
0001
0010
0100
0000
1000
0001
0100
0001
0100
0000
0010
0000
1000
0000
,
0100
0000
0010
0001
1000
0000
0010
0000
1000
0001
1000
0001
0010
0100
1000
0100
,
0010
0000
0001
0100
0001
0000
1000
0010
1000
0010
0100
0000
0001
0010
0100
0000
,
1000
0001
1000
0001
1000
0010
1000
0100
0010
0001
0010
0100
1000
0001
0010
0100
,
1000
0000
0010
0100
0001
0000
0010
0100
0010
0100
1000
0000
0100
0000
0010
0001
,
0010
0100
1000
0000
0001
0000
1000
0100
0010
0000
0002
0000
0203
0000
0302
0000
,
1003
0100
0010
0001
1000
0000
0010
0000
0100
0000
0001
0000
0010
0000
0100
0000
,
1000
0000
0010
0100
0001
0000
0100
0000
0010
1000
0100
0010
0001
1000
0010
1000
,
0010
0000
0100
0001
0100
0000
0010
1000
0100
0010
0001
0000
0100
0000
0010
1000
,
0010
0100
0001
0000
0010
0000
0100
1000
0100
0000
2000
0000
3200
0000
0320
0000
,
0031
1000
0010
0100
0001
0000
0010
0000
0100
0000
1000
0000
0100
0000
0010
0000
,
0001
0100
0010
0000
1000
0010
0100
0000
0001
0010
0100
0000
1000
0100
0010
0100
,
0010
0000
0001
0100
0010
0000
1000
0010
0100
0001
0100
0000
0010
0000
1000
0000
,
0000
0000
1000
0000
0100
0000
1000
0010
0100
0001
0200
0000
0320
0000
2030
0000
,
3100
0010
0100
0010
0001
0000
0020
0000
0130
0000
1000
0000
0020
0000
0130
0000
,
0000
0000
0001
0000
0100
0000
0010
0000
1000
0100
0010
0001
0010
0100
1000
0001
,
0100
0000
0001
0010
0001
0000
1000
0010
1000
0010
1000
0000
0001
0000
0100
0010
,
1000
0000
0010
0000
0100
0000
0001
0000
0010
0000
0100
1000
0200
0000
0320
0000
,
0032
0000
1003
0100
1000
0000
0002
0000
0103
0000
0001
0000
0020
0000
0130
0000
,
1000
0100
0010
0000
0001
0100
0010
0000
1000
0010
0100
0001
0100
0010
1000
0001
,
2000
0000
0000
0000
3100
0010
0001
0010
0000
0100
0000
0100
0000
0100
0000
0100
,
1000
0000
0000
0000
0001
0010
0100
1000
0000
0100
0000
0100
0000
0100
0000
0100
,
0010
0000
0000
0000
0001
1000
0010
0100
0000
0001
0000
0010
0000
0100
0000
1000
,
0100
0000
0000
0000
0010
0001
0100
0010
0000
1000
0000
0010
0100
0001
0100
0010
,
1000
0000
0100
0000
0010
0000
0001
0100
0001
1000
0100
0000
0010
0000
0001
0100
,
0020
0000
1030
0000
0010
0000
0200
0000
0301
0000
0010
0000
0100
0000
1000
0100
,
0010
0000
0001
0000
0100
0000
0010
1000
0010
0100
0001
0000
0010
0100
0010
0100
,
1000
0000
0010
0100
0001
0000
0100
0000
0010
1000
0010
0100
0001
0000
0100
0000
,
0010
1000
0010
0100
0001
0000
0020
0000
0130
0000
1000
0000
0200
0000
0310
0000
,
0002
0000
0103
0000
0010
0000
1000
0100
0010
0000
0001
0000
0010
0100
1000
0001
,
1000
0000
0100
0000
0010
0001
0010
0000
0100
1000
0000
0010
0000
0100
0000
0001
,
0100
0000
0010
0000
1000
0000
0100
0010
0001
1000
0010
1000
0010
1000
0001
0010
,
0100
0000
0110
0000
0010
0000
0001
0100
0010
1000
0020
0000
0230
0000
0301
1000
,
0200
0000
1300
0010
0200
0000
0302
0000
0013
0100
1000
0100
0020
0000
0032
0000
,
1003
0000
0002
0000
0103
0000
0010
1000
0010
0100
0002
0000
0013
0100
1000
0100
,
0010
0001
0100
0001
2000
0000
3100
0000
0010
0000
0001
0000
0010
0100
1000
0010
,
1000
0010
0200
0000
0301
0000
0100
0001
0100
0010
2000
0000
3100
0000
0010
0001
,
2000
0000
3010
1000
0200
0000
0320
0000
0031
0100
0010
1000
0200
0000
0320
0000
,
0031
0000
0200
0000
0310
0000
1000
0010
0100
0001
0010
0000
0100
1000
0010
1000
,
0001
0000
0010
0000
0100
1000
0010
1000
0010
0100
0002
0000
0203
0000
0320
0000
,
1030
0000
0200
0000
0310
0000
0001
1000
0010
1000
0200
0000
0310
0000
0001
0010
,
0002
0000
1003
0010
2000
0000
3100
0000
0010
0001
1000
0010
2000
0000
3100
0000
,
0010
0000
0002
0000
0103
0000
0010
1000
0010
0100
0001
0000
0010
0100
1000
0001
,
1000
0010
0100
0001
0020
0000
0031
0000
0100
0000
0010
0000
1000
0010
0100
0001
,
0100
0000
0020
0000
1030
0000
0100
0010
0001
0010
0100
0000
1000
0000
0010
0100
,
0002
0000
0103
0010
2000
0000
3100
0010
0001
0010
0100
1000
0002
0000
0023
0000
,
0130
1000
0200
0000
0310
0000
0001
0100
0010
1000
0010
0000
0100
0001
0200
0000
,
0000
0000
0301
0000
0010
0000
0100
0000
0010
0001
0010
0001
0010
0100
0010
0100
,
1000
0000
0001
1000
0100
0000
0010
0001
0010
0100
1000
0000
0010
0000
1000
0000
,
0000
0000
1000
0000
0010
0000
0100
0001
0100
0010
2000
0000
3200
0000
0320
0000
,
0031
0000
0100
0010
1000
0000
0200
0000
0310
0000
0001
0000
0020
0000
0130
0000
,
0000
0000
1000
0000
0010
0000
0100
0000
0001
0010
0100
1000
0100
0010
0001
1000
,
0010
0000
0100
0001
0100
0000
0001
1000
0100
0010
0001
0000
0100
0000
0010
1000
,
0010
0100
0001
0000
0010
0000
0001
1000
0001
1000
0002
0000
2003
0000
3020
0000
,
0130
0000
0001
0100
0010
0000
2000
0000
3100
0000
0010
0000
0002
0000
0103
0000
,
0010
1000
0010
0000
0100
0001
0100
0000
0001
1000
0001
0000
0100
0001
0010
0100
,
0010
0000
0100
1000
0100
0000
0010
0001
1000
0001
0010
0000
0100
0000
1000
0100
,
0010
0001
0100
0000
0010
0000
1000
0010
0100
0000
0002
0000
0203
0000
0320
0000
,
1030
0100
0010
0001
0010
0000
0100
0000
1000
0000
0010
0000
2000
0000
3100
0000
,
0000
0000
0010
0000
0001
0000
0100
0000
0010
1000
0100
0010
0001
0010
0100
1000
,
0010
0000
0100
0001
0100
0000
0010
1000
0100
0010
0001
0000
0010
0000
0100
0000
,
0000
0000
1000
0000
0010
0000
0100
0001
0100
0000
0002
0000
2003
0000
3200
0000
,
0310
0000
0001
1000
0010
0000
0200
0000
0301
0000
0100
0000
0020
0000
1030
0000
,
0100
0010
0001
0000
0010
0100
1000
0000
0010
0100
0001
1000
0010
1000
0100
0010
,
0002
0000
0000
0000
0000
0000
0000
0013
,
0000
0000
0100
0000
1000
0000
0010
0000
0100
0000
0001
0010
0100
0000
1000
0000
,
0010
0000
0100
0001
0100
0000
0010
0000
1000
0000
0100
0000
0010
0000
0001
0000
,
0000
0000
0100
0000
0010
0000
1000
0000
0010
0000
0100
0001
0010
0000
0000
0000
,
0100
0000
1000
0010
0100
0000
0001
0000
0100
0000
0010
0000
1000
0000
0010
0000
,
0000
0000
0100
0000
0001
0000
0100
0000
0010
0000
1000
0010
0100
0000
0001
0000
,
0010
0000
0100
1000
0010
0000
0100
0000
0001
0000
0100
0000
0010
0000
1000
0000
,
0100
0010
0001
0000
0010
0100
1000
0000
0001
0010
0001
0000
0010
0100
1000
0000
,
0010
0000
0100
0001
1000
0000
0100
1000
0100
0010
0001
0000
0100
0000
0010
1000
,
0100
0010
0001
0000
0100
0000
0010
1000
0010
0000
0200
0000
0302
0000
0023
0000
,
0130
0000
1000
0010
0100
0000
0001
0000
0100
0000
0010
0000
1000
0000
0010
0000
,
0000
0000
0100
0000
0001
0000
0100
0000
0010
0000
1000
0010
0100
0001
0100
0001
,
1000
0000
0001
1000
0001
0000
0100
0001
0010
0100
1000
0000
0010
0000
0100
0001
,
0100
0000
0010
0000
1000
0000
0010
0100
0001
0000
2000
0000
3020
0000
0230
0000
,
0301
0000
0010
0100
1000
0000
0010
0000
0100
0000
0001
0000
0100
0000
0010
0000
,
1000
0100
0010
0000
0001
0010
0100
0000
1000
0010
0100
0001
0100
0010
1000
0100
,
0010
0100
0010
0001
0010
0100
0010
0100
1000
0001
1000
0100
0010
0001
0010
0100
,
1000
0010
0100
0001
0100
0010
1000
0100
0010
0001
0020
0000
0230
0000
2300
0000
,
3010
0100
0001
0100
0010
1000
0100
0010
0001
0010
0100
1000
0010
1000
0010
0100
,
0001
0100
0001
1000
0100
1000
0100
0010
0001
0010
0001
0100
0001
0100
0010
1000
,
0010
1000
0100
1000
0100
0010
0001
0010
0001
1000
0010
1000
0010
1000
0001
0010
,
0100
1000
0100
0010
0001
1000
0001
1000
0010
1000
0002
0000
2003
0000
3200
0000
,
0310
0001
1000
0010
0100
0001
0100
0001
0010
0001
1000
0010
0100
0010
1000
0001
,
0100
0010
1000
0001
0010
0001
0100
0010
1000
0010
0100
0001
0010
0100
1000
0100
,
1000
0000
0000
0000
0001
0010
0100
1000
0000
0010
0000
1000
0000
0001
0000
1000
,
0010
0000
0000
0000
1000
0100
0010
0001
0000
0100
0000
0001
0000
1000
0000
0001
,
0100
0000
0000
0000
0001
0010
0100
1000
0000
0100
0000
0010
0000
0001
0000
0100
,
0010
0000
0000
0000
1000
0010
0100
0001
0000
0010
0000
0100
0010
0100
1000
0001
,
2002
3003
0000
0000
;

//---------------dance-single - Copied from Copied f----------------
#NOTES:
     dance-single:
     Copied from Copied f:
     Hard:
     17:
     0.982,0.936,0.041,0.204,0.490: // measure 1
0000
0000
0000
0000
,  // measure 2
0000
0000
0000
0000
,  // measure 3
1000
0000
0100
0010
0001
0000
0100
0000
0010
0000
1000
0000
0010
0000
0200
0000
,  // measure 4
0000
0000
0301
0000
0010
0000
0100
0000
1000
0000
0001
0100
0001
0000
0000
0000
,  // measure 5
0010
0000
0100
1000
0100
0000
0010
0000
0001
0000
0100
0000
0010
0000
2000
0000
,  // measure 6
0000
0000
3010
0000
0100
0000
0001
0000
0010
0000
0100
1000
0100
0000
0010
0000
,  // measure 7
0001
0000
0100
0010
1000
0000
0010
0000
0100
0000
0001
0000
0010
0000
0100
0000
,  // measure 8
1000
0100
0000
0000
0100
0010
0000
0000
0010
0001
0000
0000
0001
1000
0000
0000
,  // measure 9
1000
0000
0100
0010
0100
0000
0010
0000
0001
0000
0100
0000
0010
0000
1000
0000
,  // measure 10
0000
0000
0001
0000
0010
0000
0100
0000
1000
0000
0001
0010
0100
0000
1000
0000
,  // measure 11
0010
0000
0100
0001
0010
0000
0100
0000
1000
0000
0010
0000
0100
0000
0001
0000
,  // measure 12
0000
0000
1000
0000
0001
0000
0100
0000
0010
0000
1000
0100
0010
0000
0000
0000
,  // measure 13
0001
0000
0010
0100
1000
0000
0010
0000
0100
0000
0001
0000
0010
0000
0100
0000
,  // measure 14
1000
0010
0100
0001
0100
0010
1000
0100
,  // measure 15
0010
0000
0001
0100
0001
0000
1000
0000
0010
0000
0100
0000
0001
0000
0100
0000
,  // measure 16
0010
1000
0010
0100
0001
0010
0100
1000
,  // measure 17
0100
0000
1000
0010
1000
0000
0001
0000
1000
0000
0010
0000
1000
0000
0100
0000
,  // measure 18
0000
0010
0001
0100
0010
1000
0100
1000
,  // measure 19
0001
0000
0010
0100
0010
0000
0100
0000
1000
0000
0010
0000
0100
0000
0001
0000
,  // measure 20
0000
0000
0010
0000
0100
0000
1000
0000
0100
0000
0010
0001
0010
0000
0000
0000
,  // measure 21
0100
0000
1000
0001
1000
0000
0010
0000
1000
0000
0100
0000
0010
0000
0001
0000
,  // measure 22
0000
0010
0100
1000
0100
1100
0000
0110
,  // measure 23
0100
0000
0010
0001
0100
0000
0010
0000
1000
0000
0001
0000
0100
0000
0010
0000
,  // measure 24
1000
0010
0000
0000
0010
0100
0000
0000
0100
0001
0000
0000
0001
0010
0000
0000
,  // measure 25
0010
0000
0100
1000
0010
0000
0100
0000
0001
0000
0100
0000
0010
0000
1000
0000
,  // measure 26
0000
0000
0100
0000
0010
0000
0001
0000
0100
0000
0001
0100
0010
0000
1000
0000
,  // measure 27
0100
0000
0010
0001
1000
0000
0001
0000
1000
0000
0010
0000
1000
0000
0100
0000
,  // measure 28
0000
0000
0010
0000
0001
0000
0100
0000
0010
0000
1000
0010
0100
0000
0000
0000
,  // measure 29
0001
0000
0010
0100
1000
0000
0010
0000
0100
0000
0001
0000
0100
0000
0010
0000
,  // measure 30
0000
0000
1000
0000
0100
0000
0010
0000
0001
0000
0010
0100
1000
0000
0010
0000
,  // measure 31
0100
0000
0001
1000
0100
0000
0010
0000
0001
0000
0010
0000
0100
0000
1000
0000
,  // measure 32
0001
0100
0000
0000
0100
0010
0000
0000
0010
1000
0000
0000
1000
0001
0000
0000
,  // measure 33
2000
0000
0000
0000
3100
0010
0001
0010
0000
0100
0000
0100
0000
0100
0000
0100
,  // measure 34
1000
0000
0000
0000
0001
0010
0100
1000
0000
0100
0000
0100
0000
0100
0000
0100
,  // measure 35
0010
0000
0000
0000
0001
1000
0010
0100
0000
0001
0000
0010
0000
0100
0000
1000
,  // measure 36
0100
0000
0000
0000
0010
0001
0100
0010
0000
1000
0000
0010
0100
0001
0100
0010
,  // measure 37
2000
0000
0000
0000
3100
0010
0001
0002
,  // measure 38
0000
0023
0000
0230
0000
2300
0000
3010
,  // measure 39
0200
0000
0000
0000
0301
0010
0100
2000
,  // measure 40
0000
3020
0000
0230
0000
0302
0000
0013
,  // measure 41
0200
0000
0000
0000
1300
0010
0100
0002
,  // measure 42
0000
0023
0000
0230
0000
2300
0000
3100
,  // measure 43
0020
0000
0000
0000
0031
1000
0001
0020
,  // measure 44
0000
0230
0000
1300
0010
0100
0001
1000
,  // measure 45
0100
0010
0001
0100
0010
1000
0010
0100
,  // measure 46
0001
0010
0100
1000
0010
0100
0001
0010
,  // measure 47
0100
1000
0100
0010
0001
0100
0001
0100
,  // measure 48
0010
1000
0010
1000
0010
0100
0001
0100
,  // measure 49
0001
0010
0100
1000
0010
1000
0001
0010
,  // measure 50
0001
1000
0100
1000
0001
0100
0001
0100
,  // measure 51
0010
1000
0010
0100
0001
0100
0010
1000
,  // measure 52
0100
1000
0100
0010
0100
0010
0100
0001
,  // measure 53
0100
0001
0100
0010
0100
0010
0100
1000
,  // measure 54
0100
1000
0010
1000
0010
0100
0010
0100
,  // measure 55
0010
0001
0010
0001
0010
0100
0010
0100
,  // measure 56
0010
1000
0010
1000
0100
0010
0001
0010
,  // measure 57
0100
1000
0010
0100
0001
0100
0010
1000
,  // measure 58
0100
0010
0001
0010
0100
1000
0010
0100
,  // measure 59
0001
0100
0010
1000
0100
0010
0001
0020
,  // measure 60
0000
0130
1000
0001
1000
0100
0010
0001
,  // measure 61
0010
0000
0100
1000
0010
0000
0100
0000
0001
0000
0100
0000
0010
0000
1000
0000
,  // measure 62
0000
0100
0010
0001
0010
0100
1000
0001
,  // measure 63
0100
0000
0010
1000
0010
0000
0100
0000
0001
0000
0100
0000
0010
0000
1000
0000
,  // measure 64
0000
0000
0100
0000
0010
0000
0001
0000
0100
0000
0010
1000
0100
0000
0000
0000
,  // measure 65
0010
0000
0001
0100
0001
0000
1000
0000
0001
0000
0100
0000
0001
0000
0010
0000
,  // measure 66
0000
0100
1000
0010
1000
1010
0000
0101
,  // measure 67
0100
0000
0001
0010
0100
0000
1000
0000
0010
0000
0100
0000
0001
0000
0010
0000
,  // measure 68
0100
1000
0000
0000
1000
0100
0000
0000
0100
0010
0000
0000
0010
0001
0000
0000
,  // measure 69
1000
0000
0001
1000
0100
0000
0010
0000
0001
0000
0010
0000
0100
0000
0010
0000
,  // measure 70
0000
0000
0100
0000
1000
0000
0010
0000
0100
0000
0001
0100
0010
0000
1000
0000
,  // measure 71
0100
0000
0010
0001
0010
0000
0100
0000
1000
0000
0010
0000
0100
0000
0001
0000
,  // measure 72
0000
0000
0100
0000
0010
0000
1000
0000
0100
0000
0010
0001
1000
0000
0000
0000
,  // measure 73
0010
0000
0100
0001
0100
0000
0010
0000
1000
0000
0100
0000
0010
0000
0001
0000
,  // measure 74
0000
0000
0100
0000
0001
0000
0100
0000
0010
0000
1000
0010
1000
0000
0010
0000
,  // measure 75
0100
0000
0001
0100
0001
0000
0010
0000
0100
0000
1000
0000
0100
0000
0010
0000
,  // measure 76
0001
0100
0000
0000
0100
0010
0000
0000
0010
0000
1000
0000
0010
0000
0100
0000
,  // measure 77
0002
0000
0000
0000
0000
0000
0000
0013
,  // measure 78
0000
0000
0100
0000
1000
0000
0010
0000
0100
0000
0001
0010
0100
0000
1000
0000
,  // measure 79
0010
0000
0100
0001
0100
0000
0010
0000
1000
0000
0100
0000
0010
0000
0001
0000
,  // measure 80
0000
0000
0100
0000
0010
0000
1000
0000
0010
0000
0100
0001
0010
0000
0000
0000
,  // measure 81
0100
0000
1000
0010
0100
0000
0001
0000
0100
0000
0010
0000
1000
0000
0010
0000
,  // measure 82
0000
0000
0100
0000
0001
0000
0100
0000
0010
0000
1000
0010
0100
0000
0001
0000
,  // measure 83
0010
0000
0100
1000
0010
0000
0100
0000
0001
0000
0100
0000
0010
0000
1000
0000
,  // measure 84
0100
0010
0000
0000
0010
0001
0000
0000
0001
0010
0000
0000
0010
0100
0000
0000
,  // measure 85
1000
0000
0001
0100
0010
0000
1000
0000
0100
0000
0010
0000
0001
0000
0010
0000
,  // measure 86
0000
0000
0100
0000
1000
0000
0010
0000
0100
0000
0001
1000
0100
0000
0010
0000
,  // measure 87
0001
0000
0100
0010
1000
0000
0010
0000
0100
0000
0001
0000
0010
0000
0100
0000
,  // measure 88
0000
0000
1000
0000
0010
0000
0100
0000
0001
0000
0010
0001
0100
0000
0000
0000
,  // measure 89
0001
0000
1000
0001
0100
0000
0001
0000
0010
0000
0100
0000
1000
0000
0010
0000
,  // measure 90
0000
0000
1000
0000
0001
0000
1000
0000
0010
0000
1000
0100
0010
0000
0001
0000
,  // measure 91
0010
0000
0100
1000
0010
0000
1000
0000
0001
0000
1000
0000
0010
0000
1000
0000
,  // measure 92
0100
0010
0000
0000
0010
0001
0000
0000
0001
0000
0100
0000
0010
0000
1000
0000
,  // measure 93
0100
0010
0001
0010
0100
1000
0010
0100
,  // measure 94
0001
0100
0010
1000
0100
0010
0001
0010
,  // measure 95
0100
1000
0010
1000
0010
0100
0001
0100
,  // measure 96
0001
0100
0010
1000
0010
1000
0100
0010
,  // measure 97
0001
0010
0100
1000
0010
1000
0001
0100
,  // measure 98
0001
1000
0100
1000
0001
0010
0001
1000
,  // measure 99
0100
0010
0001
0010
0100
1000
0010
0100
,  // measure 100
0001
0100
0010
1000
0100
0010
0001
0010
,  // measure 101
0100
0000
0000
0000
1000
0100
0010
0001
0000
0100
0000
0001
0000
1000
0000
0001
,  // measure 102
0100
0000
0000
0000
0001
0010
0100
1000
0000
0010
0000
1000
0000
0001
0000
1000
,  // measure 103
0010
0000
0000
0000
1000
0100
0010
0001
0000
0010
0000
0100
0000
1000
0000
0010
,  // measure 104
0100
0000
0000
0000
0001
0100
0010
1000
0000
0100
0000
0010
0100
0010
0001
1000
,  // measure 105
2002
3003
0000
0000
;

//---------------dance-single - ----------------
#NOTES:
     dance-single:
     :
     Medium:
     13:
     0.746,0.936,0.122,0.253,0.196: // measure 1
0000
0000
0000
0000
,  // measure 2
0000
0000
0000
0000
,  // measure 3
1000
0001
1000
0000
0001
0100
0001
0100
,  // measure 4
0000
0010
1000
0000
0001
0100
0001
0000
,  // measure 5
1000
0010
0100
0000
0001
0100
0001
1000
,  // measure 6
0000
0010
0100
0000
0001
0100
0001
1000
,  // measure 7
0001
1000
0010
0000
0100
0001
0100
0010
,  // measure 8
1000
0001
0100
0010
,  // measure 9
1000
0100
1000
0100
0010
0001
0010
0001
,  // measure 10
0000
0100
0010
1000
0001
0100
0010
0000
,  // measure 11
1000
0100
1000
0001
1000
0100
1000
0001
,  // measure 12
0000
0100
0010
1000
0001
0100
0001
0000
,  // measure 13
1000
0100
1000
0000
0001
0000
0100
0010
,  // measure 14
0000
1000
0010
0000
0100
0001
0100
0000
,  // measure 15
0010
1000
0010
0000
0100
0000
0001
0000
,  // measure 16
2000
3020
0230
0302
,  // measure 17
1003
0000
0010
0000
0100
0001
0100
0001
,  // measure 18
0000
1000
0001
0000
0100
0010
0100
0000
,  // measure 19
0001
0000
1000
0000
0001
0100
0010
1000
,  // measure 20
0000
0001
0100
0000
0010
0000
1000
0000
,  // measure 21
0100
0010
0100
0000
1000
0001
0100
0001
,  // measure 22
0000
1000
0010
0100
0001
1000
0010
1000
,  // measure 23
0001
0100
0001
0000
1000
0000
0010
0000
,  // measure 24
0200
0302
2003
3020
,  // measure 25
1030
0000
0001
0000
0100
0010
0100
0010
,  // measure 26
0000
1000
0010
0100
,  // measure 27
0001
0000
0010
0000
0100
1000
0100
1000
,  // measure 28
0000
0001
0100
0010
,  // measure 29
1000
0000
0010
0000
0100
0001
0100
0001
,  // measure 30
0000
1000
0010
0100
,  // measure 31
0001
0000
0010
0000
0100
0010
0100
0000
,  // measure 32
0110
1001
0101
1001
,  // measure 33
2000
0000
0000
0000
3100
0010
0001
0010
0000
0100
0000
0100
0000
0100
0000
0100
,  // measure 34
1000
0000
0000
0000
0001
0010
0100
1000
0000
0100
0000
0100
0000
0100
0000
0100
,  // measure 35
0010
0000
0000
0000
0001
1000
0010
0100
0000
0001
0000
0010
0000
0100
0000
1000
,  // measure 36
0100
0000
0000
0000
0010
0001
0100
0010
0000
1000
0000
0010
0100
0001
0100
0010
,  // measure 37
2000
0000
0000
0000
3100
0010
0001
0002
,  // measure 38
0000
0023
0000
0230
0000
2300
0000
3010
,  // measure 39
0200
0000
0000
0000
0301
0010
0100
2000
,  // measure 40
0000
3020
0000
0230
0000
0302
0000
0013
,  // measure 41
0200
0000
0000
0000
1300
0010
0100
0002
,  // measure 42
0000
0023
0000
0230
0000
2300
0000
3100
,  // measure 43
0020
0000
0000
0000
0031
1000
0001
0020
,  // measure 44
0000
0230
0000
1300
0001
0000
1000
0000
,  // measure 45
1001
0000
0010
0000
0100
0010
1000
0000
,  // measure 46
0001
0100
0001
0000
0010
0100
1000
0000
,  // measure 47
0100
0010
0100
0000
0001
0010
0001
1000
,  // measure 48
0001
0100
0001
0000
1000
0010
1000
0000
,  // measure 49
0001
0010
0001
0000
1000
0100
1000
0000
,  // measure 50
0001
1000
0001
0000
1000
0100
1000
0000
,  // measure 51
0001
0010
0001
0000
1000
0001
1000
0000
,  // measure 52
0001
0010
0001
0010
0100
1000
0100
1000
,  // measure 53
0001
0100
0010
0000
1000
0010
0100
0000
,  // measure 54
0001
0100
0010
0000
1000
0100
0010
0000
,  // measure 55
0001
0100
1000
0000
0100
0001
0100
0000
,  // measure 56
0010
1000
0100
0000
0001
0100
1000
0000
,  // measure 57
0001
0010
0001
0010
0100
1000
0100
1000
,  // measure 58
0001
0100
0001
0100
0010
1000
0010
1000
,  // measure 59
0001
0010
0100
1000
0100
0010
0001
0020
,  // measure 60
0000
0130
1000
0001
1000
0100
0010
0001
,  // measure 61
1000
0001
0100
0000
0001
0100
0001
0100
,  // measure 62
0000
0010
1000
0001
,  // measure 63
0100
0000
0001
0000
0010
0100
0010
0001
,  // measure 64
0000
1000
0010
1000
,  // measure 65
0001
0000
0100
0000
0010
1000
0010
1000
,  // measure 66
0000
0000
0001
0000
0100
0010
0100
0001
,  // measure 67
0100
0000
0001
0000
0010
0001
0010
0000
,  // measure 68
1001
0101
1010
1001
,  // measure 69
0001
0000
1000
0000
0010
0100
0010
0100
,  // measure 70
0000
0001
1000
0010
,  // measure 71
0100
0000
0001
0000
0010
0100
1000
0100
,  // measure 72
0000
0010
0001
0100
,  // measure 73
0010
0000
0010
0000
1000
0001
0100
0001
,  // measure 74
0000
1000
0010
0100
,  // measure 75
0100
0000
0001
0000
0010
0100
0010
0100
,  // measure 76
1000
0000
1001
0000
1000
0001
1000
1000
,  // measure 77
0002
0000
0000
0000
0000
0000
0000
0013
,  // measure 78
0000
1000
0001
0100
,  // measure 79
0010
0000
0010
0000
1000
0001
1000
0001
,  // measure 80
0000
1000
0010
0100
,  // measure 81
0001
0000
0001
0000
0010
0100
0010
0100
,  // measure 82
0000
1000
0001
0100
,  // measure 83
0010
1000
0001
0100
,  // measure 84
0001
0010
0001
0000
0001
0001
1000
0000
,  // measure 85
0001
0100
0010
1000
,  // measure 86
0001
0000
1000
0000
0010
0100
0010
1000
,  // measure 87
0010
0000
0100
0000
0001
0100
0001
0100
,  // measure 88
0000
0010
1000
0001
,  // measure 89
1000
0000
0010
0000
0100
0001
0100
0001
,  // measure 90
0000
1000
0010
0001
,  // measure 91
0010
0000
1000
0000
0100
0010
0100
0000
,  // measure 92
0101
1010
1001
0101
,  // measure 93
0001
0010
0001
0010
0100
1000
0010
0100
,  // measure 94
0001
0100
0010
1000
0100
0010
0001
0010
,  // measure 95
0100
1000
0010
1000
0010
0100
0001
0100
,  // measure 96
0001
0100
0010
1000
0010
1000
0100
0010
,  // measure 97
0001
0010
0100
1000
0010
1000
0001
0100
,  // measure 98
0001
1000
0100
1000
0001
0010
0001
1000
,  // measure 99
0100
0010
0001
0010
0100
1000
0010
0100
,  // measure 100
0001
0100
0010
1000
0100
0010
0001
0010
,  // measure 101
0100
0000
0000
0000
1000
0100
0010
0001
0000
0100
0000
0001
0000
1000
0000
0001
,  // measure 102
0100
0000
0000
0000
0001
0010
0100
1000
0000
0010
0000
1000
0000
0001
0000
1000
,  // measure 103
0010
0000
0000
0000
1000
0100
0010
0001
0000
0010
0000
0100
0000
1000
0000
0010
,  // measure 104
0100
0000
0000
0000
0001
0100
0010
1000
0000
0100
0000
0010
0100
0010
0001
1000
,  // measure 105
2002
3003
0000
0000
;

//---------------dance-single - ----------------
#NOTES:
     dance-single:
     :
     Easy:
     8:
     0.427,0.509,0.016,0.041,0.069: // measure 1
0000
0000
0000
0000
,  // measure 2
0000
0000
0000
0000
,  // measure 3
0001
0000
0000
0000
1000
0000
0000
0010
,  // measure 4
0000
0100
0001
0010
,  // measure 5
0100
0000
1000
0000
0001
0000
0000
1000
,  // measure 6
0000
0010
0100
0001
,  // measure 7
1000
0010
0100
0001
,  // measure 8
1000
1000
0010
0010
,  // measure 9
0100
0000
0001
0000
0100
0000
0000
0010
,  // measure 10
0000
1000
0001
0100
,  // measure 11
0010
0000
0010
0000
1000
0000
0000
0001
,  // measure 12
0000
1000
0010
0100
,  // measure 13
0001
0001
1000
0010
,  // measure 14
0000
0100
0001
1000
,  // measure 15
0010
1000
0010
0100
,  // measure 16
0001
0010
0001
0100
,  // measure 17
0010
0000
1000
0000
0010
0000
0000
0100
,  // measure 18
0000
0001
1000
0001
,  // measure 19
0001
0100
0100
0010
,  // measure 20
0000
1000
0001
1000
,  // measure 21
0010
0010
1000
0001
,  // measure 22
0000
0100
0010
1000
,  // measure 23
0001
0010
0100
1000
,  // measure 24
0001
0100
0010
1000
,  // measure 25
0001
1000
0010
0100
,  // measure 26
0000
0001
1000
0010
,  // measure 27
0100
0001
0010
0100
,  // measure 28
0000
1000
0001
0100
,  // measure 29
0010
1000
0100
0010
,  // measure 30
0000
0001
0100
0010
,  // measure 31
1000
0100
0010
0001
,  // measure 32
0010
0100
1000
0001
,  // measure 33
1000
0000
0000
0000
0010
0000
0000
0000
0000
0000
0000
1000
0000
1000
0000
0000
,  // measure 34
0001
0000
0000
0000
0100
0000
0000
0010
0000
0000
0000
1000
0000
0001
0000
0000
,  // measure 35
0100
0000
0000
0000
0010
0000
0000
1000
0000
0000
0000
0001
0000
0100
0000
0000
,  // measure 36
0010
0000
0000
0000
1000
0000
0000
0001
0000
0000
0000
0000
1000
0000
0001
0000
,  // measure 37
0200
0000
0010
0000
,  // measure 38
0000
0000
0000
0010
0000
0010
0000
0000
,  // measure 39
0310
0000
2000
0000
,  // measure 40
0000
0000
0000
0001
0000
0001
0000
0000
,  // measure 41
3010
0000
0200
0000
,  // measure 42
0000
0001
0000
0001
0000
0001
0000
0000
,  // measure 43
0310
0000
0002
0000
,  // measure 44
0000
0000
1000
1000
,  // measure 45
1003
0010
0100
0001
,  // measure 46
0010
0100
1000
0100
,  // measure 47
0010
0010
1000
0001
,  // measure 48
0100
0010
0010
1000
,  // measure 49
0001
0100
0010
1000
,  // measure 50
0001
0100
0100
0010
,  // measure 51
0010
1000
0001
0001
,  // measure 52
1000
0010
1000
0010
,  // measure 53
0100
0001
0100
0001
,  // measure 54
1000
0010
1000
0010
,  // measure 55
0100
0100
0001
0001
,  // measure 56
1000
1000
0010
0010
,  // measure 57
0100
0001
0010
0100
,  // measure 58
1000
0100
0010
0001
,  // measure 59
0010
0100
1000
0100
,  // measure 60
0000
0010
0001
0100
,  // measure 61
0010
0000
1000
0000
0010
0000
0000
1000
,  // measure 62
0000
0001
0010
0100
,  // measure 63
1000
0000
0100
0000
0010
0000
0000
1000
,  // measure 64
0000
0000
0010
0100
0100
0000
0010
0000
,  // measure 65
1000
0000
0001
0000
0100
0000
0000
0100
,  // measure 66
0000
0010
1000
0001
,  // measure 67
0100
0010
1000
0010
,  // measure 68
0100
0100
0001
0001
,  // measure 69
1000
0001
1000
0010
,  // measure 70
1000
0010
0100
0001
,  // measure 71
0010
0001
0100
0001
,  // measure 72
1000
0010
1000
0001
,  // measure 73
1000
1000
0010
0010
,  // measure 74
0100
0100
0001
0001
,  // measure 75
0010
0100
1000
0001
,  // measure 76
0100
0100
0010
0010
,  // measure 77
2000
0000
0000
0000
0000
0000
3000
0001
,  // measure 78
0000
0000
1000
0000
,  // measure 79
0001
0000
1000
0000
,  // measure 80
0000
0000
0010
0000
,  // measure 81
0100
0000
0010
0000
,  // measure 82
1000
0000
0001
0000
,  // measure 83
0100
0000
0010
0000
,  // measure 84
1000
0010
1000
0010
,  // measure 85
1000
0000
0001
0000
1000
0000
0000
0001
,  // measure 86
0000
0100
0010
1000
,  // measure 87
0010
0000
0100
0000
0010
0000
0000
1000
,  // measure 88
0000
0001
0100
0001
,  // measure 89
1000
0000
0000
0000
0001
0000
0000
1000
,  // measure 90
0000
0000
0010
0010
,  // measure 91
0100
0001
0100
0001
,  // measure 92
1000
1000
0010
0000
,  // measure 93
0100
0001
0100
0000
0000
0000
0000
0000
,  // measure 94
0001
1000
0001
0000
0000
0000
0000
0000
,  // measure 95
1000
0010
1000
0000
0000
0000
0000
0000
,  // measure 96
0001
0100
0001
0000
0000
0000
0000
0000
,  // measure 97
1000
0001
1000
0001
,  // measure 98
0100
0001
0100
0000
0001
0000
1000
0000
,  // measure 99
0010
1000
0010
0000
1000
0000
0001
0000
,  // measure 100
0100
0001
0100
0000
0001
0000
1000
0000
,  // measure 101
1001
0000
0000
0000
0000
0000
0000
0001
0000
0001
0000
0001
0000
0000
0000
0000
,  // measure 102
1000
0000
0000
0000
0000
0000
0000
0000
0010
0100
0000
0010
0000
0000
0000
0000
,  // measure 103
1000
0000
0000
0000
0000
0000
0000
0001
0000
0100
0000
0000
0001
0000
0000
0000
,  // measure 104
1000
0000
0000
0000
0000
0000
0000
0001
0000
0000
0000
0000
1000
0000
0001
0000
,  // measure 105
1001
0000
0000
0000
;

//---------------dance-single - ----------------
#NOTES:
     dance-single:
     :
     Beginner:
     5:
     0.189,0.297,0.033,0.000,0.000: // measure 1
0000
0000
0000
0000
,  // measure 2
0000
0000
0000
0000
,  // measure 3
0000
0000
0000
0000
,  // measure 4
0000
0000
0000
0000
,  // measure 5
1000
0000
0000
0000
,  // measure 6
0000
0000
0000
0000
,  // measure 7
0001
0000
0000
0000
,  // measure 8
0000
0000
0000
0000
,  // measure 9
0100
0000
0000
0000
,  // measure 10
0000
0000
0000
0000
,  // measure 11
0010
0000
0000
0000
,  // measure 12
0000
0000
0000
0000
,  // measure 13
1000
0000
0000
0000
,  // measure 14
0000
0000
0000
0000
,  // measure 15
0001
0000
0000
0000
,  // measure 16
1000
0000
0001
0000
,  // measure 17
0100
0000
0000
0000
,  // measure 18
0000
0000
0010
0000
,  // measure 19
1000
0000
0001
0000
,  // measure 20
0000
0000
0100
0000
,  // measure 21
0010
0000
1000
0000
,  // measure 22
0000
0000
0001
0000
,  // measure 23
1000
0000
1000
0000
,  // measure 24
0010
0000
0010
0000
,  // measure 25
1000
0000
0000
0000
,  // measure 26
0001
0000
0000
0000
,  // measure 27
0100
0000
0000
0000
,  // measure 28
0010
0000
0000
0000
,  // measure 29
1000
0000
1000
0000
,  // measure 30
0001
0000
0100
0000
,  // measure 31
0100
0000
0010
0000
,  // measure 32
1000
1000
1000
0000
,  // measure 33
1001
0000
0000
0000
,  // measure 34
1000
0000
0000
0000
,  // measure 35
0001
0000
0000
0000
,  // measure 36
0100
0000
0000
0000
,  // measure 37
0010
0000
0000
0000
,  // measure 38
0000
0000
0000
0000
,  // measure 39
1000
0000
0000
0000
,  // measure 40
0000
0000
0000
0000
,  // measure 41
0001
0000
0000
0000
,  // measure 42
0000
0000
0000
0000
,  // measure 43
0100
0000
0000
0000
,  // measure 44
0000
0000
0000
0000
,  // measure 45
0010
0000
1000
0000
,  // measure 46
0001
0001
0001
0000
,  // measure 47
0100
0000
0010
0000
,  // measure 48
1000
1000
1000
0000
,  // measure 49
0010
0000
0100
0000
,  // measure 50
0001
0001
0001
0000
,  // measure 51
1000
0000
0001
0000
,  // measure 52
0100
0100
0100
0000
,  // measure 53
0010
0000
1000
0000
,  // measure 54
0001
0001
0001
0000
,  // measure 55
1000
0000
0010
0000
,  // measure 56
0100
0100
0100
0000
,  // measure 57
0001
0000
1000
0000
,  // measure 58
0010
0010
0010
0000
,  // measure 59
0100
0000
0001
0000
,  // measure 60
0000
0000
0000
0000
,  // measure 61
1000
0000
0001
0000
,  // measure 62
0100
0000
0010
0000
,  // measure 63
1000
0000
0001
0000
,  // measure 64
0100
0000
0001
0000
,  // measure 65
1000
0000
1000
0000
,  // measure 66
0001
0000
0001
0000
,  // measure 67
0100
0000
0100
0000
,  // measure 68
0010
0010
0010
0000
,  // measure 69
1000
0000
0001
0000
,  // measure 70
1000
0000
0001
0000
,  // measure 71
0001
0000
0100
0000
,  // measure 72
0100
0000
0010
0000
,  // measure 73
1000
0000
1000
0000
,  // measure 74
0001
0000
0001
0000
,  // measure 75
0100
0000
0100
0000
,  // measure 76
0010
0010
0010
0000
,  // measure 77
1000
0000
0000
0000
,  // measure 78
0000
0000
0001
0000
,  // measure 79
0000
0000
1000
0000
,  // measure 80
0000
0000
0010
0000
,  // measure 81
0000
0000
0100
0000
,  // measure 82
0000
0000
0001
0000
,  // measure 83
0000
0000
1001
0000
,  // measure 84
0010
0010
0010
0000
,  // measure 85
1000
0000
0001
0000
,  // measure 86
0100
0000
0010
0000
,  // measure 87
1000
0000
0001
0000
,  // measure 88
1000
0000
0010
0010
,  // measure 89
0000
0000
0100
0000
,  // measure 90
0001
0000
1000
0000
,  // measure 91
1000
0000
0010
0000
,  // measure 92
0100
0100
0100
0100
,  // measure 93
0100
0000
0000
0000
,  // measure 94
0001
0000
0000
0000
,  // measure 95
1000
0000
0000
0000
,  // measure 96
0001
0000
0000
0000
,  // measure 97
0100
0000
0100
0000
,  // measure 98
0010
0000
0010
0000
,  // measure 99
1000
0000
0001
0000
,  // measure 100
1000
1000
1000
0000
,  // measure 101
1001
0000
0000
0000
,  // measure 102
0010
0000
0000
0000
,  // measure 103
1000
0000
0000
0000
,  // measure 104
1000
0000
0000
0000
,  // measure 105
1001
0000
0000
0000
;
