#TITLE:Cha Cha Slide;
#SUBTITLE:;
#ARTIST:DJ Casper;
#TITLETRANSLIT:;
#SUBTITLETRANSLIT:;
#ARTISTTRANSLIT:;
#GENRE:;
#CREDIT:;
#BANNER:;
#BACKGROUND:;
#LYRICSPATH:;
#CDTITLE:;
#MUSIC:Cha Cha Slide.ogg;
#OFFSET:1.750;
#SAMPLESTART:43.155;
#SAMPLELENGTH:12.000;
#SELECTABLE:YES;
#BPMS:0.000=133.615
,265.500=133.435
;
#STOPS:;
#BGCHANGES:;
#KEYSOUNDS:;
#ATTACKS:;

//---------------dance-single - ----------------
#NOTES:
     dance-single:
     :
     Hard:
     9:
     0.596,0.585,0.371,0.229,0.043,375.000,39.000,24.000,0.000,0.000,0.000,0.596,0.585,0.371,0.229,0.043,375.000,39.000,24.000,0.000,0.000,0.000: // measure 0
0000
0000
0000
0000
,  // measure 1
1001
0000
0000
0000
,  // measure 2
0110
0000
0000
0000
,  // measure 3
1001
0001
0001
0001
,  // measure 4
1000
1000
1000
1000
1000
0000
0110
0000
,  // measure 5
0001
1000
0002
0000
0003
0000
0000
2000
,  // measure 6
0000
3001
0200
0000
0300
0000
0000
0010
,  // measure 7
1000
0010
0200
0000
0300
0000
0000
0001
,  // measure 8
0000
0100
0010
1000
0020
0000
0030
0000
,  // measure 9
1010
0000
0000
0110
0000
0101
0000
0001
,  // measure 10
2000
3001
1000
0010
,  // measure 11
1001
0000
0000
0011
0000
0011
0000
0001
,  // measure 12
0200
0000
0310
0000
1000
0000
0010
2000
,  // measure 13
0000
0100
3100
0000
0000
0000
0000
0002
,  // measure 14
0000
0100
0103
0000
0000
0000
0000
0200
,  // measure 15
0000
0010
0310
1000
0001
1000
0001
1001
,  // measure 16
0000
0001
0001
0010
0100
1000
0001
0001
,  // measure 17
0000
0100
0100
0010
1000
0010
0100
0001
,  // measure 18
0000
1000
1000
0001
0100
0010
1000
0000
,  // measure 19
0010
0000
1000
0010
0000
0000
0010
0000
0000
0000
0100
0001
0000
0000
0001
0010
,  // measure 20
0100
0000
0100
1000
0000
0000
0000
0000
0001
0000
1000
0000
0000
0000
0001
0000
,  // measure 21
0000
0001
0001
0000
0000
1000
1000
0100
,  // measure 22
0000
0010
0001
0010
0010
0100
0100
1000
,  // measure 23
0000
0001
0001
0100
0001
1000
0001
1001
,  // measure 24
0000
1000
1000
0001
0100
0001
0001
0100
,  // measure 25
0000
0010
1000
0001
1000
0010
1000
1000
,  // measure 26
0000
0001
0001
0010
0100
1000
0100
0010
,  // measure 27
0000
0001
0001
0100
0010
1000
0010
1000
,  // measure 28
0000
0010
0010
0000
1000
1000
0100
0001
,  // measure 29
0001
0000
0001
0000
0100
0100
1000
0000
,  // measure 30
0010
0000
0010
1000
0100
0010
0100
0000
,  // measure 31
0010
0000
0010
0001
0010
0100
1000
0000
,  // measure 32
1001
0000
0000
0001
1000
0001
1000
0000
,  // measure 33
1001
0000
0000
0010
0100
0100
1000
0000
,  // measure 34
0001
0000
0001
0100
0010
0100
0010
0000
,  // measure 35
1000
0000
1000
0002
0000
0000
0100
0000
,  // measure 36
1003
0000
0000
2000
0000
0000
0010
0000
,  // measure 37
3001
0000
0000
1000
0000
0100
0000
0000
,  // measure 38
0001
0000
0100
1000
0000
0010
0000
0000
,  // measure 39
0101
0000
0101
0001
1000
0001
1000
0000
,  // measure 40
0100
1000
0010
0100
0001
0010
0100
1000
,  // measure 41
0001
0001
0001
0001
0001
0000
1001
2000
,  // measure 42
0000
0001
3001
0000
0000
1000
1000
0200
,  // measure 43
0000
0001
0301
0100
1000
0100
0010
0002
,  // measure 44
0000
0103
0010
1000
0010
0100
0001
0000
,  // measure 45
1001
0000
1001
0001
0010
0001
0010
0000
,  // measure 46
0011
0000
0011
0001
1000
0001
1000
0000
,  // measure 47
0001
0000
0001
0100
0010
0100
0010
0000
,  // measure 48
1000
1000
0100
0010
,  // measure 49
0011
1010
1100
1001
,  // measure 50
0101
1010
0011
1100
,  // measure 51
2001
0001
0100
3100
,  // measure 52
0012
0010
1000
1003
,  // measure 53
2001
0100
0001
0100
,  // measure 54
3001
0010
0100
1000
0000
1000
0000
1000
,  // measure 55
0001
0000
1000
0000
0001
0000
0000
0000
0001
0000
1000
0100
0000
0000
0020
0000
,  // measure 56
0000
0000
0001
0000
0031
0000
0000
0000
0000
0000
1000
0100
1000
0000
0200
0000
,  // measure 57
0000
0000
0310
0000
0001
0000
0010
0100
0010
0000
0001
0000
0010
0000
0010
0000
,  // measure 58
0000
0100
0100
1000
0100
1000
0001
0000
,  // measure 59
1001
1100
0011
1001
,  // measure 60
1001
0000
0100
0010
0100
0010
0001
0000
,  // measure 61
0001
0000
0010
0100
0010
0100
1000
0000
,  // measure 62
1000
0000
0000
0000
0000
0000
1000
0000
0100
0000
0010
0001
0000
0000
0000
0000
,  // measure 63
0001
0000
0000
0000
0000
0000
0001
0000
0010
0000
0100
1000
0000
0000
0000
0000
,  // measure 64
1000
0000
0000
0000
,  // measure 65
0001
0000
0000
0000
,  // measure 66
1000
0000
0000
2002
0000
0000
3003
0000
,  // measure 67
1000
0100
0001
0100
0010
0100
1000
0000
,  // measure 68
0001
0010
0001
0010
0100
0010
0100
1000
,  // measure 69
0100
1000
0010
1000
0010
0100
0001
0100
,  // measure 70
0010
1000
0010
1000
0100
0001
0100
0010
,  // measure 71
0100
1000
0010
0001
0010
0100
0001
1000
,  // measure 72
2002
3003
0000
0000
;

//---------------dance-single - ----------------
#NOTES:
     dance-single:
     :
     Easy:
     3:
     0.173,0.275,0.133,0.038,0.000,109.000,14.000,4.000,0.000,0.000,0.000,0.173,0.275,0.133,0.038,0.000,109.000,14.000,4.000,0.000,0.000,0.000: // measure 0
0000
0000
0000
0000
,  // measure 1
1000
0000
0000
0000
,  // measure 2
0001
0000
0000
0000
,  // measure 3
1000
0010
1000
0010
,  // measure 4
0200
0000
0000
0000
,  // measure 5
0301
0000
0000
0000
,  // measure 6
0000
0000
0000
0000
,  // measure 7
0010
0000
0000
0000
,  // measure 8
0000
0000
0000
0000
,  // measure 9
1000
0000
0000
0000
,  // measure 10
0001
0000
0000
0000
,  // measure 11
0100
0000
0000
0000
,  // measure 12
0010
0000
0000
0000
,  // measure 13
0000
0000
0000
1000
,  // measure 14
0000
0000
0100
0000
,  // measure 15
0000
0000
0000
0000
,  // measure 16
1001
0000
0000
0000
,  // measure 17
0001
0000
0000
0000
,  // measure 18
1000
0000
0000
0000
,  // measure 19
0001
0000
0000
0000
,  // measure 20
0100
0010
1000
0000
,  // measure 21
0000
0000
0000
1000
,  // measure 22
0000
0000
0100
0000
,  // measure 23
0000
0000
0000
0000
,  // measure 24
1001
0000
0000
0000
,  // measure 25
0001
0000
0000
0000
,  // measure 26
0001
0000
0000
0000
,  // measure 27
1000
0000
0000
0000
,  // measure 28
0010
0000
0000
0001
,  // measure 29
0000
0000
0000
1000
,  // measure 30
0000
0000
0100
0000
,  // measure 31
0000
0000
0000
0000
,  // measure 32
1001
0000
0000
0000
,  // measure 33
1001
0000
0000
0000
,  // measure 34
0001
0001
0000
0000
,  // measure 35
1000
1000
0000
0000
,  // measure 36
1000
0000
0000
0000
,  // measure 37
0001
0000
0000
0000
,  // measure 38
1000
0010
0000
0000
,  // measure 39
0001
0010
0000
0000
,  // measure 40
1000
0000
0000
0000
,  // measure 41
0100
0001
0100
0000
,  // measure 42
0001
0000
0000
1000
,  // measure 43
0000
0000
0100
0000
,  // measure 44
0000
0000
0000
0000
,  // measure 45
1001
1001
0000
0000
,  // measure 46
1001
1001
0000
0000
,  // measure 47
0001
0001
0000
0000
,  // measure 48
1000
1000
0000
0000
,  // measure 49
1000
0100
1000
0100
,  // measure 50
0010
0100
0010
0100
,  // measure 51
0010
0001
0010
0001
,  // measure 52
0100
0001
0100
0001
,  // measure 53
0010
1000
0010
1000
,  // measure 54
0001
0000
0000
0000
,  // measure 55
1000
0000
0000
0000
,  // measure 56
0010
0000
0000
1000
,  // measure 57
0000
0000
0100
0000
,  // measure 58
0000
0000
0000
0000
,  // measure 59
1001
1001
1001
1001
,  // measure 60
1001
0000
0000
0000
,  // measure 61
0001
0000
0000
0000
,  // measure 62
1000
0000
0000
0000
,  // measure 63
0001
0000
0000
0000
,  // measure 64
1000
0000
0000
0000
,  // measure 65
0001
0000
0000
0000
,  // measure 66
1000
0000
0000
0002
0000
0000
0003
0000
,  // measure 67
1000
0100
0010
0001
,  // measure 68
1000
0000
0010
0000
,  // measure 69
0100
0000
0001
0000
,  // measure 70
1000
0000
0010
0000
,  // measure 71
0100
0000
0001
0000
,  // measure 72
2002
3003
0000
0000
;

//---------------dance-single - ----------------
#NOTES:
     dance-single:
     :
     Medium:
     5:
     0.246,0.414,0.248,0.038,0.000,151.000,26.000,4.000,0.000,0.000,0.000,0.246,0.414,0.248,0.038,0.000,151.000,26.000,4.000,0.000,0.000,0.000: // measure 0
0000
0000
0000
0000
,  // measure 1
1001
0000
0000
0000
,  // measure 2
0110
0000
0000
0000
,  // measure 3
1001
0001
1000
0001
,  // measure 4
1000
1000
1000
1000
,  // measure 5
1001
0000
0000
0000
0000
0000
0000
0001
,  // measure 6
0000
0000
1000
0000
0000
0000
0000
0010
,  // measure 7
0000
0000
0100
0000
0000
0000
0000
0001
,  // measure 8
0000
1000
0000
0000
,  // measure 9
0001
0000
0000
1000
0000
1000
0000
0000
,  // measure 10
0100
0000
0000
0000
,  // measure 11
0010
0000
0000
0001
0000
0001
0000
0000
,  // measure 12
0100
0000
0000
0000
,  // measure 13
0000
0010
0000
1000
,  // measure 14
0000
0000
0100
0100
,  // measure 15
0000
0000
0000
0000
,  // measure 16
1001
0000
0000
0000
,  // measure 17
0001
0000
0000
0000
,  // measure 18
1000
0000
0000
0000
,  // measure 19
1000
0010
0100
0001
,  // measure 20
0010
0100
1000
0000
,  // measure 21
0000
0000
0000
1000
,  // measure 22
0000
0000
0100
0000
,  // measure 23
0000
0000
1001
0000
,  // measure 24
0000
0000
0001
0001
,  // measure 25
0000
0000
1000
1000
,  // measure 26
0000
0000
1000
0000
0000
0000
0000
0100
,  // measure 27
0000
0000
0010
0000
0000
0000
0000
0001
,  // measure 28
0000
0100
0000
0000
,  // measure 29
0001
0001
0001
1000
,  // measure 30
1000
1000
0100
0100
,  // measure 31
0100
0000
0000
0000
,  // measure 32
1001
0000
0000
0000
,  // measure 33
0110
0000
0000
0000
,  // measure 34
0001
0001
0000
0000
,  // measure 35
1000
1000
0000
0000
,  // measure 36
1000
0000
0000
0000
,  // measure 37
0001
0000
0000
0000
,  // measure 38
0010
1000
0000
0000
,  // measure 39
0010
0001
0000
0000
,  // measure 40
0001
0010
0100
1000
,  // measure 41
0001
0100
0001
0100
0001
0000
0000
0000
,  // measure 42
1000
0000
0000
1000
,  // measure 43
0000
0000
0100
0000
,  // measure 44
0000
0000
0000
0000
,  // measure 45
0110
0110
0000
0000
,  // measure 46
1001
1001
0000
0000
,  // measure 47
0001
0001
0000
0000
,  // measure 48
1000
1000
0000
0000
,  // measure 49
0001
1000
0001
0010
,  // measure 50
0100
1000
0010
0100
,  // measure 51
1001
0100
1001
0010
,  // measure 52
1001
0100
0011
0010
,  // measure 53
0110
0100
1100
0001
,  // measure 54
1001
0000
0000
0000
0000
0000
0000
1000
,  // measure 55
0001
0000
0001
0000
,  // measure 56
0000
0000
0000
1000
,  // measure 57
0000
0000
0100
0000
,  // measure 58
0000
0000
0000
0000
,  // measure 59
1001
0011
1100
0011
,  // measure 60
1001
0000
0000
0000
,  // measure 61
0001
0000
0000
0000
,  // measure 62
1000
0000
0000
0000
,  // measure 63
0001
0000
0000
0000
,  // measure 64
1000
0000
0000
0000
,  // measure 65
0001
0000
0000
0000
,  // measure 66
1000
0000
0000
2002
0000
0000
0000
3003
,  // measure 67
0000
0000
0000
0000
,  // measure 68
1000
0100
1000
0000
0100
0000
0010
0000
,  // measure 69
0001
0100
0001
0000
0100
0000
0010
0000
,  // measure 70
1000
0010
1000
0000
0001
0000
0010
0000
,  // measure 71
0100
1000
0100
0000
1000
0000
0001
0000
,  // measure 72
2002
0000
3003
0000
;

//---------------dance-single - Copied from----------------
#NOTES:
     dance-single:
     Copied from:
     Challenge:
     10:
     0.707,0.722,0.429,0.257,0.157,448.000,45.000,27.000,0.000,0.000,0.000,0.707,0.722,0.429,0.257,0.157,448.000,45.000,27.000,0.000,0.000,0.000: // measure 0
0000
0000
0000
0000
,  // measure 1
1100
0000
0000
0000
,  // measure 2
0011
0000
0000
0000
,  // measure 3
1001
0001
1000
0001
,  // measure 4
0010
0100
0010
0100
0010
0001
0010
0001
,  // measure 5
0011
0001
1000
0010
0100
0001
0100
2000
,  // measure 6
0000
3001
0200
0010
0310
0001
0010
0100
,  // measure 7
1000
0010
0200
0001
0301
0010
0100
2000
,  // measure 8
0100
3100
0010
0001
0020
1000
1030
0010
,  // measure 9
0001
0000
0000
0000
0000
0000
0011
0000
0000
0000
0110
0000
0000
0000
0010
0100
,  // measure 10
2000
0001
3001
0000
0100
0000
0010
0000
,  // measure 11
1001
0000
0000
0000
0000
0000
0011
0000
0000
0000
1100
0000
0000
0000
1000
0100
,  // measure 12
0020
0000
0031
0000
1000
0000
0010
2000
,  // measure 13
0000
0000
0100
0000
3100
0000
0000
0000
0000
0000
0010
0100
1000
0000
0002
0000
,  // measure 14
0000
0000
0100
0000
0103
0000
0010
1000
0100
0000
0010
0000
0001
0000
0200
0000
,  // measure 15
0000
0010
0310
1000
0001
1000
0010
1010
,  // measure 16
0000
0100
0100
0001
0100
0010
0001
0001
,  // measure 17
0000
0100
0100
0010
1000
0010
0100
0001
,  // measure 18
0000
1000
1000
0001
0100
0010
1000
0000
,  // measure 19
0010
0000
1000
0010
1000
0000
0100
0000
0000
0000
0010
0001
0010
0000
0001
0010
,  // measure 20
0001
0000
1000
0010
1000
0000
0001
1000
0001
0000
1000
0100
0000
0000
0020
0000
,  // measure 21
0000
0000
0001
0000
0031
0000
0000
0000
0000
0000
1000
0100
1000
0000
0200
0000
,  // measure 22
0000
0000
0310
0000
0001
0000
0010
0100
0010
0000
0100
0000
0100
0000
2000
0000
,  // measure 23
0000
3001
0001
0100
0010
1000
0010
1010
,  // measure 24
0000
1000
1000
0001
0100
0001
0001
0100
,  // measure 25
0000
0010
1000
0001
1000
0010
1000
1000
,  // measure 26
0000
0001
0001
0010
0100
1000
0100
0020
,  // measure 27
0000
0031
0100
0010
1000
0010
1000
0020
,  // measure 28
0000
0000
0100
0000
0130
0000
0000
0000
0000
0000
0001
0010
0001
0000
0010
0000
,  // measure 29
0100
0000
0000
0000
0100
0000
0000
0000
0100
0000
1000
0100
1000
0000
0000
0000
,  // measure 30
0010
0000
0000
0000
0010
0000
1000
0010
0100
0000
0001
0000
0100
0000
0000
0000
,  // measure 31
0010
0000
1000
0100
1000
0001
1000
0000
,  // measure 32
1001
0000
0000
0010
0100
1000
0100
0000
,  // measure 33
1100
0000
0000
0010
0100
0100
1000
0000
,  // measure 34
0001
0000
0001
0100
0010
0100
0010
0000
,  // measure 35
1000
0000
0000
0000
1000
0000
0002
0000
0000
0000
1003
0100
1000
0000
0000
0000
,  // measure 36
1000
0000
0000
0000
0000
0000
2000
0000
0000
0000
3001
0010
0001
0000
0000
0000
,  // measure 37
0001
0000
0000
1000
0000
0100
0000
0000
,  // measure 38
0001
0000
0100
1000
0000
0010
0000
0000
,  // measure 39
0101
0000
0101
0001
1000
0001
0100
0000
,  // measure 40
0100
0000
0001
1000
0001
0000
0100
0000
0010
0000
1000
0100
0010
0000
0001
0010
,  // measure 41
0001
0000
0001
0000
0001
0000
0001
0000
0001
0000
0010
0100
1000
0000
2000
0000
,  // measure 42
0000
0000
0001
0000
3001
0000
0010
0000
0100
0000
1000
0001
1000
0000
0200
0000
,  // measure 43
0000
0000
0310
0000
0001
0000
0010
0100
0010
0000
0100
0000
0010
0000
0002
0000
,  // measure 44
0000
0103
0010
1000
0010
0100
0001
0000
,  // measure 45
1001
0000
1001
0001
0010
0001
0100
0000
,  // measure 46
0101
0000
1010
0001
1000
0001
1000
0000
,  // measure 47
0001
0000
0001
0100
0010
0100
0010
0000
,  // measure 48
1000
0000
1000
0100
1000
0000
0000
0000
1100
0000
1000
0001
1000
0000
0000
0000
,  // measure 49
0011
1010
1100
1001
,  // measure 50
0101
0001
0011
0000
0011
0000
1100
0000
,  // measure 51
1001
0001
1000
0000
1100
0000
0110
0000
,  // measure 52
0011
0010
0010
0000
0011
0000
0110
0000
,  // measure 53
1100
0110
0011
0101
,  // measure 54
0001
0000
0010
0100
1000
0000
0010
0000
0000
0000
0100
0000
0000
0000
0001
0100
,  // measure 55
0010
0000
1000
0010
0100
0000
0000
0000
0001
0000
1000
0100
0000
0000
0020
0000
,  // measure 56
0000
0000
0001
0000
0031
0000
0010
0000
0100
0000
1000
0100
1000
0000
0200
0000
,  // measure 57
0010
0000
0310
0000
0001
0000
0010
0100
0010
0000
0001
0000
0010
0000
0020
0000
,  // measure 58
0000
0130
0100
1000
0100
1000
0001
0000
,  // measure 59
0101
1100
1010
0011
,  // measure 60
1001
0000
0100
0010
0100
0010
0001
0000
,  // measure 61
0001
0000
0010
0100
0010
0100
1000
0000
,  // measure 62
1000
0000
0000
0000
0000
0000
1000
0000
0100
0000
0010
0001
0000
0000
0000
0000
,  // measure 63
0001
0000
0000
0000
0000
0000
0001
0000
0010
0000
0100
1000
0000
0000
0000
0000
,  // measure 64
1000
0000
0000
0001
0010
0001
0010
0000
,  // measure 65
0001
0000
0000
1000
0010
1000
0010
0000
,  // measure 66
1000
0000
0000
2002
0000
0000
3003
0000
,  // measure 67
1000
0100
0001
0100
0010
0100
1000
0000
,  // measure 68
0001
0010
1000
0001
0100
1000
0001
0100
,  // measure 69
0001
0100
0010
0100
0010
0100
1000
0100
,  // measure 70
0010
0100
0001
0010
0100
1000
0100
0010
,  // measure 71
0100
1000
0001
1000
0001
0100
0001
1000
,  // measure 72
2002
3003
0000
0000
;

//---------------dance-single - ----------------
#NOTES:
     dance-single:
     :
     Beginner:
     2:
     0.131,0.309,0.152,0.000,0.000,80.000,16.000,0.000,0.000,0.000,0.000,0.131,0.309,0.152,0.000,0.000,80.000,16.000,0.000,0.000,0.000,0.000: // measure 0
0000
0000
0000
0000
,  // measure 1
1000
0000
0000
0000
,  // measure 2
0001
0000
0000
0000
,  // measure 3
1000
0000
0100
0000
,  // measure 4
0010
0000
0000
0000
,  // measure 5
1001
0000
0000
0000
,  // measure 6
0000
0000
0000
0000
,  // measure 7
1001
0000
0000
0000
,  // measure 8
0000
0000
0000
0000
,  // measure 9
0001
0000
0000
0000
,  // measure 10
1000
0000
0000
0000
,  // measure 11
0010
0000
0000
0000
,  // measure 12
0100
0000
0000
0000
,  // measure 13
0000
0000
0000
1000
,  // measure 14
0000
0000
0100
0000
,  // measure 15
0000
0000
0000
0000
,  // measure 16
1001
0000
0000
0000
,  // measure 17
0001
0000
0000
0000
,  // measure 18
1000
0000
0000
0000
,  // measure 19
0000
0000
0000
0000
,  // measure 20
0001
0000
0000
0000
,  // measure 21
0000
0000
0000
1000
,  // measure 22
0000
0000
0100
0000
,  // measure 23
0000
0000
0000
0000
,  // measure 24
1001
0000
0000
0000
,  // measure 25
0001
0000
0000
0000
,  // measure 26
1000
0000
0000
0000
,  // measure 27
0000
0000
0000
0000
,  // measure 28
0000
0000
0000
0000
,  // measure 29
0001
0000
0000
0000
,  // measure 30
1000
0000
0000
0000
,  // measure 31
0100
0000
0000
0000
,  // measure 32
1001
0000
0000
0000
,  // measure 33
0110
0000
0000
0000
,  // measure 34
0001
0001
0000
0000
,  // measure 35
1000
1000
0000
0000
,  // measure 36
1000
0000
0000
0000
,  // measure 37
0001
0000
0000
0000
,  // measure 38
0100
0100
0000
0000
,  // measure 39
1000
1000
0000
0000
,  // measure 40
0001
0000
0000
0000
,  // measure 41
1000
0000
0000
0000
,  // measure 42
0000
0000
0000
0000
,  // measure 43
1000
0000
0000
0000
,  // measure 44
0100
0000
0000
0000
,  // measure 45
1001
1001
0000
0000
,  // measure 46
0110
0110
0000
0000
,  // measure 47
0001
0001
0000
0000
,  // measure 48
1000
1000
0000
0000
,  // measure 49
0001
0000
0000
0000
,  // measure 50
1000
0000
0000
0000
,  // measure 51
0001
0000
0000
0000
,  // measure 52
1000
0000
0000
0000
,  // measure 53
0010
0000
0000
0000
,  // measure 54
1000
0000
0000
0000
,  // measure 55
0001
0000
0000
0000
,  // measure 56
0000
0000
0000
0000
,  // measure 57
0000
1000
0000
0000
,  // measure 58
0000
0100
0000
0000
,  // measure 59
1001
1001
1001
1001
,  // measure 60
1001
0000
0000
0000
,  // measure 61
0001
0000
0000
0000
,  // measure 62
1000
0000
0000
0000
,  // measure 63
0001
0000
0000
0000
,  // measure 64
1000
0000
0000
0000
,  // measure 65
0001
0000
0000
0000
,  // measure 66
1000
0000
0000
0000
,  // measure 67
1000
0000
0001
0000
,  // measure 68
1000
0000
0100
0000
,  // measure 69
0010
0000
0001
0000
,  // measure 70
0100
0000
0010
0000
,  // measure 71
1000
0000
0001
0000
,  // measure 72
1001
0000
0000
0000
;

//---------------dance-double - Copied from----------------
#NOTES:
     dance-double:
     Copied from:
     Hard:
     7:
     0.620,0.585,0.362,0.210,0.067,396.000,38.000,22.000,0.000,0.000,0.000,0.620,0.585,0.362,0.210,0.067,396.000,38.000,22.000,0.000,0.000,0.000:
00000000
00000000
00000000
00000000
,
00011000
00000000
00000000
00000000
,
10010000
00000000
00000000
00000000
,
00001001
00000001
00000001
00000001
,
00000001
00000010
00001000
00010000
00100000
10000000
00100000
01000000
,
00001000
01000000
00020000
00000000
10030000
00000000
10000000
00200000
,
00000000
01300000
00200000
00000000
10300000
00100000
01000000
00010000
,
01000000
00001000
00200000
00000000
00301000
00010000
00000100
00001000
,
00000010
00000000
00001000
00000001
00001000
00000001
00001000
00000001
00001000
00000000
00000000
00000000
00000001
00000000
00000000
00000000
,
00001001
00000000
00000000
00000000
00000000
00000000
00001010
00000000
00000000
00000000
00011000
00000000
00000000
00000000
00001000
00010000
,
00001000
00100000
00001000
01000000
00100000
10000000
00010000
10000000
,
10010000
00000000
00000000
00000000
00000000
00000000
00011000
00000000
00000000
00000000
00010100
00000000
00000000
00000000
00100000
00001000
,
00200000
00000000
00310000
00000000
10000000
00000000
00100000
20000000
,
00000000
01000000
31000000
00000000
00000000
00000000
00000000
00020000
,
00000000
01000000
01030000
00000000
00000000
00000000
00000000
02000000
,
00000000
00100000
03100000
10000000
00010000
10000000
00010000
10010000
,
00000000
00010000
00010000
00100000
01000000
10000000
00010000
00010000
,
00000000
01000000
01000000
00100000
10000000
00100000
01000000
00010000
,
00000000
10000000
10000000
00010000
01000000
00100000
10000000
00000000
,
00100000
00000000
10000000
00100000
00000000
00000000
00100000
00000000
00000000
00000000
01000000
00010000
00000000
00000000
00010000
00100000
,
01000000
00000000
01000000
10000000
00000000
00000000
00000000
00000000
00010000
00000000
10000000
00000000
00000000
00000000
00010000
00000000
,
00000000
00010000
00010000
00000000
00000000
10000000
10000000
01000000
,
00000000
00100000
00010000
00100000
00100000
01000000
01000000
10000000
,
00000000
00010000
00010000
01000000
00010000
10000000
00010000
10010000
,
00000000
10000000
10000000
00010000
01000000
00010000
00010000
01000000
,
00000000
00100000
10000000
00010000
10000000
00100000
10000000
10000000
,
00000000
00010000
00010000
00100000
01000000
10000000
01000000
00100000
,
00000000
00010000
00010000
01000000
00100000
10000000
00100000
10000000
,
00000000
00100000
00100000
00000000
10000000
10000000
01000000
00010000
,
00010000
00000000
00010000
00000000
01000000
01000000
10000000
00000000
,
00100000
00000000
00100000
10000000
01000000
00100000
01000000
00000000
,
00100000
00000000
00100000
00010000
00100000
01000000
10000000
00000000
,
10010000
00000000
00000000
00010000
10000000
00010000
10000000
00000000
,
10010000
00000000
00000000
00100000
01000000
01000000
10000000
00000000
,
00010000
00000000
00010000
01000000
00100000
01000000
00100000
00000000
,
10000000
00000000
10000000
00020000
00000000
00000000
01000000
00000000
,
10030000
00000000
00000000
20000000
00000000
00000000
00100000
00000000
,
30010000
00000000
00000000
10000000
00000000
01000000
00000000
00000000
,
00010000
00000000
01000000
10000000
00000000
00100000
00000000
00000000
,
01010000
00000000
01010000
00010000
10000000
00010000
10000000
00000000
,
01000000
10000000
00100000
01000000
00010000
00100000
01000000
10000000
,
00010000
00010000
00010000
00010000
00010000
00000000
10010000
20000000
,
00000000
00010000
30010000
00000000
00000000
10000000
10000000
02000000
,
00000000
00010000
03010000
01000000
10000000
01000000
00100000
00020000
,
00000000
01030000
00100000
10000000
00100000
01000000
00010000
00000000
,
10010000
00000000
10010000
00010000
00100000
00010000
00100000
00000000
,
00110000
00000000
00110000
00010000
10000000
00010000
10000000
00000000
,
00010000
00000000
00010000
01000000
00100000
01000000
00100000
00000000
,
10000000
10000000
01000000
00100000
,
00110000
10100000
11000000
10010000
,
01010000
10100000
00110000
11000000
,
20010000
00010000
01000000
31000000
,
00120000
00100000
10000000
10030000
,
20010000
01000000
00010000
01000000
,
30010000
00100000
01000000
10000000
00000000
10000000
00000000
10000000
,
00010000
00000000
10000000
00000000
00010000
00000000
00000000
00000000
00010000
00000000
10000000
01000000
00000000
00000000
00200000
00000000
,
00000000
00000000
00010000
00000000
00310000
00000000
00000000
00000000
00000000
00000000
10000000
01000000
10000000
00000000
02000000
00000000
,
00000000
00000000
03100000
00000000
00010000
00000000
00100000
01000000
00100000
00000000
00010000
00000000
00100000
00000000
00100000
00000000
,
00000000
01000000
01000000
10000000
01000000
10000000
00010000
00000000
,
10010000
11000000
00110000
10010000
,
10010000
00000000
01000000
00100000
01000000
00100000
00010000
00000000
,
00010000
00000000
00100000
01000000
00100000
01000000
10000000
00000000
,
10000000
00000000
00000000
00000000
00000000
00000000
10000000
00000000
01000000
00000000
00100000
00010000
00000000
00000000
00000000
00000000
,
00010000
00000000
00000000
00000000
00000000
00000000
00010000
00000000
00100000
00000000
01000000
10000000
00000000
00000000
00000000
00000000
,
10000000
00000000
00000000
00000000
,
00010000
00000000
00000000
00000000
,
10000000
00000000
00000000
20020000
00000000
00000000
30030000
00000000
,
10000000
01000000
00010000
01000000
00100000
01000000
10000000
00000000
,
00010000
00100000
00010000
00100000
01000000
00100000
01000000
10000000
,
01000000
10000000
00100000
10000000
00100000
01000000
00010000
01000000
,
00100000
10000000
00100000
10000000
01000000
00010000
01000000
00100000
,
01000000
10000000
00100000
00010000
00100000
01000000
00010000
10000000
,
20020000
30030000
00000000
00000000
;

//---------------dance-single - ----------------
#NOTES:
     dance-single:
     :
     Edit:
     13:
     0.801,0.824,0.390,0.257,0.352,521.000,41.000,27.000,0.000,0.000,0.000,0.801,0.824,0.390,0.257,0.352,521.000,41.000,27.000,0.000,0.000,0.000: // measure 0
0000
0000
0000
0000
,  // measure 1
1100
0000
0000
0000
,  // measure 2
0011
0000
0000
0000
,  // measure 3
1001
0001
1000
0001
,  // measure 4
0010
0100
0010
0100
0010
0001
0010
0001
,  // measure 5
0011
0001
1000
0010
0100
0001
0100
0020
,  // measure 6
0001
0031
0200
0010
0310
0001
0010
0100
,  // measure 7
1000
0010
0200
0001
0301
0010
0100
2000
,  // measure 8
0100
0000
3100
0010
0100
0010
0001
0010
0002
0000
0000
0000
0103
0000
0010
0000
,  // measure 9
0001
0000
0100
0000
0010
0000
1000
0000
0010
0000
0100
0000
0001
0000
0010
0100
,  // measure 10
2000
0001
3001
0100
0010
1000
0001
0100
,  // measure 11
0010
0000
1000
0000
0100
0000
0010
0000
0001
0000
0100
0000
0010
0000
1000
0100
,  // measure 12
0020
0000
0031
0100
0010
0100
0010
2000
,  // measure 13
0000
0000
0100
0000
3100
0000
0000
0000
0000
0000
0010
0100
1000
0000
0002
0000
,  // measure 14
0000
0000
0100
0000
0103
0000
0010
1000
0100
0000
0010
0000
0001
0000
0200
0000
,  // measure 15
0000
0010
0310
1000
0001
1000
0010
1010
,  // measure 16
0000
0100
0100
0001
0100
0010
0001
0001
,  // measure 17
0000
0100
0100
0010
1000
0010
0100
0001
,  // measure 18
0000
1000
1000
0001
0100
0010
1000
0000
,  // measure 19
0010
0000
1000
0010
1000
0000
0100
0000
0010
0001
0010
0001
0010
0000
0001
0010
,  // measure 20
0100
0000
1000
0010
0100
0000
0001
1000
0001
1000
0100
0010
0000
0000
0020
0000
,  // measure 21
0000
0000
0001
0000
0031
0000
0100
0000
0010
0000
1000
0100
1000
0000
0200
0000
,  // measure 22
0000
0000
0310
0000
0001
0000
0010
0100
0010
0000
0100
0000
0100
0000
2000
0000
,  // measure 23
0000
3001
0001
0100
0010
1000
0010
1010
,  // measure 24
0010
1000
1000
0001
0100
0001
0001
0200
,  // measure 25
0000
0310
1000
0001
1000
0010
1000
2000
,  // measure 26
0000
3001
0001
0010
0100
1000
0100
0020
,  // measure 27
0000
0031
0100
0010
1000
0010
1000
0020
,  // measure 28
0000
0000
0100
0000
0130
0000
0001
0000
0010
0000
0001
0010
0001
0000
0010
0000
,  // measure 29
0011
0000
0000
0000
0011
0000
0000
0000
1100
0000
1000
0100
1000
0000
0000
0000
,  // measure 30
1010
0000
0000
0000
0010
0000
1000
0010
0100
0000
0001
0000
0100
0000
0000
0000
,  // measure 31
0101
0000
1100
0100
1000
0001
1000
0000
,  // measure 32
1001
0000
0001
0010
0100
1000
0100
0000
,  // measure 33
1100
0000
0001
0010
0100
0100
1000
0000
,  // measure 34
0001
0000
0001
0100
0010
0100
0010
0000
,  // measure 35
1000
0000
0000
0000
1000
0000
0002
0000
0000
0000
1003
0100
1000
0000
0000
0000
,  // measure 36
1000
0000
0000
0000
0100
0000
2000
0000
0000
0000
3001
0010
0001
0000
0000
0000
,  // measure 37
0001
0000
0000
0011
0000
1010
0000
0000
,  // measure 38
1100
0000
0101
1010
0000
0011
0000
0000
,  // measure 39
0101
0000
0101
0001
1000
0001
0100
0000
,  // measure 40
0100
0000
0001
1000
0010
0000
0100
0000
0001
0100
0010
1000
0010
0000
0100
0001
,  // measure 41
0100
0000
0001
0000
0001
0000
0001
0000
0001
0000
0010
0100
1000
0000
2000
0000
,  // measure 42
0000
0000
0001
0000
3001
0000
0010
0000
0100
0000
1000
0001
1000
0000
0200
0000
,  // measure 43
0000
0000
0310
0000
0001
0000
0010
0100
0010
0000
0100
0000
0010
0001
0000
0000
,  // measure 44
0100
0100
0010
1000
0010
0100
0001
0000
,  // measure 45
1001
0000
1000
0000
1001
0000
0001
0000
0010
0000
0001
0000
0100
0001
0000
0000
,  // measure 46
0101
0100
1010
0001
1000
0001
1000
0100
,  // measure 47
0001
0000
0001
0100
1000
0100
1000
0000
,  // measure 48
1000
0000
1000
0100
1000
0000
0000
0000
1100
0000
1000
0001
1000
0000
0000
0000
,  // measure 49
0011
0000
0000
0000
1010
0000
0000
0000
1100
0000
1000
0000
0001
0100
0000
0000
,  // measure 50
0010
0000
1000
0000
0010
0000
0001
0100
0001
0000
1000
0010
1000
0000
0000
0000
,  // measure 51
1001
0000
0001
0000
1000
0000
1000
0100
1000
0000
0100
0010
0100
0000
0000
0000
,  // measure 52
0011
0000
0010
0000
0010
0000
0001
1000
0010
0000
0100
0001
0100
0000
0000
0000
,  // measure 53
0000
1001
0000
0101
,  // measure 54
0001
0000
0010
0100
1000
0000
0010
0100
0001
0100
0010
0000
1000
0000
0001
0100
,  // measure 55
0010
0000
1000
0010
0100
0000
0100
0000
0001
0000
1000
0100
0010
0001
0020
0000
,  // measure 56
0000
0000
0001
0000
0031
0000
0010
0000
0100
0000
1000
0100
1000
0000
0200
0000
,  // measure 57
0010
0000
0310
0000
0001
0000
0010
0100
0010
0000
0001
0000
0010
0100
0000
0000
,  // measure 58
1000
0100
0100
1000
0100
1000
0001
0000
,  // measure 59
0101
0100
0110
0010
1010
1000
1001
0010
,  // measure 60
1001
0000
0100
0010
0100
0010
0001
0000
,  // measure 61
0001
0000
0010
0100
0010
0100
1000
0000
,  // measure 62
1000
0000
0000
0000
0000
0000
1000
0000
0100
0000
0010
0001
0010
0000
0000
0000
,  // measure 63
0001
0000
0000
0000
0000
0000
0001
0000
0010
0000
0100
1000
0001
0000
0000
0000
,  // measure 64
1000
0000
0000
0001
0010
0001
0010
0000
,  // measure 65
0001
0000
0000
1000
0010
1000
0010
0000
,  // measure 66
1000
0000
0000
2002
0000
0000
3003
0000
,  // measure 67
1000
0100
0001
0100
0010
0100
1000
0000
,  // measure 68
0001
0100
0000
0010
1000
0000
1000
0010
0100
0001
0000
0100
0010
0000
1000
0010
,  // measure 69
0100
0001
0000
0100
0010
0000
1000
0010
0100
0010
0000
1000
0100
0000
0010
0001
,  // measure 70
0010
0001
0000
1000
0100
0000
0010
0001
0010
0001
0000
1000
0010
0000
0100
0001
,  // measure 71
0100
0010
0000
1000
0010
0000
0100
0001
0100
0001
0000
0000
1000
0000
1000
0000
,  // measure 72
2002
3003
0000
0000
0000
0000
0000
0000
;
