#TITLE:Burning Love;
#SUBTITLE:(Breeze Remix);
#ARTIST:Katie Jewels;
#TITLETRANSLIT:;
#SUBTITLETRANSLIT:;
#ARTISTTRANSLIT:;
#CREDIT:;
#BANNER:;
#BACKGROUND:;
#LYRICSPATH:;
#CDTITLE:;
#MUSIC:burninglovebreezeremix.ogg;
#OFFSET:-0.020;
#SAMPLESTART:33.940;
#SAMPLELENGTH:12.000;
#SELECTABLE:YES;
#BPMS:0.000=170.000;
#STOPS:;
#BGCHANGES:;

//---------------dance-single - ----------------
#NOTES:
     dance-single:
     :
     Easy:
     5:
     0.256,0.393,0.150,0.000,0.000: // measure 1
0000
0000
0000
0000
,  // measure 2
0000
0000
0000
0000
,  // measure 3
1001
0000
0000
0000
,  // measure 4
1000
0000
0000
0000
,  // measure 5
0001
0000
0000
0000
,  // measure 6
0100
0000
0000
0000
,  // measure 7
0010
0000
0000
0000
,  // measure 8
1000
0001
0100
0000
,  // measure 9
0010
1000
0010
1000
,  // measure 10
0001
0100
0001
0100
,  // measure 11
0010
1000
0010
1000
,  // measure 12
0001
0100
1000
0100
,  // measure 13
0001
0100
0010
1000
,  // measure 14
0010
0100
0001
1000
,  // measure 15
0010
0100
0001
0010
,  // measure 16
0100
1000
0001
0000
,  // measure 17
1001
1001
1001
0000
,  // measure 18
0110
0110
0110
0000
,  // measure 19
0011
0011
0011
0000
,  // measure 20
1100
1100
1100
0000
,  // measure 21
1000
0001
1000
0000
,  // measure 22
0100
0010
0100
0000
,  // measure 23
0001
0001
1000
1000
,  // measure 24
0001
0000
0000
0000
,  // measure 25
1000
0001
1000
0000
,  // measure 26
0010
0010
0010
0000
,  // measure 27
0100
0001
0100
0000
,  // measure 28
0010
0010
0010
0000
,  // measure 29
1000
0001
1000
0000
,  // measure 30
0010
0000
0010
0000
,  // measure 31
0100
0100
0100
0000
,  // measure 32
0001
0001
0001
0000
,  // measure 33
1000
0001
1000
0000
,  // measure 34
0001
1000
1001
0000
,  // measure 35
0010
0010
0010
0000
,  // measure 36
0100
0100
0100
0000
,  // measure 37
0001
0001
0001
0000
,  // measure 38
1000
1000
1000
0000
,  // measure 39
0010
0010
0010
0000
,  // measure 40
1000
0100
1000
0100
,  // measure 41
1000
1000
0001
0000
,  // measure 42
1000
0001
0100
0000
,  // measure 43
0010
1000
0001
0000
,  // measure 44
1000
1000
1000
0000
,  // measure 45
0001
0001
0001
0000
,  // measure 46
0100
0100
0100
0000
,  // measure 47
0010
0010
0010
0000
,  // measure 48
1000
1000
1000
0000
,  // measure 49
0001
0001
0001
0000
,  // measure 50
1000
1000
1000
0000
,  // measure 51
0010
1000
0010
0000
,  // measure 52
0100
0100
0100
0000
,  // measure 53
0001
1000
0001
0000
,  // measure 54
1000
1000
1000
0000
,  // measure 55
0001
0001
0001
0000
,  // measure 56
1000
0001
1000
0000
0001
0000
1000
0000
,  // measure 57
0001
0001
0100
0100
,  // measure 58
0010
0010
1000
1001
,  // measure 59
0000
0001
1000
0010
,  // measure 60
0100
0001
1000
1001
;

//---------------dance-single - ----------------
#NOTES:
     dance-single:
     :
     Medium:
     8:
     0.436,0.449,0.817,0.000,0.028: // measure 1
0000
0000
0000
0000
,  // measure 2
0000
0000
0000
0000
,  // measure 3
1001
0000
0000
0000
0000
0001
0000
0000
,  // measure 4
1000
0010
0100
0001
,  // measure 5
1001
0010
1000
0010
,  // measure 6
0100
0000
0001
0000
1000
0000
0001
1000
,  // measure 7
0000
1000
0000
0000
0000
0000
0000
0000
,  // measure 8
0001
0000
1000
0000
0010
0000
0100
0001
,  // measure 9
0101
1010
0101
1010
,  // measure 10
1000
0100
0010
0000
0001
0000
0100
0000
,  // measure 11
1010
1001
1100
1001
,  // measure 12
0001
0100
0001
0000
1000
0000
0001
0000
,  // measure 13
1001
0110
1001
0110
,  // measure 14
0001
0010
0100
0000
1000
0100
1000
0000
,  // measure 15
1001
0110
1001
0110
,  // measure 16
1001
0000
0001
0000
1000
0010
0100
0000
,  // measure 17
1001
1001
0110
0110
,  // measure 18
0001
1000
0010
0100
,  // measure 19
1001
1001
0110
0110
,  // measure 20
0001
1000
0010
1000
,  // measure 21
1010
1010
0101
0101
,  // measure 22
0001
0000
0001
0000
1000
0000
0001
1000
,  // measure 23
0001
0001
1000
0001
,  // measure 24
1001
0000
0000
0000
,  // measure 25
1100
0000
0000
0000
1100
0000
0000
0000
1001
0000
0000
0101
0000
0000
0000
0000
,  // measure 26
0001
0100
0001
0100
0001
0000
0000
0000
,  // measure 27
1010
1010
1010
0000
,  // measure 28
1000
0001
1000
0001
1000
0000
0000
0000
,  // measure 29
0101
0101
0101
0101
,  // measure 30
0010
0010
0010
0010
0010
0000
0000
0000
,  // measure 31
0101
0000
0000
0000
1001
0000
0000
0000
0101
0000
0000
0101
0000
0000
0000
0000
,  // measure 32
1000
0010
1000
0000
0001
0000
0000
0000
,  // measure 33
1001
1001
1001
0000
,  // measure 34
1000
1000
1000
1000
1000
0000
0000
0000
,  // measure 35
0101
0101
0101
0000
,  // measure 36
0100
0100
0100
0100
0100
0000
0000
0000
,  // measure 37
1010
1010
1010
0000
,  // measure 38
1000
1000
1000
1000
1000
0000
0000
0000
,  // measure 39
1001
1001
1001
0000
,  // measure 40
0001
0001
1000
1000
0001
0001
1000
0000
,  // measure 41
1001
0000
0000
0000
1001
0000
0000
0000
1001
0000
0000
0100
0000
0000
0000
0000
,  // measure 42
0001
1000
0001
1000
0001
0000
0000
0000
,  // measure 43
1010
0000
0000
0000
0101
0000
0000
0000
1010
0000
0000
1001
0000
0000
0000
0000
,  // measure 44
1000
0100
0001
0100
1000
0000
0000
0000
,  // measure 45
0101
0000
0000
0000
0101
0000
0000
0000
0101
0000
0000
0101
0000
0000
0000
0000
,  // measure 46
1000
0100
1000
0100
1000
0000
0000
0000
,  // measure 47
1001
0000
0000
0000
0110
0000
0000
0000
1001
0000
0000
1100
0000
0000
0000
0000
,  // measure 48
1000
0001
1000
0000
,  // measure 49
1010
0101
1010
0000
,  // measure 50
0100
0100
0100
0100
0100
0000
0000
0000
,  // measure 51
0011
1100
1001
0000
,  // measure 52
0001
0001
0001
0001
0001
0000
0000
0000
,  // measure 53
1010
0011
1010
0000
,  // measure 54
1000
1000
1000
1000
1000
0000
0000
0000
,  // measure 55
0101
0101
0101
0000
,  // measure 56
1000
1000
1000
0000
0001
0001
0001
0000
,  // measure 57
1001
1000
0001
0100
,  // measure 58
0010
1000
0100
0000
,  // measure 59
0100
1000
0010
0100
,  // measure 60
0001
1000
0001
1000
;

//---------------dance-single - ----------------
#NOTES:
     dance-single:
     :
     Hard:
     12:
     0.496,0.507,0.432,0.000,0.103: // measure 1
0000
0000
0000
0000
,  // measure 2
0000
0000
0000
0000
,  // measure 3
1000
0000
0001
0100
0001
0100
0001
0100
,  // measure 4
0000
0010
1000
0010
0100
0001
0010
0100
,  // measure 5
1000
0000
0001
0100
1000
0100
0001
0100
,  // measure 6
0000
0100
0010
1000
0010
0100
0010
1000
,  // measure 7
0000
1000
0000
0000
0000
0000
0000
0000
,  // measure 8
0001
0000
1000
0000
0010
0000
0100
0001
,  // measure 9
1000
0010
0001
0010
1000
0100
0001
0100
,  // measure 10
1000
0010
0100
0001
0100
1000
0100
0001
,  // measure 11
1000
0100
0001
0100
1000
0010
0100
0001
,  // measure 12
0100
1000
0100
0010
1000
0100
0001
0100
,  // measure 13
0010
0001
0100
0010
1000
0100
0001
0100
,  // measure 14
1000
0010
0100
0001
1000
0100
1000
0001
,  // measure 15
0100
0100
0100
0010
1000
1000
1000
0001
,  // measure 16
0100
1000
0100
0001
0100
0010
1000
0000
,  // measure 17
1000
0100
1000
0001
1000
0010
1000
0100
,  // measure 18
1100
0000
0011
0000
0101
0000
0010
1000
,  // measure 19
0000
0001
0000
0000
1000
0010
1000
0010
,  // measure 20
1010
0000
1010
0000
1001
0000
0001
0100
,  // measure 21
0000
0001
0000
0000
1000
0010
1000
0100
,  // measure 22
1001
0000
1100
0000
0011
0000
0001
0100
,  // measure 23
0001
0010
0001
0010
0100
1000
0100
1000
,  // measure 24
0100
1000
0100
1000
0100
1000
0100
1000
0001
0000
0000
0000
0000
0000
0000
0000
,  // measure 25
1000
0000
0000
0000
0001
0000
0000
0000
0001
0000
0000
1010
0000
0000
0000
0000
,  // measure 26
1000
0000
0100
0000
0001
0000
0100
0000
1000
0000
0000
1000
0000
0000
0010
0000
,  // measure 27
1010
0000
0000
0000
0101
0000
0000
0000
0001
0000
0000
1001
0000
0000
0000
0000
,  // measure 28
0001
0000
0100
0000
1000
0000
0100
0000
0001
0000
0000
1000
0000
0000
0010
0000
,  // measure 29
1000
0000
0000
0000
1001
0000
0000
0000
0110
0000
0000
0001
0000
0000
0000
0000
,  // measure 30
1000
0000
0010
0000
0100
0000
0010
0000
1000
0000
0000
1000
0000
0000
0010
0000
,  // measure 31
0100
0000
0000
0000
0001
0000
0000
0000
0010
0000
0000
0001
0000
0000
0000
0000
,  // measure 32
0100
0000
1000
0000
0100
0000
1000
0000
0100
0000
0000
0001
0000
0100
0010
0000
,  // measure 33
1000
1001
0101
0000
,  // measure 34
1000
0100
0001
0100
1000
0000
0000
0000
,  // measure 35
1001
0011
1001
0000
,  // measure 36
0001
0100
1000
0100
0001
0000
0000
0000
,  // measure 37
1001
1001
0101
0000
,  // measure 38
0001
0010
1000
0010
0001
0000
0000
0000
,  // measure 39
1001
0101
1010
0000
,  // measure 40
1000
1000
0010
0010
0100
0100
0001
0001
,  // measure 41
1001
0000
0000
0000
1010
0000
0000
0000
1000
0000
0000
1000
0000
0000
0000
0000
,  // measure 42
0001
0000
0100
0000
1000
0000
0100
0000
0001
0000
0000
1000
0000
0000
0010
0000
,  // measure 43
0001
0000
0000
0000
0010
0000
0000
0000
1000
0000
0000
1001
0000
0000
0000
0000
,  // measure 44
0001
0000
0100
0000
1000
0000
0100
0000
0001
0000
0000
1000
0000
0000
0001
0000
,  // measure 45
1000
0000
0000
0000
1001
0000
0000
0000
0010
0000
0000
1001
0000
0000
0000
0000
,  // measure 46
0010
0000
1000
0000
0100
0000
0001
0000
0100
0000
0000
1000
0000
0000
0001
0000
,  // measure 47
1001
0000
0000
0000
1010
0000
0000
0000
0010
0000
0000
1001
0000
0000
0000
0000
,  // measure 48
1000
0000
0001
0000
0100
0000
0001
0000
0100
0000
0000
0001
0000
0000
1000
0000
,  // measure 49
1001
1100
1001
0000
,  // measure 50
1000
0100
0001
0100
0010
0000
0000
0000
,  // measure 51
1001
0110
1001
0000
,  // measure 52
0001
0010
1000
0010
0001
0000
0000
0001
,  // measure 53
0101
0011
0101
0000
,  // measure 54
0100
0100
0001
0100
1000
0000
0000
0000
,  // measure 55
1001
0110
1001
0000
,  // measure 56
0001
0010
1000
0010
0001
0100
1000
0010
,  // measure 57
0100
1000
0100
0010
,  // measure 58
0001
1000
0010
0100
,  // measure 59
0001
1000
1000
0001
,  // measure 60
0001
0000
0000
0000
1000
0000
0000
0000
0001
0000
0000
0000
1000
0000
0000
1000
;

//---------------dance-single - ----------------
#NOTES:
     dance-single:
     :
     Beginner:
     3:
     0.150,0.197,0.075,0.038,0.000: // measure 1
0000
0000
0000
0000
,  // measure 2
0000
0000
0000
0000
,  // measure 3
1000
0000
0000
0000
,  // measure 4
0000
0000
0000
0000
,  // measure 5
0001
0000
0000
0000
,  // measure 6
0000
0000
0000
0000
,  // measure 7
1000
0000
0000
0000
,  // measure 8
0001
0000
1000
0000
,  // measure 9
0001
0000
0001
0000
,  // measure 10
0001
0000
1000
0000
,  // measure 11
0010
0000
0100
0000
,  // measure 12
0001
0000
0100
0000
,  // measure 13
0010
0000
1000
0000
,  // measure 14
0100
0000
0010
0000
,  // measure 15
0001
0000
0100
0000
,  // measure 16
0010
0000
1000
0000
,  // measure 17
0100
0100
0100
0000
,  // measure 18
0010
0010
0010
0000
,  // measure 19
0001
0001
0001
0000
,  // measure 20
1000
1000
1000
0000
,  // measure 21
0001
0000
1000
0000
,  // measure 22
0001
0000
0001
0000
,  // measure 23
0100
0000
0010
0000
,  // measure 24
1000
0000
0000
0000
,  // measure 25
0001
0000
0001
0000
,  // measure 26
0010
0000
0010
0000
,  // measure 27
0100
0000
0100
0000
,  // measure 28
1000
0000
1000
0000
,  // measure 29
0001
0000
0100
0000
,  // measure 30
0001
0000
1000
0000
,  // measure 31
0001
0000
0100
0000
,  // measure 32
0001
0000
1000
0000
,  // measure 33
0002
0000
0003
0000
,  // measure 34
0100
0100
0100
0000
,  // measure 35
0020
0000
0030
0000
,  // measure 36
1000
1000
1000
0000
,  // measure 37
0002
0000
0003
0000
,  // measure 38
0100
0100
0100
0000
,  // measure 39
0002
0000
0003
0000
,  // measure 40
1000
0000
0001
0000
,  // measure 41
1001
0000
0000
0000
,  // measure 42
0010
0000
0010
0000
,  // measure 43
1001
0000
0000
0000
,  // measure 44
0100
0000
0001
0000
,  // measure 45
1001
0000
0000
0000
,  // measure 46
1000
0000
0010
0000
,  // measure 47
1001
0000
0000
0000
,  // measure 48
0001
0000
0001
0000
,  // measure 49
1000
0000
0001
0000
,  // measure 50
1001
0000
0000
0000
,  // measure 51
1000
0000
0001
0000
,  // measure 52
0110
0000
0000
0000
,  // measure 53
1000
0000
0001
0000
,  // measure 54
1001
0000
0000
0000
,  // measure 55
0001
0000
1000
0000
,  // measure 56
1001
0000
0000
0000
,  // measure 57
0001
0000
0000
0000
,  // measure 58
1000
0000
0000
0000
,  // measure 59
0001
0000
0000
0000
,  // measure 60
0100
0000
0000
0000
,  // measure 61
0010
0000
0000
0000
;

//---------------dance-single - Copied from----------------
#NOTES:
     dance-single:
     Copied from:
     Challenge:
     14:
     0.614,0.703,0.085,0.000,0.183: // measure 1
0000
0000
0000
0000
,  // measure 2
0000
0000
0000
0000
,  // measure 3
1000
0000
0001
0100
0001
0100
0001
0100
,  // measure 4
0000
0000
0010
0000
1000
0000
0010
0000
0100
0000
0001
0000
0010
0000
0100
1000
,  // measure 5
0100
0000
0001
0100
1000
0100
0001
0100
,  // measure 6
0000
0100
0010
1000
0010
0100
0010
1000
,  // measure 7
0000
0100
0000
0010
0000
0001
0000
1000
,  // measure 8
1001
0000
0000
0000
0001
0000
0000
0000
0010
0100
0010
0100
1000
0001
1000
0001
,  // measure 9
1000
0010
0001
0010
1000
0100
0001
0100
,  // measure 10
1000
0010
0100
0001
0100
1000
0100
0001
,  // measure 11
1000
0100
0001
0100
1000
0010
0100
0001
,  // measure 12
0100
0000
1000
0000
0100
0000
0010
0000
1000
0000
0100
0000
0010
0000
0000
0010
,  // measure 13
0001
1000
0100
0010
0001
0100
1000
0100
,  // measure 14
0001
0010
0100
0001
0010
0100
1000
0001
,  // measure 15
0100
0010
1000
0010
1000
0010
1000
0001
,  // measure 16
0100
0000
0010
0000
0100
0000
0001
0000
0100
0000
0010
0000
1000
0001
0000
0000
,  // measure 17
1000
0100
1000
0001
1000
0010
1000
0100
,  // measure 18
1000
0100
0001
0100
0010
1000
0010
1000
,  // measure 19
0001
0100
0010
1000
0010
1000
0010
1000
,  // measure 20
1010
0000
1010
0000
1001
0000
0001
0100
,  // measure 21
0001
0010
0100
1000
0010
1000
0100
0001
,  // measure 22
0100
1000
0100
0001
0100
0010
1000
0100
,  // measure 23
0010
0001
0010
0100
1000
0100
0010
0001
,  // measure 24
1000
0000
0000
0100
0000
0000
0010
0000
0000
0001
0000
0000
0010
0000
0000
0100
0000
0000
1000
0000
0000
0001
0000
0000
1000
0000
0000
0000
0000
0000
0000
0000
0000
0010
0000
0000
0100
0000
0001
0000
0100
0000
0001
0000
0100
0000
0001
0000
,  // measure 25
1000
0000
0100
0000
0010
0000
0001
0000
0010
0000
0100
1000
0100
0000
1000
0000
,  // measure 26
0100
0000
0010
0000
0001
0000
0100
0000
0010
0000
1000
0010
1000
0000
0010
0000
,  // measure 27
1000
0000
0100
0000
0010
0000
0001
0000
1000
0000
0001
1000
0001
0000
0010
0000
,  // measure 28
0001
0000
0100
0000
1000
0000
0100
0000
0001
0000
0010
1000
0010
0000
0001
0100
,  // measure 29
0010
0000
1000
0000
0001
0000
0100
0000
0010
0000
1000
0001
0000
0000
0000
0000
,  // measure 30
1000
0000
0010
0000
0100
0000
0010
0000
1000
0000
0010
1000
0000
0000
0010
0000
,  // measure 31
0100
0000
0000
0000
0101
0000
0000
0000
1001
0000
0000
0001
0000
0000
0000
0000
,  // measure 32
0001
0000
1000
0000
0100
0000
1000
0000
0001
0000
0000
0001
0000
0100
0010
0000
,  // measure 33
1000
0100
0001
0100
1000
0010
0100
0001
,  // measure 34
1000
0100
0001
0100
1000
0001
0100
0010
,  // measure 35
1000
0010
0001
0010
1000
0100
0001
0100
,  // measure 36
0001
0100
1000
0100
0001
0100
0010
1000
,  // measure 37
0001
0100
0001
0100
0001
0010
1000
0010
,  // measure 38
0001
0010
1000
0010
0001
0100
0010
1000
,  // measure 39
0001
0100
0010
1000
1010
0000
1001
0000
,  // measure 40
1000
0000
0000
1000
0000
0000
0010
0000
0000
0010
0000
0000
0100
0000
0000
0100
0000
0000
0001
1000
0001
1000
0001
1000
,  // measure 41
0001
0000
0000
0000
1010
0000
0000
0000
1000
0000
0100
0010
0000
0000
0001
0000
,  // measure 42
0010
0000
0100
0000
1000
0000
0100
0000
0010
0000
0001
0010
0000
0000
0010
0000
,  // measure 43
0001
0000
0010
0000
0100
0000
1000
0000
0001
0000
1000
0001
0000
0000
0000
0000
,  // measure 44
0001
0000
0100
0000
0001
0000
0100
0000
0001
0000
0010
0100
0000
0000
1000
0000
,  // measure 45
0100
0000
0010
0000
0001
0000
0010
0000
0100
0000
1000
0001
0000
0000
0000
0000
,  // measure 46
0010
0000
1000
0000
0100
0000
0001
0000
0100
0000
1000
0100
0000
0000
0010
0000
,  // measure 47
0001
0000
0010
0000
0100
0000
1000
0000
0001
0000
1000
0001
1000
0000
0010
0000
,  // measure 48
1000
0000
0001
0000
0100
0000
0001
0000
0100
0000
0001
0010
0100
0000
1000
0000
,  // measure 49
0001
0100
1000
0100
0001
0010
0100
1000
,  // measure 50
0001
0100
0001
0100
0010
1000
0100
0010
,  // measure 51
0001
0100
1000
0100
0001
0010
0100
0010
,  // measure 52
0001
0010
1000
0010
0001
0100
0010
0100
,  // measure 53
0100
0001
0100
0001
0100
0010
1000
0100
,  // measure 54
0010
0100
0001
0100
1000
0010
0100
0001
,  // measure 55
1000
0100
0010
0001
1000
0100
0010
0001
,  // measure 56
1000
0010
1000
0010
1000
0100
1000
0010
,  // measure 57
0100
0001
0100
0010
,  // measure 58
0001
1000
0010
0100
,  // measure 59
0001
1000
1000
0001
,  // measure 60
0001
0000
0000
0000
1000
0000
0000
0000
0001
0000
0000
0000
1000
0000
0000
1000
;
