#TITLE:Anger Ball;
#SUBTITLE:(Kevin Energy Remix);
#ARTIST:Carbon Based;
#TITLETRANSLIT:;
#SUBTITLETRANSLIT:;
#ARTISTTRANSLIT:;
#CREDIT:;
#BANNER:;
#BACKGROUND:;
#LYRICSPATH:;
#CDTITLE:;
#MUSIC:Anger Ball (Kevin Energy Remix).ogg;
#OFFSET:-0.003;
#SAMPLESTART:100.052;
#SAMPLELENGTH:12.000;
#SELECTABLE:YES;
#BPMS:0.000=174.820,64.000=87.410,96.000=174.820;
#STOPS:;
#BGCHANGES:;

//---------------dance-single - ----------------
#NOTES:
     dance-single:
     :
     Challenge:
     19:
     1.000,1.000,0.133,0.462,1.000: // measure 1
0000
0000
0000
0000
,  // measure 2
0000
0000
0000
0000
,  // measure 3
2000
3002
2003
3002
,  // measure 4
0023
0230
0320
0230
,  // measure 5
1300
0010
1000
0010
1000
0001
1000
0001
1000
0010
1000
0010
0100
0001
0100
0001
,  // measure 6
0010
0001
0010
0100
1000
0100
1000
0010
1000
0001
1000
0100
1000
0010
0100
0001
,  // measure 7
0100
0010
0100
0001
0100
0010
1000
0010
0100
0001
1000
0100
0010
0001
0010
0100
,  // measure 8
0010
0100
1000
0100
0010
0100
0010
0001
0100
0001
1000
0010
1000
0100
0010
0001
,  // measure 9
0010
0001
1000
0100
1000
0001
0100
0001
1000
0010
1000
0001
0010
0001
1000
0010
,  // measure 10
1000
0001
0100
0010
1000
0010
0100
0001
0100
0010
1000
0001
0010
0100
1000
0100
,  // measure 11
0010
0001
0100
0001
0100
0010
1000
0010
1000
0100
0010
0100
0010
0001
0100
0001
,  // measure 12
0100
0010
1000
0010
1000
0010
0100
0001
0100
0001
0010
0100
0010
0100
1000
0010
,  // measure 13
0200
0301
0100
0010
1000
0100
0010
0001
0100
0010
1000
0010
0100
0001
0010
0100
,  // measure 14
1000
0010
0100
0001
0100
0010
1000
0100
0010
0001
0010
0100
1000
0100
0010
0001
,  // measure 15
0010
0100
1000
0010
0100
0001
0100
0010
1000
0100
0010
0001
0010
0100
1000
0010
,  // measure 16
0100
0000
0000
0001
0000
0000
0100
0000
0000
0010
0000
0000
1000
0000
0000
0010
0000
0000
0100
0000
0000
0001
0000
0000
0010
0000
0000
0100
0000
0000
1000
0000
0000
0100
0000
0000
0010
0000
0001
0000
0010
0000
0001
0000
1000
0000
0001
0000
,  // measure 17
2000
0000
3010
0100
0002
0000
1003
0100
0020
0000
0130
1000
0002
0000
0013
0100
,  // measure 18
0020
0000
0130
1000
0002
0000
1003
0100
0020
0000
0031
0100
0002
0000
0013
0100
,  // measure 19
2000
0000
3001
0010
0200
0000
0310
1000
0002
0000
0103
0010
0020
0000
1030
0100
,  // measure 20
0200
0000
0310
0001
0002
0000
0013
0010
0200
0000
1300
1000
0020
0000
0031
0001
,  // measure 21
0020
0000
0130
0100
0002
0000
0013
0010
0200
0000
1300
1000
0002
0000
0013
0010
,  // measure 22
0200
0000
1300
1000
0002
0000
0013
0100
2000
0000
3100
0010
0002
0000
0103
0010
,  // measure 23
2000
0000
3010
0100
0002
0000
0013
0100
0200
0000
1300
0010
0020
0000
0130
0001
,  // measure 24
0002
0000
0013
0100
0200
0000
1300
0100
0200
0000
0310
0001
0100
0000
0010
1000
,  // measure 25
1010
0000
0100
0001
0000
0010
0100
0000
1000
0000
0010
0100
0000
0100
0001
0000
,  // measure 26
0010
0000
0100
1000
0000
1000
0100
0000
0010
0000
0001
0100
0000
0010
1000
0000
,  // measure 27
1010
0000
0100
0001
0000
0001
0010
0000
0100
0000
1000
0100
0000
0100
0010
0001
,  // measure 28
0010
0100
1000
0100
0010
0001
0100
0010
0100
0001
0100
0010
1000
0001
1000
0001
,  // measure 29
1000
0100
0010
0001
0010
0000
0100
0000
0100
1000
0010
0100
0001
0100
0010
1000
,  // measure 30
0100
0010
0001
0010
0100
1000
0010
1000
0010
0100
0001
0010
0100
1000
0100
0010
,  // measure 31
0001
0010
0100
0000
1000
0000
0001
0000
0100
0010
1000
0100
0010
0001
0100
0010
,  // measure 32
1000
0010
0100
0001
0100
0010
1000
0010
0100
0001
1000
0100
1100
0000
0011
0000
,  // measure 33
0101
0100
0010
1000
0010
0100
0110
0010
,  // measure 34
1010
1000
0001
1000
0001
1000
1001
1100
,  // measure 35
1001
0000
0001
0100
0010
1000
0100
0010
0100
1000
0001
0100
0010
1000
0001
0100
,  // measure 36
0010
1000
0010
1000
0001
0100
0001
0100
0010
1000
0100
0010
0001
0100
0010
1000
,  // measure 37
0100
0010
0100
0010
0001
0100
0010
1000
0010
0100
0001
0100
0010
1000
0100
0010
,  // measure 38
0001
0100
0010
0100
0001
1000
0100
1000
0010
0100
0001
0100
0010
1000
0100
0010
,  // measure 39
0001
0001
1000
1000
0010
0100
0001
0001
,  // measure 40
0010
0000
0000
0100
0000
0000
1000
0000
0000
0001
0000
0000
0100
0000
0000
0010
0000
0000
1000
0000
0000
0010
0000
0000
0100
0000
0000
0001
0000
0000
0100
0000
0000
0010
0000
0000
1000
0000
0100
0000
0010
0000
0001
0000
0010
0000
0100
0000
,  // measure 41
1000
0000
0100
0010
0000
0001
0010
0000
0100
0000
1000
0100
0000
0010
0001
0000
,  // measure 42
0010
0000
0100
1000
0000
1000
0100
0000
0010
0000
0100
0001
0000
0010
0100
0000
,  // measure 43
1000
0000
1000
0100
0000
0010
0001
0000
1000
0000
0001
0010
0000
0001
0010
0000
,  // measure 44
0100
0000
1000
0100
0000
0010
0001
0000
0010
0000
0100
0000
0010
0000
0100
0000
,  // measure 45
0110
0010
0001
0010
0011
0001
0100
0001
,  // measure 46
0101
0010
1000
0010
1010
1000
0100
0010
,  // measure 47
0001
0100
0010
1000
0010
0100
0001
0100
,  // measure 48
0010
0010
1000
0100
0010
0010
0002
0000
,  // measure 49
0100
0100
0000
0000
1000
1003
0000
0100
,  // measure 50
0020
0001
0000
0000
0100
0130
0000
1000
,  // measure 51
0020
0100
0000
0000
1000
1030
0000
0100
,  // measure 52
0020
0000
0001
0000
0000
0000
0000
0000
0100
0000
0130
0000
1000
0010
1000
0010
,  // measure 53
1000
0200
0000
0000
0010
0320
0000
0031
,  // measure 54
0200
0001
0000
0000
1300
0010
0000
0100
,  // measure 55
0002
0000
0000
1000
0003
0000
1000
0000
0100
0000
0000
0100
0000
0000
0100
0000
,  // measure 56
0010
0000
0001
1000
0010
0000
0100
0000
0001
0000
0100
0000
0010
1000
0010
0100
,  // measure 57
0001
0000
0010
0100
0000
0000
1000
0000
0010
0000
1000
0001
0000
0000
1000
0000
,  // measure 58
0010
0000
1000
0100
0000
0000
0000
0000
0010
0001
0010
0001
0000
0001
0100
0000
,  // measure 59
0010
1000
0010
1000
0000
1000
0100
0000
0010
0000
0001
0100
0000
0000
0001
0000
,  // measure 60
0010
0000
0100
1000
0000
0000
0100
0000
0010
0000
0001
0100
0000
0000
0010
0000
,  // measure 61
1000
0000
0010
0100
0000
0000
0001
0000
0010
0000
0100
1000
0000
0000
0100
0000
,  // measure 62
0010
0000
0001
0100
0000
0000
0010
0000
1000
0000
0010
0100
0000
0000
0000
0000
,  // measure 63
0001
0010
0001
0010
0000
0010
0100
0000
1000
0010
1000
0010
0000
0010
0100
0000
,  // measure 64
0001
0020
0000
0000
0130
2000
0000
0000
,  // measure 65
3100
0010
0100
0010
0001
0100
0001
0100
0010
1000
0010
1000
0001
1000
0001
1000
,  // measure 66
0100
1000
0100
1000
0001
1000
0001
1000
0010
1000
0010
0100
0001
0100
0001
0010
,  // measure 67
0001
0010
0001
0100
0010
1000
0010
0100
0001
0100
0010
1000
0010
0100
0001
0100
,  // measure 68
0010
1000
0100
0010
0100
0010
0001
0010
0100
1000
0010
0100
0001
0100
0010
1000
,  // measure 69
0100
0010
0100
0010
0001
0010
0100
0010
0100
1000
0001
1000
0100
0010
0001
0010
,  // measure 70
0100
1000
0010
0100
0001
0100
0010
1000
0100
0010
0001
0010
0100
1000
0010
0100
,  // measure 71
0001
0100
0010
1000
0100
0010
0001
0100
0010
1000
0100
0010
0100
1000
0001
0100
0010
1000
0100
0010
0100
1000
0001
1000
,  // measure 72
0100
0000
0010
0001
0100
0000
0010
0000
1000
0000
0010
0000
0100
0001
1000
0001
,  // measure 73
2002
0000
0000
0000
,  // measure 74
3003
0000
0000
0000
;

//---------------dance-single - Copied from----------------
#NOTES:
     dance-single:
     Copied from:
     Hard:
     15:
     0.764,0.875,0.240,0.524,0.391:
0000
0000
0000
0000
,
0000
0000
0000
0000
,
2000
3002
2003
3002
,
0023
0230
0320
0230
,
1300
0000
0000
1000
0000
0000
1000
0000
0100
0000
0000
0100
0000
0000
0100
0000
,
0010
0000
0000
0010
0000
0000
0010
0000
0001
0000
0000
0001
0000
0000
0001
0000
,
0100
0000
0000
0010
0000
0000
1000
0000
0010
0000
0000
0100
0000
0000
0001
0000
,
0010
0000
0000
0100
0000
0000
1000
0000
0010
0000
0000
0100
0000
0000
0001
0000
,
0101
0000
0000
0000
0000
0000
0000
0000
0010
1000
0010
1000
0010
1000
0010
1000
,
0010
1000
0010
1000
0010
1000
0010
1000
0010
1000
0010
1000
0010
1000
0010
1000
,
0010
0000
0000
0100
0000
0000
0001
0000
0010
0000
0000
0100
0000
0000
1000
0000
,
0010
0000
0000
1000
0000
0000
0010
0000
0100
0000
0000
0001
0000
0000
0010
0000
,
0011
0000
0100
1000
0010
0100
0001
0010
,
0011
0100
1000
0010
0100
0001
0010
0100
,
0110
0010
0001
0010
0011
0001
0100
0001
,
0101
0000
1010
0000
1100
1000
0100
0010
,
0002
0013
0200
1300
0200
0310
0002
0013
,
0200
1300
0002
1003
0200
0310
0002
0013
,
0200
1300
0020
0130
0002
0103
0020
1030
,
0020
0130
0002
0013
0200
1300
0020
0031
,
0020
0130
0002
0013
0200
1300
0002
0013
,
0200
1300
0002
0103
0002
0013
0002
1003
,
0002
0103
0002
0013
0200
1300
0020
0130
,
0002
0013
0200
1300
0200
0310
0001
1000
,
1001
0000
0001
0010
0000
0010
0100
0000
1000
0000
0010
0100
0000
0100
0001
0000
,
0010
0000
0100
1000
0000
1000
0100
0000
0010
0000
0001
0100
0000
0010
1000
0000
,
1010
0000
0000
0100
0000
0000
0001
0000
0010
0000
0000
0100
0000
0000
1000
0000
,
0010
0000
0100
0001
0000
0001
0100
0000
0010
0000
0000
0000
1000
0000
0100
0000
,
1100
0000
0010
0000
0001
0000
0010
0000
0100
0000
1000
0010
0000
0000
0000
0000
,
1000
0000
0001
0010
0000
0000
0000
0000
0100
0000
1000
0000
1100
0000
0000
0000
,
0110
0000
0000
0000
0001
1000
0000
0100
,
0010
0001
0000
0000
0100
0010
1000
0010
,
2020
0000
3030
0000
0100
0010
0110
0000
,
0202
0000
0303
0000
0100
0001
1000
0001
,
2002
0000
3003
0000
0010
0001
1000
0100
,
2200
0000
3300
0000
0010
0001
1000
0100
,
1100
0110
0011
0101
,
0110
1010
1001
0011
,
0001
0010
0100
1000
0100
0010
0001
0100
,
0010
1000
0010
1000
0010
1000
0010
1000
0010
1000
0010
1000
0010
1000
0010
1000
,
0010
0000
0100
0001
0000
0000
0010
0000
0100
0000
1000
0100
0000
0000
0010
0000
,
0001
0000
0100
0010
0000
0000
1000
0000
0010
0000
0100
0001
0000
0000
0010
0000
,
0100
0000
1000
0100
0000
0000
0010
0000
0001
0000
1000
0001
0000
0000
0010
0000
,
0100
0000
1000
0100
0000
0000
0010
0000
0001
0000
0010
0000
0100
0000
1000
0000
,
0010
0010
0100
0001
0010
0010
0100
1000
,
0010
0010
0001
0010
1000
1000
0100
0001
,
0100
0100
1000
0010
0100
0100
0001
0100
,
0010
0010
1000
0100
0010
0010
0002
0000
,
0100
0100
0000
0000
1000
1003
0000
0100
,
0020
0001
0000
0000
0100
0130
0000
1000
,
0020
0100
0000
0000
1000
1030
0000
0100
,
0020
0000
0001
0000
0000
0000
0000
0000
0100
0000
0130
0000
1000
0010
1000
0010
,
1000
0200
0000
0000
0010
0320
0000
0031
,
0200
0001
0000
0000
1300
0010
0000
0100
,
0002
0000
0000
1000
0003
0000
1000
0000
0100
0000
0000
0100
0000
0000
0100
0000
,
0010
0000
0001
1000
0010
0000
0100
0000
0001
0000
0100
0000
0010
1000
0010
0100
,
0001
0000
0010
0100
0000
0000
1000
0000
0010
0000
1000
0001
0000
0000
1000
0000
,
0010
0000
1000
0100
0000
0000
0000
0000
0010
0001
0010
0001
0000
0001
0100
0000
,
0010
1000
0010
1000
0000
1000
0100
0000
0010
0000
0001
0100
0000
0000
0001
0000
,
0010
0000
0100
1000
0000
0000
0100
0000
0010
0000
0001
0100
0000
0000
0010
0000
,
1000
0000
0010
0100
0000
0000
0001
0000
0010
0000
0100
1000
0000
0000
0100
0000
,
0010
0000
0001
0100
0000
0000
0010
0000
1000
0000
0010
0100
0000
0000
0000
0000
,
0001
0010
0001
0010
0000
0010
0100
0000
1000
0010
1000
0010
0000
0010
0100
0000
,
0001
0020
0000
0000
0130
2000
0000
0000
,
3010
0100
0001
0100
0010
1000
0100
0010
,
0001
0010
0100
1000
0010
0100
0001
0010
,
0100
1000
0010
0100
0001
0100
0010
1000
,
0100
0000
0010
0000
0100
0000
0010
0000
0001
0000
0010
0000
0100
0010
0100
1000
,
0001
1000
0100
0010
0100
0010
0001
0010
,
0100
1000
0010
0100
0001
0100
0010
1000
,
0100
0000
0000
0010
0000
0000
0001
0000
0010
0000
0000
0100
0000
0000
1000
0000
,
0010
0000
1000
0001
1000
0000
0010
0000
1000
0000
0100
0000
0010
0001
1000
0000
,
2002
0000
0000
0000
,
3003
0000
0000
0000
;

//---------------dance-single - ----------------
#NOTES:
     dance-single:
     :
     Medium:
     11:
     0.542,0.584,0.115,0.142,0.178:
0000
0000
0000
0000
,
0000
0000
0000
0000
,
0200
0302
2003
3002
,
0023
0230
0320
0230
,
1300
0000
0000
1000
0000
0000
0000
0000
0100
0000
0000
0100
0000
0000
0000
0000
,
0010
0000
0000
0010
0000
0000
0000
0000
0001
0000
0000
0001
0000
0000
0000
0000
,
0100
0000
0000
0010
0000
0000
0000
0000
0010
0000
0000
1000
0000
0000
0000
0000
,
0010
0000
0000
0100
0000
0000
0000
0000
0001
0000
0000
0010
0000
0000
0000
0000
,
0011
0000
0000
0000
0100
1000
0100
1000
,
0100
1000
0100
1000
0100
1000
0010
0000
,
0100
0000
0000
0001
0000
0000
0000
0000
0010
0000
0000
0100
0000
0000
0000
0000
,
1000
0000
0000
0010
0000
0000
0000
0000
0100
0000
0000
0001
0000
0000
0010
0000
,
0100
0000
1000
0010
0100
0001
0100
0010
,
1000
0010
0100
0001
0100
0010
1000
0100
,
0010
0001
0100
0010
1000
0010
0100
0000
,
0110
0000
0101
0000
0100
0001
0100
0010
,
1000
1000
0100
1000
0100
0010
0001
0010
,
0100
1000
0001
1000
0100
0010
0001
0010
,
0100
1000
0010
0100
0001
0100
0010
1000
,
0010
0100
0001
0010
0100
1000
0010
0001
,
0010
0100
0001
0100
0010
0100
0001
0010
,
0100
1000
0001
1000
0010
1000
0001
0100
,
0001
0100
0001
0010
0001
1000
0010
0100
,
0001
0010
0100
1000
0100
0010
0001
1000
,
1001
0000
0000
0010
0000
0000
0100
0000
1000
0000
0000
0100
0000
0000
0010
0000
,
0001
0000
0000
0100
0000
0000
0010
0000
1000
0000
0000
0010
0000
0000
0100
0000
,
0001
0000
0000
0100
0000
0000
0010
0000
1000
0000
0000
0010
0000
0000
0100
0000
,
0001
0000
0000
0100
0000
0000
0010
0000
1000
0000
0000
0000
1000
0000
0100
0000
,
1000
0000
0000
0001
0000
0000
0100
0000
0010
0000
0000
1000
0000
0000
0000
0000
,
1000
0000
0000
0010
0000
0000
0000
0000
1000
0000
0100
0000
1000
0000
0000
0000
,
1100
0000
0000
0000
0001
1000
0000
0100
,
0010
0001
0000
0000
0100
0010
1000
0010
,
2000
0000
3000
0000
0100
0010
0100
0000
,
0020
0000
0030
0000
0001
0100
0010
1000
,
0020
0000
0030
0000
0010
0100
0001
1000
,
0200
0000
0300
0000
0010
0001
1000
0100
,
1000
0110
0011
0101
,
0110
1010
1001
0011
,
0001
0010
0100
1000
0100
0010
0001
0100
,
0010
1000
0010
1000
0010
0100
0001
0100
,
0001
0000
0000
1000
0000
0000
0010
0000
0100
0000
0000
0100
0000
0000
0001
0000
,
0100
0000
0000
0010
0000
0000
1000
0000
0010
0000
0000
0100
0000
0000
0001
0000
,
0010
0000
0000
0100
0000
0000
1000
0000
0010
0000
0000
0100
0000
0000
0001
0000
,
0100
0000
0000
0010
0000
0000
0000
0000
1000
0000
0010
0000
0000
0000
0000
0000
,
0010
0100
0000
0000
0100
0001
0000
0100
,
0010
1000
0000
0000
0100
0010
0000
0001
,
0100
0010
0000
0000
1000
0100
0000
1000
,
0010
0100
0000
0000
0001
0010
0000
0000
,
0100
1000
0000
0000
1000
0100
0000
0010
,
0001
0100
0000
0000
0010
1000
0000
0100
,
0010
0001
0000
0000
0100
0010
0000
1000
,
0010
0100
0000
0000
0001
0100
0010
1000
,
0010
0100
0000
0000
0001
0010
0000
0100
,
1000
0010
0000
0000
1000
0100
0000
0010
,
0001
0000
0000
0010
0000
0000
0100
0000
1000
0000
0000
0010
0000
0000
0100
0000
,
0001
0100
0010
1000
0100
0010
0001
0100
,
0001
0000
0000
0100
0000
0000
0010
0000
1000
0000
0000
0010
0000
0000
1000
0000
,
0010
0000
0000
0100
0000
0000
0000
0000
0001
0000
0000
0100
0000
0000
0010
0000
,
0100
0000
0000
0001
0000
0000
0100
0000
0010
0000
0000
0100
0000
0000
0001
0000
,
0010
0000
0000
0100
0000
0000
0100
0000
1000
0000
0000
0000
0000
0000
0000
0000
,
0001
0100
0000
0000
0100
0010
0000
1000
,
0010
0100
0000
0000
0001
0010
0000
0100
,
1000
0100
0000
0000
0010
0001
0000
0010
,
0100
0020
0000
0000
0130
2000
0000
0000
,
3001
0010
0000
0000
0010
0100
0000
1000
,
0010
0100
0000
0000
0001
0100
0000
0010
,
1000
0010
0000
0000
0100
0001
0000
0010
,
0100
1000
0000
0000
0100
0010
0001
0100
,
0010
0100
0000
0001
0010
0001
0000
1000
,
0010
0100
0000
0001
0010
0100
0000
1000
,
0010
0000
0000
0010
0000
0000
0100
0000
0001
0000
0000
1000
0000
0000
1000
0000
,
0010
1000
0100
0010
0100
1000
0001
1000
,
2002
0000
0000
0000
,
3003
0000
0000
0000
;

//---------------dance-single - ----------------
#NOTES:
     dance-single:
     :
     Easy:
     7:
     0.316,0.389,0.151,0.053,0.000:
0000
0000
0000
0000
,
1000
0001
1000
0001
,
0010
0100
0010
0100
,
1000
0100
0010
0001
,
0100
0010
1000
0010
,
0100
0001
0010
0100
,
1000
0100
0010
0001
,
0010
0100
1000
0001
,
0011
0001
0010
0100
,
0010
0100
1000
0100
,
0010
0001
0100
0010
,
1000
0001
1000
0010
,
1010
0000
0000
0000
,
0110
0000
0000
0000
,
0101
0000
0011
0000
,
0011
1100
1001
0001
,
0100
0010
1000
0010
,
0100
0001
0100
0010
,
1000
0100
0010
0001
,
0010
0100
1000
0010
,
1000
0001
0100
0010
,
1000
0100
1000
0001
,
0010
0100
1000
0010
,
0100
0001
1000
0010
,
0202
0000
0000
0000
,
0303
0000
0000
0000
,
0022
0000
0000
0000
,
0033
0000
0000
0000
0000
0000
0100
1000
,
0100
0000
0000
0000
,
0000
0000
0000
0011
,
0110
0000
0000
0000
,
0000
0000
0000
0000
0000
0000
0001
0010
,
0001
0000
0000
0000
0000
0000
0010
0100
,
0010
0000
0000
0000
0000
0000
0100
1000
,
0100
0000
0000
0000
0000
0000
0010
0001
,
0010
0000
0000
0000
0000
0000
0010
0100
,
0010
0001
1000
0100
,
0010
0001
0010
0100
,
0010
0001
1000
0001
,
0100
0010
1000
0100
,
0010
0100
0010
0100
,
1000
0001
0100
0010
,
1000
0001
0100
0010
,
0100
0010
0001
1000
,
0100
0000
0010
0000
,
0001
0000
0100
0000
,
0010
0000
1000
0000
,
0010
0000
0100
0000
,
0001
0000
0010
0000
,
0100
0000
1000
0000
,
0010
0000
0100
0000
,
0001
0000
0100
0000
,
0010
0000
1000
0000
,
0100
0000
1000
0000
,
0011
0000
0110
0000
,
1000
0001
0010
0100
,
0010
0100
1000
0001
,
0100
0010
1000
0001
,
0010
0100
1000
0001
,
0010
0100
1000
0001
,
0010
0100
1000
0001
,
0100
0010
1000
0001
,
0100
0010
1000
1000
,
0001
0010
0100
1000
,
0010
0001
0100
0001
,
0010
0100
0010
0001
,
1000
0001
0100
0010
,
1000
0010
0100
0001
,
0010
0100
1000
0100
,
0010
0001
1000
0100
,
0011
0000
0110
0000
,
0100
0100
1000
0001
,
2002
0000
0000
0000
,
3003
0000
0000
0000
;

//---------------dance-single - Copied from----------------
#NOTES:
     dance-single:
     Copied from:
     Beginner:
     5:
     0.214,0.323,0.249,0.071,0.000:
0000
0000
0000
0000
,
1000
0000
0000
0000
,
0001
0000
0000
0000
,
0100
0000
0000
0000
,
0010
0000
0000
0000
,
1000
0000
1000
0000
,
0001
0000
0001
0000
,
0100
0000
0100
0000
,
0010
0000
0010
0000
,
1000
0000
0100
0000
,
0010
0000
0001
0000
,
0100
0000
0010
0000
,
1001
0000
0010
0000
,
1001
0000
0010
0000
,
1001
0000
0010
0000
,
0100
0100
0100
0100
,
0000
0000
0001
0000
,
1000
0000
0001
0000
,
0100
0000
0010
0000
,
1000
0000
0100
0000
,
0010
0000
0001
0000
,
0100
0000
0010
0000
,
1000
0000
0100
0000
,
0010
0000
0001
0000
,
1001
0000
0010
0000
,
0100
0000
0001
0000
,
1001
0000
1000
0000
,
0010
0000
0000
1001
,
1001
0000
0000
0000
,
0001
0000
0000
1001
,
1001
0000
0000
0000
,
0010
0000
0000
0110
,
0110
0000
0000
1001
,
1001
0000
0000
1001
,
1001
0000
0000
0110
,
0110
0000
0000
1001
,
1001
0000
1001
0000
,
1001
0000
1001
0000
,
0001
0000
0001
0000
,
2002
0000
3003
0000
,
1000
0000
0001
0000
,
0100
0000
0010
0000
,
1000
0000
0100
0000
,
0010
0000
0001
0000
,
0100
0000
0010
0000
,
1000
0000
0100
0000
,
0010
0000
0001
0000
,
0100
0000
0010
0000
,
1000
0000
0100
0000
,
0010
0000
0001
0000
,
0100
0000
0010
0000
,
1000
0000
0100
0000
,
0010
0000
0001
0000
,
0100
0000
0010
0000
,
1000
0000
0100
0000
,
0010
0000
0001
0000
,
1001
0000
0001
0000
,
0001
0000
0100
0000
,
0010
0000
1000
0000
,
0100
0000
0010
0000
,
0001
0000
0100
0000
,
0010
0000
1000
0000
,
1000
0000
0001
0000
,
0001
0000
0100
0000
,
2000
0000
3000
0000
,
0002
0000
0003
0000
,
0020
0000
0030
0000
,
0020
0000
0030
0000
,
1001
0000
0010
0000
,
0001
0000
0100
0000
,
1001
0000
1001
0000
,
0001
0000
1000
0000
,
2002
0000
0000
3003
;
