#TITLE:Amber Starlight;
#SUBTITLE:;
#ARTIST:Jackal Queenston;
#TITLETRANSLIT:;
#SUBTITLETRANSLIT:;
#ARTISTTRANSLIT:;
#CREDIT:;
#BANNER:;
#BACKGROUND:;
#LYRICSPATH:;
#CDTITLE:;
#MUSIC:amber.ogg;
#OFFSET:0.045;
#SAMPLESTART:22.490;
#SAMPLELENGTH:12.000;
#SELECTABLE:YES;
#BPMS:0.000=170.140;
#STOPS:;
#BGCHANGES:;

//---------------dance-single - ----------------
#NOTES:
     dance-single:
     :
     Hard:
     15:
     0.634,0.668,0.086,0.200,0.576:
0000
0000
0000
0000
,
0000
0000
0000
0000
0000
0000
0000
0000
0000
0000
0000
0000
0000
0000
1000
0001
,
1000
0000
0000
0010
0000
0000
0100
0000
0002
0000
0000
0000
0200
0000
0000
0000
,
0000
0000
0000
0303
,
0010
0000
0000
1000
0000
0000
0010
0000
0200
0000
0000
0000
0002
0000
0000
0000
,
0000
0000
0000
0000
0000
0000
0000
0000
0000
0000
0000
0000
0303
0000
0000
0001
,
1000
0000
0000
0010
0000
0000
0100
0000
0002
0000
0000
0000
0200
0000
0000
0000
,
0000
0000
0000
0303
,
1001
0000
0000
0001
0000
0000
0100
0000
0000
0010
0000
0000
1000
0000
0000
0000
,
0001
0000
0000
0000
1001
0000
0000
0001
0000
0100
0000
0010
1000
0000
0001
0000
,
1000
0000
0010
1000
0000
1000
0010
0000
0010
1000
0000
0001
0010
0000
0100
0000
,
1000
0000
0000
0000
1001
0000
0000
0001
0000
0100
0000
0010
1000
0000
0001
0000
,
1000
0000
0000
0001
0000
0000
0100
0000
0000
0010
0000
0000
1000
0000
0000
0000
,
0001
0000
0000
0000
0101
0000
0000
0010
0000
1000
0000
0010
1000
0000
0000
0000
,
1001
0000
0001
0010
0000
0010
0100
0000
0100
1000
0000
1000
0001
0000
1000
0000
,
0001
0000
0000
0000
0101
0000
0000
1000
0000
0010
0000
1000
0001
0000
0000
0000
,
1000
0001
1000
0001
1000
0000
0001
0100
0001
0100
0001
0000
0000
0000
1000
0010
,
1000
0010
1000
0000
0001
0000
0100
0000
0010
0000
1000
0000
0001
0000
0000
0000
,
1000
0100
0010
0001
1000
1000
0010
0100
,
0001
0001
1000
0100
1000
1000
0001
0000
,
1000
0100
1000
0000
0001
0000
0100
0000
0010
1000
0010
0000
1000
0000
0001
1000
,
0001
0000
0010
0000
0100
1000
0100
0000
0010
0000
0001
1000
0001
0000
0000
0000
,
1000
0100
1000
0100
1000
0000
0001
0000
0100
0010
0100
0000
0001
0000
1000
0000
,
0001
0100
0001
0100
0001
0000
1000
0000
0001
0100
0001
0000
1000
0000
0000
0000
,
0001
0000
0000
0100
0000
0000
0001
0000
0000
1000
0000
0000
0010
0000
1000
0000
,
0001
0000
0000
0000
1000
0000
0000
0001
0000
0100
0000
0010
1000
0000
0100
0000
,
1000
0000
0001
0100
0000
0100
0001
0000
0001
1000
0000
1000
0010
0000
1000
0000
,
0001
0000
0000
0000
0200
0000
0000
0010
0000
0310
0000
0010
1000
0000
0000
0000
,
0001
0000
0000
0100
0000
0000
1000
0000
0000
0100
0000
0000
0001
0000
1000
0000
,
1002
0000
0000
0000
1003
0000
0000
0010
0000
0100
0000
0001
1000
0000
0010
0000
,
1000
0000
0001
0100
0000
0001
0100
0000
0010
1000
0000
0001
0010
0000
0100
0000
,
1000
0000
0000
0000
1001
0000
0000
0010
0000
1000
0000
0001
1000
0000
0000
0000
,
0001
0000
0000
0100
0000
0000
0010
0000
2000
0000
0000
0000
0020
0000
0000
0000
,
0000
0000
0000
0000
0000
0000
0000
0000
3030
0000
0000
0000
0000
0000
1000
0001
,
1000
0000
0000
0010
0000
0000
0100
0000
0002
0000
0000
0000
2000
0000
0000
0000
,
0000
0000
3003
0000
,
1000
0000
0000
0010
0000
0000
0001
0000
0020
0000
0000
0000
2000
0000
0000
0000
,
0000
0000
0000
0000
0000
0000
0000
0000
3030
0000
0000
0000
0000
0000
0001
0100
,
0001
0000
0000
1000
0000
0000
0010
0000
2000
0000
0000
0000
0002
0000
0000
0000
,
0000
0000
0000
3003
,
1000
0000
0000
0010
0000
0000
0100
0000
0002
0000
0000
0000
2003
0000
0000
0000
,
3010
0000
0100
0000
0001
0000
1000
0000
0100
0000
0010
0000
0100
1000
0010
0000
,
0001
0000
0000
0010
0000
0000
0100
0000
2000
0000
0000
0000
3001
0000
0000
0000
,
0001
0100
1000
0100
0001
0100
0010
1000
,
0001
0000
0000
0100
0000
0000
0010
0000
2000
0000
0000
0000
3001
0000
0000
0000
,
1000
0100
0001
0100
1000
0010
1000
0001
,
1000
0000
0000
0010
0000
0000
0100
0000
0002
0000
0000
0000
0103
0000
0000
0000
,
0010
1000
0100
1000
0001
1000
1001
0000
,
1000
0100
1000
0100
1000
0000
0001
0000
1000
0100
1000
0000
0001
0000
0100
0010
,
0100
0000
0001
0000
1000
0010
1000
0000
0001
0000
0100
0001
1000
0000
0000
0000
,
0001
0100
0001
0100
0001
0000
1000
0000
0010
1000
0010
0000
0100
0000
0001
0100
,
0001
0000
1000
0000
0001
1000
0001
0000
1000
0000
0010
1000
0010
0000
0000
0000
,
1000
0010
0100
0001
1000
0000
0001
0000
1000
0010
1000
0000
0001
0000
0100
0001
,
1000
0000
0010
0000
1000
0001
1000
0000
0001
0000
0100
0001
1000
0000
0000
0000
,
0001
0100
0001
0100
0001
0000
1000
0000
0010
0100
0010
0000
1000
0000
0001
0010
,
0001
0000
1000
0000
0001
1000
0001
0000
1000
0000
0001
0100
0001
0000
0000
0000
,
1000
0010
1000
0010
1000
0000
0001
0000
0100
0000
0100
0000
0010
0000
1000
0000
,
1000
0001
0010
0010
0100
1000
1000
0000
,
0001
1000
0001
1000
0001
0000
0100
0000
0010
0000
0010
0000
1000
0000
0100
0000
,
0100
1000
0001
0001
1000
0001
0001
0000
,
1000
0100
1000
0100
1000
0000
0000
0000
0001
0100
0001
0000
0000
0000
1000
0010
,
1000
0000
0000
0000
0001
1000
0001
0000
0000
0000
1000
0010
1000
0000
0000
0000
,
0001
0100
0010
1000
0100
0000
0000
0000
0010
0001
1000
0000
0000
0000
0010
1000
,
0001
0000
0000
0000
0100
0010
1000
0000
0000
0000
1000
0001
1000
0000
0000
0000
;

//---------------dance-single - ----------------
#NOTES:
     dance-single:
     :
     Medium:
     13:
     0.457,0.486,0.057,0.248,0.214:
0000
0000
0000
0000
,
0000
0000
0000
0000
,
1000
0000
0000
0010
0000
0000
0100
0000
0002
0000
0000
0000
2000
0000
0000
0000
,
0000
0000
0000
3003
,
1000
0000
0000
0010
0000
0000
0100
0000
0002
0000
0000
0000
0200
0000
0000
0000
,
0000
0000
0000
0303
,
0001
0000
0000
1000
0000
0000
0100
0000
0020
0000
0000
0000
0002
0000
0000
0000
,
0000
0000
0000
0033
,
1001
0000
0000
0001
0000
0000
0100
0000
0000
0010
0000
0000
1000
0000
0000
0000
,
0001
0000
0000
0000
1001
0000
0000
1000
0000
0010
0000
0000
1000
0000
0000
0000
,
0001
0000
0000
0000
0101
0000
0000
0010
0000
1000
0000
0000
0001
0000
0000
0000
,
1000
0000
0000
0000
1010
0000
0000
0010
0000
1000
0000
0000
0001
0000
0000
0000
,
1000
0000
0000
0000
1001
0000
0000
1000
0000
0001
0000
0000
1000
0000
0000
0000
,
0001
0000
0000
0000
2000
0000
0000
0010
0000
0010
0000
0000
3010
0000
0000
0000
,
0100
0000
0000
0000
0002
0000
0000
1000
0000
1000
0000
0000
1003
0000
0000
0000
,
0010
0000
0000
0000
1000
0000
0000
0001
0000
0100
0000
0000
0001
0000
0000
0000
,
1000
0001
1000
0000
1000
0100
0000
0100
,
0010
0000
0010
0001
0000
0001
1000
0000
,
0001
0100
0001
0000
0001
0100
0000
0100
,
0010
0000
0010
1000
0000
1000
0001
0000
,
0010
1000
0010
0000
0010
0001
0000
0100
,
1000
0000
1000
0100
0000
0001
0100
0000
,
0010
1000
0001
0000
0001
0100
0000
0100
,
0010
1000
0010
0000
1000
0001
1000
0000
,
0001
0000
0000
0100
0000
0000
0010
0000
0000
1000
0000
0000
0001
0000
0000
0000
,
1000
0000
0000
0000
0002
0000
0000
0100
0000
0100
0000
0000
0103
0000
0000
0000
,
0010
0000
0000
0000
2000
0000
0000
0001
0000
0001
0000
0000
3001
0000
0000
0000
,
1000
0000
0000
0000
0010
0000
0000
0100
0000
0001
0000
0000
1000
0000
0000
0000
,
0001
0000
0000
0000
1000
0000
0000
0001
0000
0100
0000
0000
0010
0000
0000
0000
,
1000
0000
0000
0000
0001
0000
0000
0100
0000
0100
0000
0000
0001
0000
0000
0000
,
0000
0000
1000
0001
0000
0001
1000
0000
1000
0010
0000
0010
1000
0000
0001
0000
,
1000
0000
0000
0000
0001
0000
0000
1000
0000
1000
0000
0000
0010
0000
0000
0000
,
1000
0000
0000
0010
0000
0000
1000
0000
0002
0000
0000
0000
2000
0000
0000
0000
,
0000
0000
0000
3003
,
1000
0000
0000
0010
0000
0000
0100
0000
0020
0000
0000
0000
2000
0000
0000
0000
,
0000
0000
0000
3030
,
0100
0000
0000
1000
0000
0000
1000
0000
0002
0000
0000
0000
2000
0000
0000
0000
,
0000
0000
0000
3003
,
0010
0000
0000
0100
0000
0000
0010
0000
2000
0000
0000
0000
0020
0000
0000
0000
,
0000
0000
0000
3030
,
1000
0000
0000
1000
0000
0000
0001
0000
0002
0000
0000
0000
2000
0000
0000
0000
,
0000
0000
3003
0000
,
1000
0000
0000
0001
0000
0000
1000
0000
0002
0000
0000
0000
2000
0000
0000
0000
,
0000
0000
0000
0000
0000
0000
0000
0000
0000
0000
0000
3003
0000
0000
0000
0000
,
1000
0000
0000
0010
0000
0000
1000
0000
0020
0000
0000
0000
2000
0000
0000
0000
,
0000
0000
0000
3030
,
1000
0000
0000
1000
0000
0000
0001
0000
2000
0000
0000
0000
0002
0000
0000
0000
,
0000
0000
0000
3003
,
1000
0001
1000
0001
0100
0010
0100
0010
,
1000
0100
0010
0001
0100
0010
1000
0000
,
0010
0100
0010
1000
0100
0010
0001
0100
,
0010
1000
0010
0100
0001
0010
0001
0000
,
1000
0010
1000
0010
0100
0001
0100
0001
,
0010
0001
0010
0001
0100
0001
0100
0000
,
0010
1000
0010
0100
0001
0010
0100
1000
,
0010
0100
0001
1000
0100
0010
0001
0000
,
0001
0010
0001
0010
0001
1000
0001
1000
,
0001
0100
0001
0100
0010
1000
0010
0000
,
1000
0010
0100
0010
0100
0010
0001
0010
,
0100
0010
0001
0010
0100
1000
0001
0000
,
0100
0010
0100
0001
0100
0010
1000
0001
,
0010
0100
0010
0001
1000
0010
1000
0000
,
0010
1000
0010
0100
0010
1000
0010
0100
,
0001
0010
0100
1000
0001
0010
1001
0000
;

//---------------dance-single - ----------------
#NOTES:
     dance-single:
     :
     Easy:
     7:
     0.299,0.395,0.152,0.095,0.010:
0000
0000
0000
0000
,
0000
0000
0000
0000
,
2000
0000
0001
0002
,
0000
0000
0000
3003
,
2000
0000
0010
0020
,
0000
0000
3030
0000
,
0200
0000
0001
0002
,
0000
0000
0303
0000
,
1000
0000
0000
0001
0000
0000
1000
0000
0000
0001
0000
0000
1000
0000
0000
0000
,
1000
0001
0001
0000
1000
0000
0001
0000
,
1000
0010
0010
0100
,
0001
1000
0001
1000
,
0001
0100
0001
0010
,
0100
1000
0001
0001
,
1000
0010
0010
0100
,
0001
0010
0100
1001
,
0010
0100
0010
1000
,
0000
0001
1000
0010
,
0100
0001
1000
0001
,
1000
0010
0100
0001
,
0010
0100
1000
0001
,
0100
0010
1000
0100
,
0010
0001
0100
0010
,
1000
0001
0100
0010
,
1000
0000
0000
0001
0000
0000
0000
0000
,
1001
0000
0000
0000
,
1000
0001
0100
0100
,
0010
0000
1000
0001
,
1000
0000
0000
0010
0000
0000
1000
0000
,
0001
0000
0000
0000
,
1000
0001
0100
0100
,
0010
1000
0001
0100
,
0002
0000
0000
0000
,
0000
0000
0000
0000
,
2003
0000
0000
0000
,
0000
0000
0000
0000
,
3020
0000
0000
0000
,
0000
0000
0000
0000
,
0230
0000
0000
0000
,
0000
0000
0000
0000
,
0301
1000
0001
0001
,
0001
0001
0001
0001
,
1000
0010
0100
0100
,
0100
0100
0100
0100
,
0001
1000
0010
0100
,
0001
0010
0100
1000
,
0001
0100
0010
1000
,
0100
0010
0001
1001
,
1000
0000
0000
0001
,
1000
0001
0100
1010
,
0001
1000
0001
0100
,
0001
0010
0001
1001
,
0010
0010
0010
1000
,
0001
0100
0010
1001
,
0100
1000
0001
0100
,
0100
0010
0010
1001
,
0001
1000
0001
0100
,
0001
1000
0010
1001
,
0100
1000
0001
0010
,
0100
1000
0001
0100
,
0001
0110
1000
0110
,
0001
0110
1000
0110
,
0001
1001
0100
1001
,
0010
1001
0100
1001
;

//---------------dance-single - ----------------
#NOTES:
     dance-single:
     :
     Beginner:
     2:
     0.124,0.151,0.000,0.105,0.000:
0000
0000
0000
0000
,
0000
0000
0000
0000
,
2000
0000
0000
3000
,
0000
0000
0000
0000
,
0020
0000
0000
0030
,
0000
0000
0000
0000
,
0200
0000
0000
0300
,
0000
0000
0000
0000
,
1000
0000
0000
0000
,
1000
0000
0000
0000
,
0001
0000
0000
0000
,
0100
0000
0000
0000
,
0010
0000
0000
0000
,
1000
0000
0000
0000
,
0001
0000
0000
0000
,
1000
0000
0000
0000
,
0001
0000
0001
0000
,
1000
0000
1000
0000
,
0010
0000
0010
0000
,
0100
0000
0100
0000
,
0001
0000
1000
0000
,
0001
0000
1000
0000
,
0010
0000
0100
0000
,
0001
0000
1000
0000
,
0001
0000
0000
0000
,
1000
0000
0001
0000
,
0100
0000
0000
0000
,
0010
0000
1000
0000
,
0001
0000
0000
0000
,
1000
0000
0001
0000
,
1000
0000
0001
0000
,
1000
0000
0010
0000
,
2000
0000
0000
3000
,
0000
0000
0000
0000
,
0002
0000
0000
0003
,
0000
0000
0000
0000
,
0200
0000
0000
0300
,
0000
0000
0000
0000
,
0020
0000
0000
0030
,
0000
0000
0000
0000
,
2000
0000
0000
3000
,
0000
0000
0000
0000
,
0002
0000
0000
0003
,
0000
0000
0000
0000
,
0200
0000
0000
0300
,
0000
0000
0000
0000
,
0020
0000
0000
0030
,
0000
0000
0000
0000
,
1000
0000
1000
0000
,
1000
0000
1000
0000
,
0010
0000
0010
0000
,
0100
0000
0100
0000
,
0001
0000
0001
0000
,
1000
0000
1000
0000
,
0010
0000
0010
0000
,
0100
0000
0100
0000
,
0001
0000
0001
0000
,
0001
0000
0010
0000
,
0010
0000
0100
0000
,
1000
0000
0001
0000
,
0100
0000
0100
0000
,
0010
0000
1000
0000
,
0001
0000
1000
0000
,
0001
0000
1000
0000
;

//---------------dance-single - Copied from----------------
#NOTES:
     dance-single:
     Copied from:
     Challenge:
     18:
     1.000,1.000,0.124,0.057,1.000: // measure 1
0000
0000
0000
0000
,  // measure 2
0000
0000
0000
0000
0000
0000
0000
0000
0000
0000
0000
0000
0000
0000
1000
0001
,  // measure 3
1000
0000
0000
0010
0000
0000
0100
0000
0002
0000
0000
0000
0200
0000
0000
0000
,  // measure 4
0000
0000
0000
0303
,  // measure 5
0010
0000
0000
1000
0000
0000
0010
0000
0200
0000
0000
0000
0002
0000
0000
0000
,  // measure 6
0000
0000
0000
0000
0000
0000
0000
0000
0000
0000
0000
0000
0303
0000
0000
0001
,  // measure 7
1000
0000
0000
0010
0000
0000
0100
0000
0002
0000
0000
0000
0200
0000
0000
0000
,  // measure 8
0000
0000
0000
0303
,  // measure 9
1001
0000
1000
0001
1000
0000
0100
0010
0000
0001
0000
0010
0100
0000
1000
0000
,  // measure 10
1100
0000
1000
0000
1001
0000
1000
0001
0000
0100
0000
0010
1000
0000
0001
0010
,  // measure 11
0100
0000
1000
0100
0000
0010
0001
0000
0010
0100
0000
1000
0100
0000
0010
0001
,  // measure 12
1000
0000
0001
0000
1001
0000
1000
0001
0000
0100
0000
0010
1000
0000
0001
0010
,  // measure 13
1000
0000
0010
0001
0000
0001
0100
0000
0100
0010
0000
1000
0010
0000
0100
0000
,  // measure 14
0101
0000
0001
0000
0101
0000
0010
1000
0000
0010
0000
1000
0100
0000
0010
0001
,  // measure 15
1000
0000
0001
0010
0000
0010
0100
0000
0100
1000
0000
1000
0001
0000
1000
0001
,  // measure 16
1000
0000
0001
0000
0101
0000
0010
1000
0000
0010
0000
1000
0001
0000
0000
0000
,  // measure 17
1000
0000
0001
0000
1000
0001
1000
0000
0001
0000
0100
0000
0001
0000
0100
0000
0001
0000
0100
0000
0001
0000
0100
0000
0010
0000
1000
0000
0010
0000
1000
0000
,  // measure 18
0010
1000
0010
0100
0001
0100
0010
0100
0001
1000
0001
0010
0100
1000
0100
0000
,  // measure 19
1000
0100
0010
0001
1000
0001
0100
0010
1000
0010
1000
0010
0100
0001
0100
0001
,  // measure 20
0010
0100
1000
0100
0010
0001
0100
0010
1000
0010
0100
0001
0100
0010
1000
0000
,  // measure 21
0001
1000
0001
0010
0001
0100
0010
1000
0010
1000
0010
1000
0001
0100
0010
1000
,  // measure 22
0010
0100
0001
0010
0100
1000
0100
1000
0010
0100
0001
1000
0010
0100
0001
1000
,  // measure 23
0001
0010
0001
0010
0100
1000
0100
1000
0010
0100
0010
0100
0001
0010
0100
1000
,  // measure 24
0010
0100
0001
0010
0100
0010
0001
1000
0010
0100
0001
0010
0011
0000
0000
0000
,  // measure 25
1001
0000
0001
0100
0000
0010
1000
0000
1000
0010
0000
0010
0100
0000
0001
1000
,  // measure 26
0010
0000
0100
0000
0001
0000
1000
0010
0000
0100
0000
0001
0100
0000
0010
1000
,  // measure 27
0100
0000
0010
0001
0000
0100
0010
0000
1000
0100
0000
0010
0001
0000
0100
0010
,  // measure 28
1000
0000
0001
0000
0101
0000
0010
1000
0000
0010
0000
0010
1000
0000
0001
1000
,  // measure 29
0001
0000
0010
0100
0000
0010
0100
0000
1000
0100
0010
0000
0001
0000
1000
0001
,  // measure 30
1000
0000
0001
0000
1000
0000
0100
0010
0000
0001
0000
0010
0100
0000
1000
0100
,  // measure 31
1000
0000
0001
0100
0000
0001
0100
0000
0010
1000
0000
0001
0010
0000
0100
1000
,  // measure 32
0100
0000
0010
0000
1001
0000
0001
0010
0000
0100
0000
1000
0001
0000
1000
0001
,  // measure 33
1000
0100
1000
0100
0010
0001
0010
0001
0100
0010
0100
0010
1000
0100
1000
0100
,  // measure 34
0010
0001
0010
0001
0100
0010
0100
0010
1000
0100
0010
0001
0100
0010
1000
0100
,  // measure 35
1000
0001
0100
0010
1000
0100
0010
0100
1000
0001
0100
0010
1000
0100
1000
0001
,  // measure 36
0100
0010
1000
0010
0100
0010
1000
0100
0010
0100
1000
0001
0100
0010
1000
0100
,  // measure 37
0010
0100
1000
0001
0100
0010
1000
0100
1000
0100
1000
0001
0100
0010
0100
0001
,  // measure 38
0100
0010
1000
0100
0010
0100
1000
0001
0100
0010
1000
0100
1000
0001
0100
0010
,  // measure 39
1000
0100
1000
0001
0100
0010
0100
0001
0100
0010
0100
0001
0100
0010
1000
0100
,  // measure 40
0010
0001
0010
0100
1000
0001
1000
0010
0100
0001
0100
0010
1000
0100
0010
0001
,  // measure 41
1000
0100
0010
0001
0100
0010
1000
0100
1000
0001
0100
0010
1000
0100
1000
0001
,  // measure 42
0100
0010
0100
0010
1000
0100
1000
0100
0010
0001
0010
0001
0100
0010
0100
0010
,  // measure 43
1000
0100
0010
0001
0100
0010
1000
0100
0010
0100
1000
0001
0100
0010
1000
0100
,  // measure 44
1000
0001
0100
0010
1000
0100
1000
0001
0100
0010
0100
0010
1000
0100
0010
0001
,  // measure 45
0100
0010
0100
0010
1000
0100
0010
0001
0100
0010
0100
0010
1000
0100
1000
0001
,  // measure 46
0100
0010
0100
0001
0100
0010
0100
0001
1000
0100
1000
0001
0100
0010
0100
0001
,  // measure 47
0100
0010
0100
0001
0100
0010
0100
0001
0100
0010
0100
0001
0100
0010
0100
0001
,  // measure 48
0100
0010
0100
0001
0100
0010
1000
0100
1000
0001
0100
0010
0110
0000
0000
0000
,  // measure 49
0001
1000
0001
1000
0010
0100
0001
0100
0010
1000
0100
0010
0001
0100
0010
1000
,  // measure 50
0100
0010
0001
1000
0010
0100
0001
0010
0001
1000
0010
0100
0001
0010
0100
1000
,  // measure 51
0010
0100
0010
1000
0100
1000
0100
1000
0001
0100
0010
1000
0100
0010
0001
0100
,  // measure 52
0010
1000
0010
0100
0001
1000
0010
0100
0001
0010
0100
1000
0010
0100
0001
0010
,  // measure 53
0100
1000
0010
0100
0001
0100
0010
1000
0100
0010
0001
0100
0010
1000
0100
1000
,  // measure 54
0001
0100
0010
1000
0100
0001
0100
0010
1000
0100
0010
0001
0100
0010
1000
0100
,  // measure 55
1000
0100
1000
0100
0010
0100
0010
0100
0001
0100
0001
0100
0010
0100
0010
0100
,  // measure 56
1000
0010
1000
0010
0100
0010
0100
0010
0001
0010
0001
0010
0100
0010
0100
0010
,  // measure 57
1000
0010
1000
0001
0100
0010
1000
0100
0010
0100
1000
0001
0100
0010
1000
0100
,  // measure 58
1000
0100
0010
0001
0100
0010
1000
0100
1000
0001
0100
0010
0100
0001
0100
0010
,  // measure 59
1000
0100
0010
0001
0100
0010
0100
0010
1000
0100
1000
0100
0010
0001
0010
0001
,  // measure 60
0100
0010
0100
0010
1000
0100
0010
0100
1000
0001
0100
0010
0100
0001
0100
0010
,  // measure 61
1000
0100
0010
0100
1000
0001
0100
0010
1000
0100
1000
0001
0100
0010
0100
0010
,  // measure 62
1000
0100
1000
0100
0010
0001
0010
0001
0100
0010
0100
0010
1000
0100
0010
0001
,  // measure 63
0100
0010
0100
0010
1000
0100
0010
0100
1000
0001
0100
0010
1000
0010
0100
0001
,  // measure 64
0100
0010
1000
0100
1000
0010
0100
0001
0010
0100
1000
0000
1001
0000
0000
0000
;
