#TITLE:Tearin' Up My heart;
#SUBTITLE:;
#ARTIST:*NSYNC;
#TITLETRANSLIT:;
#SUBTITLETRANSLIT:;
#ARTISTTRANSLIT:;
#GENRE:;
#CREDIT:;
#MUSIC:Tearin' Up My Heart.ogg;
#BANNER:;
#BACKGROUND:;
#CDTITLE:;
#SAMPLESTART:68.213;
#SAMPLELENGTH:12.000;
#SELECTABLE:YES;
#OFFSET:-0.545;
#BPMS:0.000=110.030;
#STOPS:;
#BGCHANGES:;
#FGCHANGES:;

//--------------- dance-single - ----------------
#NOTES:
     dance-single:
     :
     Beginner:
     1:
     0.073,0.068,0,0,0:
0000
0000
0000
0000
,
0000
0000
0000
0001
,
0000
0000
0000
1000
,
0000
0000
0000
0010
,
0000
0000
0000
0100
,
0000
0000
0000
1000
,
0000
0000
0000
0001
,
0000
0000
0000
0100
,
0000
0000
0000
0010
,
0000
0000
0000
0100
,
0000
0000
0000
0001
,
0000
0000
0000
0010
,
0000
0000
0000
0100
,
0000
0000
0000
0001
,
0000
0000
0000
1000
,
0000
0000
0000
0010
,
0000
0000
0000
0100
,
0000
0000
0000
0001
,
0000
0000
0000
1000
,
0000
0000
0000
0010
,
0000
0100
0000
0010
,
0000
0000
0000
1000
,
0000
0000
0000
0001
,
0000
0000
0000
0100
,
0000
0000
0000
0010
,
0000
0000
0000
0100
,
0000
0000
0000
0001
,
0000
0001
0000
0001
,
0000
1000
0000
0001
,
0000
0000
0000
0000
,
0000
1000
0000
0001
,
0000
0000
0000
0000
,
0000
0000
0000
0100
,
0000
0001
0000
0100
,
0000
0100
0000
0100
,
0000
0000
0001
0000
,
0000
0001
0000
0100
,
0000
0000
0000
0010
,
0000
0000
0000
0001
,
0000
0000
0000
1000
,
0000
0001
0000
0000
;

//--------------- dance-single - ----------------
#NOTES:
     dance-single:
     :
     Easy:
     4:
     0.073,0.068,0,0,0:
0000
0000
0000
0000
,
0000
0000
0000
0000
,
1000
0000
0001
0000
,
0000
0000
0100
0000
,
0000
0000
0002
0000
,
0003
0000
0200
0000
,
0300
0000
0010
0000
,
0000
0000
1000
0000
,
0001
0000
1001
0000
,
1000
0000
0010
0000
,
0100
0000
0001
0000
,
1000
0000
0100
0000
,
0010
0000
1001
0000
,
0000
0000
0001
0000
,
0000
0000
0100
0000
,
0010
0000
1000
0000
,
0001
0001
1001
0000
,
1000
0000
0010
0000
,
0100
0001
0100
0000
,
0010
1000
0001
0100
,
0010
1000
1001
0000
,
0000
0001
0001
0000
,
0000
0100
0100
0010
,
1000
0001
0010
0000
,
0100
1000
1001
0000
,
0000
0001
0100
0010
,
0000
1000
0100
0010
,
0001
0100
0010
0000
,
1000
0001
1001
0000
,
1000
0010
0100
0000
,
0001
0100
0010
1000
,
0001
0100
0010
0000
,
1000
1000
1001
0000
,
0010
1000
0001
0100
,
0010
1000
0100
0010
,
0001
1000
0001
0000
,
1000
0000
1001
0001
,
1000
0000
0010
0010
,
0010
0000
0100
0001
,
0100
0000
0010
0000
;

//--------------- dance-single - ----------------
#NOTES:
     dance-single:
     :
     Medium:
     6:
     0.257,0.25,0.102,0.203,0:
0000
0000
0002
0000
,
0000
0000
2003
0000
,
3010
0100
0002
0000
,
0000
0003
0200
0000
,
0310
0000
1000
0000
1001
0000
0001
1000
,
0000
0001
0000
1000
0000
0001
0000
0100
,
0000
0010
0000
1000
0002
0000
0003
0000
,
0000
0000
0100
0010
0100
0000
0001
0000
,
1000
0000
0001
0000
1001
0000
1000
0010
,
1000
0000
0001
0000
0100
0000
0010
1000
,
0010
0000
0100
0000
0001
0000
0010
0001
,
0010
0000
0100
0000
1000
0000
0001
1000
,
0001
0000
0100
0000
1010
0000
1000
0001
,
0000
1000
0000
0010
1000
0000
0001
0000
,
0100
0000
0101
0000
0001
0000
1000
0010
,
0000
1000
0000
0001
0000
1000
0010
0000
,
1000
0000
0001
0000
1001
0000
1000
0010
,
0000
0100
0000
0001
0010
0000
0001
0000
,
0100
0010
0100
0000
0001
0000
1000
0010
,
0000
1000
0001
1000
0000
0010
0000
0100
,
0000
0001
0000
1000
1010
0000
1000
0000
,
0000
0001
1000
0001
0000
1000
0000
0001
,
0000
0100
0010
0100
0000
0001
0000
1000
,
0000
0010
1000
0010
0000
0000
0000
0000
,
1000
0001
1001
0000
,
0000
1000
0001
0020
0000
0000
0031
0000
,
1000
0000
0001
0100
0001
0000
1000
0010
,
0000
0100
0000
0001
0000
0000
1001
0000
,
1000
0001
1000
0001
1000
0000
0001
0000
,
0100
0010
1000
0100
,
0010
0001
0010
0001
0100
0000
0010
0000
,
1000
0001
1000
0010
,
0100
0000
0001
0000
1001
0000
1000
0010
,
0000
0100
0000
0001
0000
0100
0000
0010
,
0000
1000
0000
0001
1000
0000
0010
0000
,
0100
0001
1000
0001
,
1000
0010
1010
0100
,
0001
0010
0100
0010
,
0001
0100
0010
1000
,
0001
1000
0001
0000
;

//--------------- dance-single - ----------------
#NOTES:
     dance-single:
     :
     Hard:
     9:
     0.344,0.318,0.136,0.316,0.011:
0000
0000
0000
0000
0002
0000
1000
1000
,
0000
0010
0000
0103
0200
0000
0000
0310
,
1000
0100
0010
0001
0200
0000
0001
0001
,
0000
0010
0000
0301
0020
0000
0030
0000
,
0001
0000
0000
0000
1000
0000
0000
0000
1001
0000
0000
0001
0000
0000
0100
0000
,
0010
0000
1000
0000
0000
0000
0001
0000
1000
0000
0000
1000
0000
0000
0010
0000
,
0100
0000
0000
0001
0000
0000
0100
0000
0010
0000
0000
0010
0000
0000
0000
0000
,
0000
0000
0000
0000
1000
0000
0001
0000
1000
0000
0000
0010
1000
0000
0000
0001
,
0100
0000
0010
0000
1000
0000
0100
0000
1100
0000
0000
1000
0000
0000
0001
0000
,
1000
0000
0010
0000
0100
0000
0000
0000
0001
0000
0000
0010
0000
0000
0001
0000
,
0100
0000
0010
0000
1000
0000
0000
0000
0001
0000
0000
0010
0000
0000
0100
0000
,
1000
0000
0010
0000
0100
0000
0000
0000
0001
0000
0000
0010
0000
0000
0001
0000
,
0100
0000
0010
1000
1010
0000
0010
0100
,
0000
0000
0001
0000
0000
0000
0100
0000
0010
0000
0000
1000
0000
0000
0001
0000
,
1000
0000
0010
0000
0100
0000
0001
0000
0010
0000
0000
0001
0000
0000
0100
0000
,
0010
0000
1000
0000
0100
0000
0000
0000
0010
0000
0000
0010
0000
0000
0001
0000
,
0200
0000
0000
0000
0301
0000
0000
0000
1001
0000
0000
1000
0000
0000
0001
0000
,
0100
0000
0010
0000
1000
0000
0000
0000
0001
0000
0000
0010
0000
0000
0001
0000
,
0100
0010
1000
0000
0001
0000
1000
0200
,
0000
0000
1300
0000
0000
0000
0001
0000
1000
0000
0000
0010
0000
0000
0100
0000
,
0001
1000
0001
0000
2001
0000
3001
0100
,
0010
1000
0100
1000
0000
0001
0000
0001
,
0000
1000
0010
1000
0000
0001
0000
0001
,
0000
0000
0100
0000
0010
0000
0100
0000
0001
0000
0000
1000
0000
0000
0001
0000
,
0100
0000
0010
0000
1001
0000
1000
0001
,
1000
0010
0100
0001
0200
0000
0310
1000
,
0001
0000
1000
0100
0010
0000
0001
0100
,
0000
0010
0000
1000
0002
0000
0003
0000
,
0100
0010
1000
0001
1002
0000
1003
0010
,
0000
0000
1000
0000
0000
0000
0001
0000
1000
0000
0000
0010
0000
0000
0000
0000
,
0100
0001
0100
0010
2000
0000
3001
2000
,
0000
3002
0000
1003
0001
0000
1000
0010
,
2000
0000
3010
0000
0110
0000
0100
0020
,
0000
1030
0010
2000
0000
3001
0100
0010
,
1000
0000
0100
0000
1000
0000
0010
0000
0100
0000
0000
0010
0000
0000
1000
0000
,
0001
0000
0000
0000
1000
0000
0100
0000
0010
0000
0000
0001
0000
0000
0100
0000
,
0010
0000
0000
0000
1000
0000
0000
0000
1001
0000
0000
0001
0000
1000
0001
0000
,
1000
0000
0000
0000
0010
0000
0000
0000
0100
0000
0000
0001
0000
0100
0001
0000
,
1000
0000
0001
0000
0100
0000
0000
0000
0010
0000
0000
1000
0000
0001
1000
0000
,
0010
0110
1000
0000
;
