#TITLE:Z;
#SUBTITLE:;
#ARTIST:one five;
#TITLETRANSLIT:;
#SUBTITLETRANSLIT:;
#ARTISTTRANSLIT:;
#GENRE:;
#CREDIT:;
#MUSIC:Z.ogg;
#BANNER:;
#BACKGROUND:;
#CDTITLE:;
#SAMPLESTART:65.071;
#SAMPLELENGTH:9.700;
#SELECTABLE:YES;
#OFFSET:-0.221;
#BPMS:0.000=400.000
,196.000=180.000
,228.000=399.998
,330.000=349.999
,330.500=299.999
,331.000=249.999
,331.500=199.999
,332.000=149.999
,332.500=74.999
,333.000=24.999
,333.500=399.998
,462.000=199.999
;
#STOPS:66.000=0.890
,292.000=0.450
,294.000=0.150
,295.000=0.150
,297.000=0.150
,302.000=0.300
,304.000=0.300
,306.000=0.300
,308.000=0.150
,311.000=0.450
,313.000=0.150
,314.000=0.150
,316.000=0.150
,321.000=0.300
,323.000=0.300
,325.000=0.300
,327.000=0.150
,333.500=2.480
;
#BGCHANGES:;
#FGCHANGES:;

//--------------- dance-single - ----------------
#NOTES:
     dance-single:
     :
     Beginner:
     9:
     0.416,0.617,0.291,0.07,0:
0000
0000
0000
0000
,
0000
0000
1000
0000
,
0000
0010
0010
0000
,
0000
0000
1000
0000
,
0000
0001
0001
0000
,
0000
0100
0000
0000
,
0000
0010
0010
0000
,
1000
0000
0001
0000
,
0000
0000
1001
0000
,
0000
0000
0010
0000
,
0000
1000
1000
0000
,
0000
0000
0001
0000
,
0000
0100
0100
0000
,
0000
0010
0010
0000
,
0000
1000
1000
0000
,
0001
0000
1000
0000
,
0010
0000
1001
0000
,
1000
0000
0010
0000
,
1000
0000
0001
0000
,
0100
0000
0010
0000
,
1000
0000
0001
0001
,
0001
0000
1000
0000
,
0010
0000
0100
0000
,
0001
0000
1000
0000
,
0010
0000
0100
0000
,
1001
0000
1000
0000
,
0010
0000
0100
0000
,
0001
0000
1000
0000
,
0010
0000
0100
0000
,
1001
0000
0010
0000
,
0100
0000
0001
0000
,
1000
0000
0001
0000
,
0100
0100
0100
0000
,
1001
0000
0010
0000
,
0100
0000
0010
0000
,
1000
0000
0100
0000
,
0001
0000
0100
0000
,
1000
0000
0010
0000
,
0001
0000
0010
0000
,
1000
0000
0001
0000
,
0100
0100
0100
0000
,
0010
0000
1000
0000
,
0001
0000
1000
0000
,
1001
0000
0010
0000
,
0100
0000
0010
0000
,
1001
0000
0000
1001
,
0000
0000
1001
0000
,
1000
0000
0001
0000
,
0100
0100
0100
0000
,
2002
0000
0000
3003
,
0220
0000
0000
0330
,
2002
0000
0000
3003
,
0002
0000
0000
0000
0000
0000
0003
0100
,
0100
0000
0000
0000
0000
0000
0000
0010
,
0010
0000
0000
0000
0000
0000
0000
1000
,
1000
0000
0000
0001
0001
0000
0000
0100
,
0100
0000
0000
0000
,
1000
0000
0001
0000
,
1000
0000
0001
0000
,
0100
0000
0010
0000
,
1000
0000
0001
0000
,
1000
0000
0010
0000
,
0100
0000
0001
0000
,
1000
0000
0010
0000
,
0100
0100
0100
0000
,
0001
0000
1000
0000
,
0010
0000
0100
0000
,
1001
0000
0010
0000
,
0100
0000
0010
0000
,
1001
0000
0110
0000
,
1001
0000
0110
0000
,
1000
1000
1000
0000
,
0001
0001
0001
0000
,
1000
0010
0010
0100
,
0001
0001
1000
0000
,
1000
0000
1000
0000
,
0010
0000
0100
0000
,
0001
0000
0000
1001
,
0010
0010
1000
0010
,
0010
1000
0000
0001
,
0000
1000
0010
0010
,
0100
0100
0001
0001
,
1000
0000
0001
0000
,
0000
0000
1000
0000
,
0001
0000
1000
0000
,
0010
0000
0100
0000
,
0001
0000
1000
0000
,
0001
0000
1000
0000
,
0000
0001
0000
0000
,
1000
0000
0010
0000
,
0010
0000
0100
0000
,
0100
0000
1001
0000
,
0010
0000
0010
0000
,
0100
0000
0001
0000
,
1000
0000
0010
0000
,
0100
0000
0001
0000
,
0000
1000
0000
0000
,
0010
0000
0001
0000
,
1000
0000
0001
0000
,
1000
0000
1001
0000
,
0010
0000
0100
0000
,
0010
0000
1001
0000
,
0010
0000
1000
0000
,
0100
0000
0010
0000
,
0001
0000
0100
0000
,
0010
0000
1000
1000
,
1000
0000
0001
0001
,
0001
0000
1001
0000
,
1001
0000
1001
0000
,
1001
0000
0110
0000
,
0110
0000
0110
0000
,
0110
0000
0010
0000
,
0000
0001
0000
0000
,
0100
0000
0010
0010
,
0010
0000
1000
1000
,
1000
0000
0001
0000
,
1000
0000
0010
0000
,
0100
0000
0001
0000
,
1000
0000
0010
0010
,
0010
0000
0100
0000
,
0001
0000
1000
0000
,
0001
0000
1000
1000
,
1000
0000
0010
0000
,
0100
0000
0000
0000
;

//--------------- dance-single - ----------------
#NOTES:
     dance-single:
     :
     Easy:
     13:
     0.585,0.805,0.161,0.191,0:
1010
0000
0000
0000
,
0000
0000
0000
0000
1000
0000
0000
0001
,
0000
1000
0001
0000
,
0000
0000
0000
0000
1000
0000
0000
0100
,
0000
1000
0100
0000
,
0000
0000
0010
0000
0001
0000
0000
0010
,
0000
0001
0010
0000
,
0001
0000
1000
0000
0001
0000
0000
0100
,
0000
0001
1000
0000
,
0000
0000
0000
0000
1000
0000
0000
0001
,
0000
1000
0001
0000
,
0000
0000
0000
0000
1000
0000
0000
0010
,
0000
1000
0010
0000
,
0000
0000
0100
0000
0001
0000
0000
0100
,
0000
0010
1000
0100
,
0010
0001
0010
0010
,
0100
0100
0010
0000
,
0001
0000
1000
0000
,
0001
0000
0100
0001
,
0100
0000
0010
0000
,
1000
0000
0001
1000
,
0001
0000
1000
0000
,
0010
0000
1000
0000
,
0001
1000
0001
1000
,
0100
1000
0100
0010
,
0100
0000
0010
0000
,
0001
0000
0100
0010
,
0100
0000
0001
0000
,
1000
0000
0100
1000
,
0100
0000
1000
0000
,
0001
0000
1000
0001
,
1000
0000
0010
0000
,
1000
0001
1000
0001
,
1000
0000
0010
0000
,
1000
0000
0001
0010
,
0100
0000
1000
0000
,
0100
0000
0010
0001
,
0100
0000
0010
0000
,
1000
0000
0001
0000
,
0001
0000
1000
0000
,
0100
0010
0001
0100
,
0010
0000
1000
0000
,
0001
0000
0100
0010
,
0100
0000
0001
0000
,
1000
0000
0001
1000
,
2002
3003
0000
0220
,
0330
0000
1001
0000
,
2020
3030
2002
3003
,
1000
0010
0100
0010
,
2000
0000
0000
0000
,
3002
0000
0000
0000
,
0203
0000
0000
0000
,
0320
0000
0000
0000
0000
0000
0030
1000
,
2002
0000
0000
0000
0000
0000
3003
0001
,
0022
0000
0000
0000
0000
0000
0033
1000
,
0200
0000
0000
0310
0002
0000
0000
0013
,
0110
0000
0000
1001
0000
0000
1100
0000
,
1000
0001
1000
0001
,
1000
0000
0010
0100
,
0010
0000
1000
0001
,
1000
0000
0100
1000
,
0100
0000
0010
0001
,
0010
0000
0001
1000
,
0001
0001
0100
0100
,
0010
0010
1000
0001
,
1000
0000
0010
0000
,
1000
0000
0001
0000
,
1001
0000
1000
0000
,
0001
0000
0010
0100
,
0110
0000
1001
0000
,
1100
0000
1100
0000
,
1000
0001
1000
0001
1000
0001
1000
0001
,
1000
0001
1000
0001
1000
0001
1000
0001
,
1000
0001
0001
0100
,
0010
0010
1000
0000
,
0001
1000
0001
0100
,
0100
0010
0010
1000
,
1000
0001
0100
0001
,
1000
1000
0010
0100
,
0100
0001
1000
0010
,
1000
0001
0100
0100
,
0010
0010
1000
1000
,
0001
1000
0020
0000
,
0000
0030
0001
0000
,
0001
0000
1000
0010
,
1000
0000
0001
0000
,
0100
0000
0010
1000
,
0010
0000
1001
0000
,
0010
0000
1000
0000
,
0001
0000
1000
0100
,
0010
0001
0100
0010
,
1000
0001
1000
0000
,
0010
0000
1000
0000
,
0001
0000
0100
0000
,
0010
0000
1000
0000
,
0001
0000
1000
0000
,
0001
0000
0100
0010
,
0100
0000
0001
1000
,
0100
0010
0100
1000
,
0100
0000
0001
1000
,
0001
1000
0001
1000
,
0010
1000
0010
1000
,
0001
1000
0100
0010
,
0001
0100
0010
0000
,
1000
0000
0001
0000
,
1000
0000
0100
0010
,
0001
0100
0010
1000
,
0001
1000
0100
0010
,
0001
0100
0010
1000
,
0100
0010
0001
0100
,
0010
1000
0100
0010
,
0001
0100
0010
0000
,
1000
0000
0001
0000
,
1000
0000
0001
0010
,
0100
1000
0010
0100
,
0001
1000
0001
1000
,
0010
1000
0001
0000
1000
0000
0010
0000
,
1000
0001
1000
0000
0010
0000
1000
0000
,
0001
0000
0100
0000
0010
1000
0001
0010
,
0100
1000
0001
0100
0010
0000
1000
0000
,
0001
0000
1000
0000
0010
1000
0010
0000
,
1000
0001
1000
0010
,
0100
0000
0001
0000
0010
0100
1000
0001
,
0100
0010
1000
0001
0000
0000
0000
0000
;

//--------------- dance-single - ----------------
#NOTES:
     dance-single:
     :
     Medium:
     16:
     0.857,1,0.191,0.171,0.035:
0000
0000
0000
0000
,
0000
0000
0000
0000
1000
0000
0000
0001
,
0000
1001
1001
0000
,
0000
0000
0000
0000
0001
0000
0000
0100
,
0000
0001
0001
0000
,
0000
0000
1000
0000
0100
0000
0000
0010
,
0000
0001
0001
0000
,
1000
0000
0010
0000
1000
0000
0000
0010
,
0000
0100
0001
0000
,
0000
0000
0000
0000
0001
0000
0000
0100
,
0000
0010
1000
0000
,
0000
0000
0000
0000
1000
0000
0000
0010
,
0000
0100
0100
0000
,
0000
0000
0001
0000
1000
0000
0000
0010
,
0000
1000
0001
0100
,
0010
1000
0001
0001
,
0100
0200
0310
0000
,
0100
0100
0001
0100
,
0001
1000
0001
0100
,
0001
1000
0010
0100
,
0001
0000
1000
0000
0001
1000
0001
1000
,
0001
0010
0100
1000
,
0001
0100
0010
1000
,
0001
0100
0001
0000
1000
0010
1000
0000
,
0002
0203
0302
2003
,
3200
0310
0001
0100
,
1000
0100
0001
0010
,
1000
0010
0001
0100
,
0010
0000
1000
0000
0010
1000
0010
1000
,
0010
0100
0001
1000
,
0010
1000
0001
1000
,
0001
0010
0001
0000
1000
0100
1000
0000
,
0001
0100
1000
0100
,
0001
1001
0000
1100
,
0000
1010
0000
1000
,
0001
0001
1000
1000
,
0010
0100
0001
0001
,
1000
1000
0010
0100
,
0001
1000
0100
0010
,
0001
1000
0001
0000
1000
0001
1000
0000
,
0001
0100
1000
0100
,
0001
0010
0100
1000
,
0100
0010
0001
1000
,
1001
0001
0100
0001
,
1000
0001
1000
1000
,
1001
1000
0010
1010
,
0100
0001
0101
0001
,
1000
0001
1000
0000
0001
1000
0001
0000
,
1000
0100
1000
0100
0010
0001
0010
0001
,
0010
0100
1000
0001
0010
0100
1000
0001
,
0010
0001
1000
0100
0010
0001
1000
0100
,
0010
0001
0100
0010
1000
0010
0100
0001
,
1000
0010
1000
0001
1000
0010
1000
0001
,
2001
0000
3020
0000
0230
0000
0301
1000
,
1002
0000
0203
0000
0320
0000
1030
1000
,
1002
0000
0000
0103
0201
0000
0000
0310
,
1020
0000
0000
1030
0000
0000
1000
0000
,
0001
0100
0001
0100
,
0001
0100
0010
1000
,
0001
1000
0010
0100
,
0001
0000
1000
0000
0001
0000
0010
0100
,
1000
0100
0010
0001
,
0100
0010
1000
0100
,
0001
0100
1000
0001
,
1000
0001
1000
0001
1000
0000
0001
0100
,
0001
0100
0010
1000
,
0100
0001
0100
1000
,
1001
0010
1000
0010
,
1000
0000
0001
0000
1000
0010
1000
0000
,
1001
0000
1100
0000
,
0101
0000
1001
0000
,
1000
0100
1000
0000
0001
0010
0001
0000
,
1000
0001
1000
0000
0001
0000
0100
0000
,
1000
0100
0100
0010
,
0001
0000
0001
0000
1000
0010
1000
0000
,
0001
1000
1000
0010
,
0010
0100
0100
0001
,
0001
0000
1000
0000
1000
0001
1000
0000
,
0010
0010
1000
0001
,
0001
0000
1000
0100
1000
0000
0001
0000
,
0100
0010
1000
1000
,
0001
0001
1000
1000
,
0001
0000
1000
0010
2000
0000
0000
0000
,
0000
3000
1000
0010
,
1000
0000
0001
0000
1000
0000
0001
0100
,
0001
0000
1000
0000
0001
0100
0000
0100
,
0010
0000
1000
0000
0001
1000
0001
0000
,
1000
0100
0000
0010
0001
0000
0001
0100
,
0000
0100
0010
0000
0010
1000
0000
1000
,
0010
0000
1000
0001
1000
0000
0010
0000
,
0100
0100
0001
1000
,
0010
0100
0001
0100
,
1000
0000
0100
0000
0001
0000
1000
0010
,
1000
0000
0001
0000
1000
0010
0000
1000
,
0010
0000
0100
0000
0001
1000
0001
0000
,
1000
0100
0000
0100
0010
0000
0010
0001
,
0000
0001
0100
0000
0100
0010
0000
0010
,
1000
0000
0001
1000
0001
0000
0100
0000
,
0020
1030
0001
1000
,
0010
0010
1000
0010
,
0100
0000
0001
0000
1000
0000
0001
0100
,
0001
0000
1000
0000
0001
0100
0000
0001
,
0100
0000
0010
0000
1000
0001
1000
0000
,
0001
0100
0000
0100
0010
0000
0010
1000
,
0000
1000
0100
0000
0100
0010
0000
0010
,
0001
0000
1000
0001
1000
0000
0100
0000
,
0001
0100
1000
0010
,
0100
0001
1000
0100
,
0001
0000
0100
0000
1000
0000
0001
0100
,
0001
0000
1000
0000
0001
0100
0000
0001
,
0100
0000
0001
0000
1000
0001
1000
0000
,
0001
0100
0000
0100
0001
0000
1000
0010
,
0000
0010
1000
0000
0001
0100
0000
0100
,
0001
0000
1000
0001
1000
0001
1000
0001
,
1000
0000
0100
0010
0100
0000
0010
0001
,
0010
0000
0001
1000
0001
0100
0010
1000
,
0001
0000
0100
0000
0100
0000
0010
0000
1000
0010
0000
0010
1000
0000
0001
0000
,
0100
0000
0010
0000
1000
0000
0001
0000
1000
0000
0000
0010
0000
0000
1000
0000
,
0000
0010
0000
0000
1000
0000
0001
0000
1000
0000
0100
0000
0010
0000
0100
0000
,
0010
0001
0100
0010
1000
0001
0100
0010
,
1000
0000
0001
0000
0001
0000
0100
0000
0010
0000
0000
1000
0000
0000
0010
0000
,
0100
0000
0001
0000
1000
0000
0100
0000
0001
0000
0000
0100
0000
0000
1000
0000
,
0000
0010
0000
0000
0100
0000
0001
0000
0100
0000
0100
0000
0100
0000
0010
0000
,
1000
1000
1000
0001
0000
0000
0000
0000
;

//--------------- dance-single - ----------------
#NOTES:
     dance-single:
     :
     Hard:
     18:
     1,1,0.462,0.321,0.226:
0000
0000
0000
0000
,
0000
0000
0000
0000
1000
0000
0000
0001
,
0000
1001
2002
0000
,
3003
0000
0000
0000
0001
0000
0000
0100
,
0000
0101
0202
0000
,
0303
0000
0001
0000
1000
0000
0000
0010
,
0000
1010
2020
3030
,
1001
0000
0001
0000
1000
0000
0000
0010
,
0000
0200
0002
0000
,
0000
0000
0303
0000
0001
0000
0000
1000
,
0000
0020
2000
0000
,
0000
0000
3030
0000
1000
0000
0000
0010
,
0000
1010
2020
0000
,
3030
0000
0001
0000
1000
0000
0000
0010
,
0000
1000
0001
0100
,
0010
0000
1000
0000
0001
0100
0001
0100
,
0010
1000
0010
1000
0010
0000
0000
0000
,
0100
0100
0001
0100
,
0001
1000
0001
0100
,
0001
1000
0010
0100
,
0001
0000
1000
0000
0001
1000
0001
1000
,
0001
1000
0100
0010
,
0001
0100
0001
1000
,
0100
1000
0100
0000
0010
0001
0010
0000
,
0001
0100
0001
0100
0010
1000
0010
1000
,
0001
0010
0001
1000
,
0010
0100
0001
1000
,
1000
0001
0100
0010
,
1000
0000
0001
0000
1000
0010
0100
0001
,
0100
0010
1000
0100
,
0001
0100
0010
0001
,
1000
0010
1000
0000
0001
0100
0001
0000
,
1000
0100
1000
0100
0010
0001
0010
0001
,
1000
1000
0001
0001
,
0100
0100
0010
0010
,
1000
1000
0001
0001
,
0100
0000
0001
0000
0001
1000
0001
1000
,
0010
1000
0001
0100
,
0001
1000
0100
0010
,
0001
1000
0001
0000
1000
0001
1000
0000
,
0001
1000
0100
1000
0010
1000
0001
0100
,
0001
0010
0100
1000
,
0100
0010
0001
1000
,
1001
0001
0100
0001
,
1000
0000
0001
1000
0001
0100
0010
0100
,
0001
1000
0010
1010
,
0100
0001
0101
0001
,
1000
0001
1000
0000
0001
1000
0001
0000
,
1000
0100
1000
0100
0010
0001
0010
0001
,
1000
0100
0001
0100
0010
0100
0001
0100
,
1000
0010
0001
0010
0100
0010
0001
0010
,
1000
0010
0100
0001
0100
0010
1000
0010
1000
0001
0100
0010
1000
0010
1000
0000
,
0001
0100
0001
0100
0010
1000
0010
1000
0001
0100
0001
0100
0010
1000
0001
0000
,
2001
0000
3020
0000
0230
0000
0301
1000
,
1002
0000
0203
0000
0320
0000
1030
1000
,
1002
0000
0000
0103
0201
0000
0000
0310
,
2020
0000
3030
2002
0000
3003
1000
0000
,
0002
0103
0002
1003
,
0002
1003
0002
0103
,
0020
1030
0020
1030
,
0020
0000
0130
0000
0001
0000
0010
0100
,
1000
0100
0010
0001
,
0100
0010
1000
0100
,
0001
0100
1000
0001
,
1000
0010
0100
0001
1000
0010
0100
0001
,
0100
0010
1000
0100
,
0010
0001
0100
0010
,
1001
0010
1000
0010
,
1000
0000
0001
0000
1000
0010
1000
0100
,
1000
0001
1001
0000
,
0101
0000
0100
0000
0001
0010
0001
0010
,
0100
1000
0100
1000
0001
0010
0001
1000
,
0010
1000
0001
0100
0010
1000
0001
1000
,
0001
1100
1010
0101
,
1100
0000
1001
0000
0001
1000
0010
0000
,
0100
0001
1001
1100
,
1001
0101
1001
1100
,
0101
0000
1001
0000
1000
0001
1000
0000
,
0101
1010
1001
1100
,
1001
0000
1000
0001
1000
0000
0010
0000
,
0100
1001
1001
0101
,
0101
0110
0110
0110
,
1000
0000
0001
1000
0002
0000
0000
0000
,
0000
0000
0000
0003
1000
0000
0010
0000
,
1000
0000
0001
0000
1000
0000
0001
0100
,
0001
0000
1000
0000
0001
0100
0000
0100
,
0010
0000
1000
0000
0001
1000
0001
0000
,
1000
0100
0000
0010
0001
0000
0001
0100
,
0000
0100
0010
0000
0010
1000
0000
1000
,
0010
0000
1000
0001
1000
0010
0100
0001
,
0100
0000
0001
0100
0001
1000
0010
1000
,
0010
1000
0001
0010
0001
0000
1000
0000
,
0010
0000
1000
0000
0001
0000
1000
0010
,
1000
0000
0001
0000
1000
0010
0000
1000
,
0010
0000
0100
0000
0001
1000
0001
0000
,
1000
0100
0000
0100
0010
0000
0010
0001
,
0000
0001
0100
0000
0100
0010
0000
0010
,
1000
0000
0001
1000
0001
0100
0010
1000
,
0010
0000
1000
0010
0100
0000
0001
0100
,
0001
0000
0100
0010
1000
0100
1000
0100
,
1000
0100
1000
0100
0010
0001
0010
0001
,
0010
0001
0010
0001
1000
0010
1000
0010
,
1000
0010
1000
0010
1000
0001
1000
0001
,
1000
0100
0000
0100
0010
0000
0010
0001
,
0000
0001
1000
0000
1000
0100
0000
0100
,
0010
0000
0001
1000
0001
0100
0001
1000
,
0001
0000
1000
0010
1000
0000
0010
0100
,
0001
0000
0100
0010
1000
0100
1000
0100
,
0010
0001
0010
0001
1000
0010
1000
0010
,
0100
0001
0100
0001
1000
0010
0100
0010
,
1000
0001
0100
0001
1000
0001
1000
0100
,
0010
0001
0000
0001
0100
0000
0100
0010
,
0000
0010
1000
0000
1000
0100
0000
0100
,
0010
0000
0001
1000
0100
0010
0001
0100
,
0010
1000
0100
0010
0001
1000
0010
0100
,
0010
1000
0001
1000
0001
0100
0010
1000
,
0001
0000
1000
0010
1000
0000
0010
0000
1000
0010
0000
0010
1000
0000
0001
0000
,
1000
0010
1000
0000
0001
1000
0000
1000
0010
0000
0010
0100
0000
0100
0010
0000
,
0010
0100
0000
0100
0001
0000
1000
0001
1000
0100
0010
0001
0010
0000
0100
1000
,
0100
0000
0010
0001
0010
0000
0100
0000
1000
0000
0001
0000
0100
0000
0010
0000
,
1000
0000
0001
0100
0001
0000
0100
0000
0010
1000
0000
1000
0010
0000
0100
0000
,
0001
0100
0001
0000
1000
0010
0000
0010
1000
0000
0100
0010
0000
0010
0001
0000
,
0001
0100
0000
0100
0001
0000
1000
0001
1000
0100
0010
0001
0010
0000
0100
1000
,
0100
0000
0010
0001
0010
0000
0001
0100
0000
0000
0000
0000
0000
0000
0000
0000
;

//--------------- dance-single - ----------------
#NOTES:
     dance-single:
     :
     Challenge:
     19:
     1,1,0.702,0.201,0.557:
0000
0000
0000
0000
,
0000
0000
0000
0000
1000
0000
0000
0100
,
0000
0011
2002
0000
,
3003
0000
0000
0000
0001
0000
0000
0100
,
0000
0101
2002
0000
,
3003
0000
0001
0000
1000
0000
0000
0010
,
0000
1010
2020
3030
,
1001
0000
0001
0000
0101
0000
0000
0010
,
0000
2010
0002
0000
,
3003
0000
0000
0000
0001
0000
0000
1000
,
0000
1020
2000
0000
,
0000
0000
3030
0000
1000
0000
0000
0010
,
0000
1010
2002
0000
,
3003
0000
0001
0000
1000
0000
0000
0010
,
0000
1000
0001
0100
,
0010
0000
1000
0000
0001
0100
0001
0100
,
0010
0000
1000
0010
1000
0000
0001
0000
1000
0000
0000
0000
0000
0000
0000
0000
,
0001
0010
0001
0100
0010
1000
0100
1000
,
0001
0010
0001
0100
0010
1000
0100
1000
,
0001
0100
0001
0010
0100
1000
0010
1000
,
0001
0010
0100
1000
0001
0100
1000
0100
,
0001
1000
0100
0000
0100
0010
0001
0000
,
0001
1000
0001
0000
1000
0100
0010
0001
,
1000
0100
1000
0000
0001
0010
0001
0000
,
1000
0100
0010
0001
0100
0010
1000
0001
,
0100
0000
0010
0000
1000
0010
1000
0000
,
0001
0100
0001
0000
1000
0010
0100
0001
,
0010
0001
1000
0010
1000
0000
0001
0100
,
0001
0100
0010
1000
0001
0010
0100
1000
,
0100
0000
1000
0010
0100
0001
0100
0010
,
1000
0100
1000
0100
0010
0001
0010
0001
,
1000
0010
0100
0000
0001
0100
0010
0000
,
1000
0100
0010
0001
0010
0100
1000
0001
,
1000
0000
0001
0100
0010
0000
0100
0001
,
0100
0010
1000
0010
0100
0001
1000
0010
,
1000
0010
0100
0001
0100
0001
1000
0100
,
0010
0100
1000
0100
1000
0010
1000
0001
,
0010
0000
0100
1000
0100
0000
0010
0100
,
0010
1000
0010
0100
0001
0000
0100
0010
,
1000
0001
1000
0010
0100
0001
0100
0010
,
1000
0001
0100
0001
0010
0001
1000
0100
,
1000
0000
1010
0000
1000
0001
0010
0000
,
0100
0000
1100
0000
1000
0001
1000
0000
,
0001
1000
0001
0010
0100
0010
0001
1000
,
0001
1000
0100
0010
0001
0010
0100
1000
,
0001
0000
1000
0100
0010
0000
0001
0010
,
0001
1000
0100
1000
0001
0000
1000
0010
,
1000
0100
1000
0000
0100
1000
0100
0000
,
0010
0001
0100
0001
0100
0001
1000
0001
,
1000
0010
1000
0010
0100
0001
0100
0001
1000
0100
1000
0010
0100
0001
0010
0001
,
1000
0100
0010
0100
1000
0001
0010
0100
1000
0001
0100
0010
1000
0010
0100
0001
,
1000
0010
0100
0001
0100
0010
1000
0100
0010
0100
0010
0001
0100
0001
0100
0010
,
1000
0010
1000
0001
0100
0010
0100
0001
1000
0010
0100
0001
1000
0001
1000
0100
,
1000
0100
1000
0100
0010
0001
0100
0010
1000
0100
0010
0001
1000
0001
1000
0010
,
0100
0001
0100
0010
1000
0010
1000
0001
0010
0100
1000
0010
0100
0001
0100
0001
,
0100
0010
1000
0010
1000
0001
1000
0001
1000
0001
0010
0001
1000
0001
0010
0001
,
1000
0010
0100
0001
0100
0010
1000
0001
0010
0100
1000
0001
1000
0000
0000
0000
,
1001
0000
1000
0100
0010
0000
0001
0100
,
0010
0000
0100
0001
0010
0100
1000
0001
,
0100
0010
1000
0010
1000
0001
1000
0001
,
0010
0001
0100
0010
1000
0010
0100
0001
,
1000
0001
1000
0100
1000
0100
1000
0001
,
0100
0010
1000
0100
0010
0001
1000
0000
,
1100
1100
0011
0011
,
0001
0010
0100
1000
0001
0010
0100
0000
,
2100
0100
0001
0001
,
0010
0010
0001
3001
,
1002
1000
0010
0010
,
1000
0000
1003
0000
0001
0010
0001
0100
,
0001
1000
1001
1000
,
1100
0000
0100
0000
1000
0010
1000
0010
,
1000
0010
0100
0001
0010
0100
1000
0010
,
0100
0010
1000
0100
1000
0100
0010
0001
,
1001
0101
0011
1100
,
0101
0000
1001
0000
1000
0100
0002
0000
,
0203
1300
1001
0101
,
1001
1100
1001
0101
,
1100
0000
1001
0000
0001
0100
1000
0000
,
1100
0101
1010
0011
,
0011
0000
0001
0010
1000
0000
0001
0000
,
0100
1010
0011
1100
,
1100
1001
1100
0011
,
0001
0000
1000
0010
1000
0000
0001
0000
2000
0000
0000
0000
0000
0000
0000
0000
,
0000
0000
0000
3000
0001
0100
0010
0000
,
1000
0010
0100
0000
0001
0100
0010
0100
,
0010
0100
0001
0000
1000
0100
0000
0100
,
0010
0000
0011
0000
0001
0100
0010
0000
,
0100
0001
0000
1000
0100
0000
1000
0100
,
0000
0100
0010
0000
0010
0001
0000
0001
,
0010
0000
0001
1000
0001
0010
0100
1000
,
0100
0000
1000
0100
1000
0001
0010
0001
,
0010
0000
0001
1000
0001
0000
0110
0000
,
1000
0000
0011
0000
1000
0000
0001
1000
,
0100
0000
1100
0000
0001
0010
0000
0100
,
1000
0000
1000
0000
1000
0010
0100
0000
,
0001
0100
0000
0100
0010
0000
0010
1000
,
0000
1000
0100
0000
0100
0010
0000
0010
,
0001
0000
1000
0001
1000
0100
0010
0001
,
0010
0000
0001
0010
0100
1000
0100
1000
,
0100
0000
1000
0001
1000
0100
0010
0100
,
1000
0001
0100
0010
1000
0100
0010
0100
,
1000
0001
0100
0010
1000
0100
0010
0001
,
0100
0000
0010
0000
1000
0000
0100
0000
0010
0000
0001
0000
1000
0000
0001
1000
,
0001
1000
0001
0000
0100
0000
0010
0000
1000
0000
0100
0000
0010
0000
0001
0000
,
0100
0001
1000
0010
1000
0100
0010
0100
,
0010
0001
1000
0100
0010
0001
1000
0001
,
1000
0001
1000
0000
0001
0000
1000
0000
0100
0000
0010
0000
0001
0000
1000
0100
,
1000
0000
0001
0010
0001
0000
1000
0000
0100
0000
0010
0000
0001
0000
0010
0000
,
0100
1000
0100
0010
0100
1000
0100
1000
,
0001
0010
0001
0010
0100
1000
0001
1000
,
0100
0010
0001
0010
0100
0010
0100
1000
,
0001
1000
0001
0000
0100
0000
0010
0000
1000
0000
0100
0000
0010
0000
0100
0000
,
1000
0001
0010
0001
0100
0010
1000
0001
,
0010
0100
1000
0010
0100
0001
0010
0001
,
1000
0100
0010
0100
1000
0001
0010
0001
,
0100
0001
1000
0100
1000
0001
0010
1000
,
0010
0000
0001
0100
0010
0000
0100
0000
1000
0010
0000
0010
1000
0000
0010
0000
,
0001
0100
0010
0000
0100
0010
0000
1000
0010
0000
0001
0010
0000
0010
1000
0000
,
0100
0001
0000
0100
0010
0000
0001
0100
0010
0100
0010
0100
0001
0000
1000
0100
,
1000
0000
0010
0100
0010
0000
1000
0000
1000
0000
0100
0000
0010
0000
0100
0000
,
1000
0000
0001
0100
0001
0000
1000
0000
0010
1000
0000
0001
0010
0000
0100
0000
,
1000
0001
0010
0000
0100
1000
0000
0100
1000
0000
0100
1000
0000
0010
0100
0000
,
0001
0010
0000
0100
1000
0000
0001
0100
0010
0100
0001
0010
0001
0000
0010
0001
,
0100
0000
0100
0001
0010
0000
2002
0000
3003
0000
0000
0000
0000
0000
0000
0000
;
