#TITLE:You & I;
#SUBTITLE:;
#ARTIST:Tatu;
#TITLETRANSLIT:;
#SUBTITLETRANSLIT:;
#ARTISTTRANSLIT:;
#GENRE:;
#CREDIT:;
#MUSIC:you & i.ogg;
#BANNER:You & I.png;
#BACKGROUND:You & I-bg.png;
#CDTITLE:cdtitle.png;
#SAMPLESTART:68.213;
#SAMPLELENGTH:12.000;
#SELECTABLE:YES;
#OFFSET:0.240;
#BPMS:0.000=86.010;
#STOPS:;
#BGCHANGES:;
#FGCHANGES:;

//--------------- dance-single - ----------------
#NOTES:
     dance-single:
     :
     Beginner:
     1:
     0.062,0.069,0.03,0,0:
0000
0000
0000
0000
,
0000
0000
0000
0000
,
0000
1001
0000
0000
,
0000
1001
0000
0000
,
0000
1000
0000
0000
,
0000
0001
0000
0000
,
0000
0010
0000
0000
,
0000
0100
0000
0000
,
0000
1000
0000
1000
,
0000
0001
0000
0001
,
0000
0010
0000
0010
,
0000
0100
0000
0100
,
0000
1000
0000
0000
,
0000
0001
0000
0000
,
0000
0010
0000
0000
,
0000
1000
0000
0000
,
0000
0001
0000
0000
,
0000
1000
0000
0000
,
0000
0010
0000
0000
,
0000
0100
0000
0000
,
0000
1000
0000
0000
,
0000
0001
0000
0000
,
0000
0010
0000
0000
,
0000
1000
0000
0000
,
0000
0001
0000
0000
,
0000
1000
0000
0000
,
0000
0001
0000
0000
,
0000
0010
0000
0000
,
0000
1001
0000
0000
,
0000
1000
0000
0000
,
0000
0010
0000
0000
,
0000
0100
0000
0000
,
0000
0001
0000
1000
,
0000
0010
0000
0100
,
0000
0001
0000
1000
,
0000
0010
0000
0000
;

//--------------- dance-single - ----------------
#NOTES:
     dance-single:
     :
     Easy:
     3:
     0.153,0.18,0.049,0.079,0:
0000
0000
0000
0000
,
0000
0000
0000
0000
,
0000
1001
0000
1001
,
0000
1001
0000
1001
,
0000
1000
0000
0001
,
0000
0100
0000
0010
,
0000
1000
0000
0001
,
0000
1000
0000
0001
,
1000
0100
1000
0100
,
0010
0001
0010
0001
,
1000
0001
1000
0001
,
0100
0010
2000
0000
,
3001
1000
0000
0001
,
1000
0010
0000
0100
,
0001
1000
0000
0001
,
1000
0001
0000
1000
,
0002
0000
1003
0010
,
0200
0000
0301
1000
,
0002
0000
1003
0010
,
2000
0000
3002
0000
,
1003
0010
0100
0100
,
0001
0000
1000
0001
,
0100
0000
1000
1000
,
0002
0000
1003
0000
,
1000
0001
0000
0000
,
0010
0100
0000
0000
,
1000
1000
0000
0000
,
0001
0001
0000
0000
,
1001
0000
1000
0000
,
0001
0000
0010
0000
,
0100
0000
1000
0000
,
0001
0000
1000
0000
,
1000
0001
1000
0001
,
0100
0010
0100
0010
,
1000
0100
0001
0100
,
1000
0000
0001
0000
1000
0000
0001
1000
,
0020
0000
0030
0000
;

//--------------- dance-single - ----------------
#NOTES:
     dance-single:
     :
     Medium:
     5:
     0.244,0.248,0.217,0.089,0:
0000
0000
0000
0000
,
0000
0000
0000
0000
,
0000
1001
0000
1001
,
0000
0110
0000
0110
,
1000
1001
0001
1001
,
1000
1010
1000
1001
,
1000
1001
1000
0101
,
0100
0110
0010
1010
,
1000
0001
1000
0000
0001
0100
0001
0000
,
1000
0010
1000
0000
0001
1000
0001
0000
,
1000
1000
0010
0000
0001
0001
0100
0000
,
0010
1000
0100
0000
0010
0001
0100
0010
,
2000
0001
0000
3010
,
0200
0001
0000
0310
,
2000
0001
0000
3001
,
0200
0000
0001
0000
0000
0000
0301
1000
,
0001
0000
0000
1000
0001
0100
0010
0000
,
1001
0000
0000
0000
1000
0010
1000
0000
,
1001
0000
0000
0000
1000
0001
0100
0000
,
2000
0000
0000
0000
3200
0000
0000
0001
,
0301
0000
0000
0000
1000
0001
1000
0000
,
1001
0000
0000
0000
1000
0010
1000
0000
,
0001
0000
1000
0000
0010
1000
0001
0000
,
2000
0000
0002
3003
,
1000
0000
0001
1000
0000
0000
0000
0000
,
0010
0000
1000
0001
0000
0000
0000
0000
,
1000
0000
0001
0100
0000
0000
0000
0000
,
1000
0000
0001
1000
0000
0000
0000
0000
,
1001
1000
0001
1001
,
1000
1010
0001
0101
,
0100
0110
0010
1010
,
1000
1001
1000
0000
,
0001
0100
0001
0000
1000
0001
1000
0000
,
0010
1000
0010
0000
1000
0001
1000
0000
,
0001
0100
1000
0000
1000
0001
0100
0000
,
0010
1000
0001
0000
1000
0100
0010
0001
,
2000
3000
0000
0000
0000
0000
0000
0000
0000
0000
0000
0000
0000
0000
0000
0000
0000
0000
0000
0000
0000
0000
0000
0000
0000
0000
0000
0000
0000
0000
0000
0000
0000
0000
0000
0000
0000
0000
0000
0000
0000
0000
0000
0000
0000
0000
0000
0000
0000
0000
0000
0000
0000
0000
0000
0000
0000
0000
0000
0000
0000
0000
0000
0000
0000
0000
0000
0000
0000
0000
0000
0000
0000
0000
0000
0000
0000
0000
0000
0000
0000
0000
0000
0000
0000
0000
0000
0000
0000
0000
0000
0000
0000
0000
0000
0000
0000
0000
0000
0000
0000
0000
0000
0000
0000
0000
0000
0000
0000
0000
0000
0000
0000
0000
0000
0000
0000
0000
0000
0000
0000
0000
0000
0000
0000
0000
0000
0000
0000
0000
0000
0000
0000
0000
0000
0000
0000
0000
0000
0000
0000
0000
0000
0000
0000
0000
0000
0000
0000
0000
0000
0000
0000
0000
0000
0000
0000
0000
0000
0000
0000
0000
0000
0000
0000
0000
0000
0000
0000
0000
0000
0000
0000
0000
0000
0000
0000
0000
0000
0000
0000
0000
0000
0000
0000
0000
0000
0000
0000
0000
0000
0000
;

//--------------- dance-single - ----------------
#NOTES:
     dance-single:
     :
     Hard:
     9:
     0.453,0.45,0.118,0.128,0.33:
0000
0000
0000
0000
,
0000
0000
0000
0000
,
0000
2002
3003
2020
,
3030
0000
0000
0000
2002
0000
0000
0000
3003
0000
0000
0000
1010
0000
1000
0010
,
0100
0000
0000
0000
0001
0000
1000
0010
1000
0000
0000
0000
0001
0000
0010
0100
,
0010
0000
0000
0000
0100
0000
1000
0100
1000
0000
0001
0000
1000
0000
0010
0100
,
0001
0000
0000
0000
0100
0000
0010
1000
0010
0000
1000
0000
0001
0000
1000
0010
,
1000
0000
0000
0000
0001
0000
1000
0010
1000
0000
0010
0000
0010
0000
0100
0001
,
0100
0000
0010
1000
0010
0000
1000
0100
1000
0000
0001
0010
0001
0000
1000
0001
,
1000
0000
0001
0100
0001
0000
1000
0001
1000
0000
0100
0010
0001
0000
1000
0100
,
1000
0000
0001
0010
0001
0000
1000
0001
1000
0000
0001
1000
0001
0000
1000
0100
,
1000
0000
0001
0010
0001
0000
0010
0100
1000
0000
1000
0000
1001
0000
0001
0000
,
1000
0000
0010
0000
0100
0000
0000
0001
0000
0001
0100
0000
0010
0000
0000
0000
,
1000
0000
0100
0000
0010
0000
0000
0001
0000
0001
0100
0000
0010
0000
0000
0000
,
1000
0000
0100
0000
0010
0000
0000
0001
0000
0001
0100
0000
0010
0000
0000
0000
,
1000
0000
0100
0000
0010
0000
0000
0100
0000
0100
1000
0000
0001
0000
1000
0001
,
1000
0000
0010
0000
1000
0000
0001
0000
0100
0000
0010
0000
1000
0000
0100
0010
,
0100
0000
0010
0000
0001
0000
0100
0000
0100
0000
0010
0000
0010
0000
1000
0001
,
1000
0010
1000
0001
0010
0100
1000
0100
,
0020
0000
0000
0000
0000
0000
0000
0000
0032
0000
0000
0000
0003
1000
0100
1000
,
0100
0000
0100
0000
1000
0000
0001
0000
0100
0000
0010
0000
1000
0000
0001
1000
,
0001
0000
0100
0000
0010
0000
1000
0000
1000
0000
0100
0000
0100
0000
0010
0001
,
0010
0001
0100
0010
1000
0100
0001
0100
,
2000
0000
0000
0000
3020
0000
0000
0130
,
0001
0000
0100
0000
0010
0000
1000
0010
0000
0010
1000
0000
0001
0000
1000
0000
,
0010
0000
0100
0000
0001
0000
0010
0001
0000
0001
0010
0000
0001
0000
1000
0000
,
0010
0000
0100
0000
0001
0000
0010
0001
0000
0001
1000
0000
0010
0000
0100
0000
,
0001
0000
0010
0000
0100
0000
2000
0000
0000
0000
0000
0000
3000
0000
0001
1000
,
0001
0000
1000
0000
1001
0000
0001
0100
0001
0000
0100
0000
0110
0000
0010
1000
,
0010
0000
1000
0000
1001
0000
0001
0100
0001
0000
0100
0000
0110
0000
0010
1000
,
0010
0000
1000
0000
1100
0000
0100
0010
0100
0000
0010
0000
0011
0000
0001
1000
,
0001
0000
0010
0000
0100
0000
1000
0001
1000
0000
0010
0000
1000
0000
0001
0100
,
0001
0000
0100
0010
0100
0000
0001
0100
0001
0000
0100
0010
0100
0000
0010
1000
,
0010
0000
0100
0010
0100
0000
0010
1000
0010
0000
1000
0010
0100
0000
0010
1000
,
0001
0000
1000
0100
0010
0000
0001
0010
0100
0000
1000
0001
1000
0000
0001
0100
,
0001
0000
1000
0010
1000
0000
0001
0100
0001
0000
0100
0000
0010
0000
1000
0000
,
2002
0000
3003
0000
;

//--------------- dance-double - ----------------
#NOTES:
     dance-double:
     :
     Hard:
     11:
     0.527,0.518,0.355,0.059,0.439:
00000000
00000000
00000000
00000000
,
00000000
00000000
00000000
00011000
,
00000000
00010010
00000000
00001100
,
00000000
00000000
00000000
00000000
00001001
00000000
00000000
00000000
00000000
00000000
00000000
00000000
00000011
00000000
00000001
00000100
,
00000010
00001000
00000010
00000000
00001010
00000000
00000100
00010000
00000100
00000000
00000000
00000000
00010100
00000000
00001000
00010000
,
00001000
00000000
00000000
00000000
00101000
00000000
00010000
00100000
00010000
00000000
00000000
00000000
10010000
00000000
10000000
00100000
,
10000000
00000000
00010000
00000000
01010000
00000000
01000000
00010000
01000000
00000000
00001000
00000000
00101000
00000000
00010000
00000100
,
00010000
00000000
00000100
00000000
00010100
00000000
00001000
00000010
00001000
00000000
00000001
00000000
00001001
00000000
00000001
00000010
,
00000001
00000000
00001000
00000100
00001000
00000000
00000010
00001000
00000010
00000000
00010000
00000100
00010000
00000000
00001000
00100000
,
00001000
00000000
00010000
01000000
00010000
00000000
10000000
00100000
10000000
00000000
00010000
01000000
00001000
00000000
00010000
00000100
,
00010000
00000000
00001000
01000000
00010000
00000000
01000000
00001000
00010000
00000000
00001000
00010000
00000100
00000000
00001000
00000010
,
00000100
00000000
00000001
00000100
00000010
00000000
00001000
00000100
00010000
00000000
00001000
00000000
00010000
00000000
00000100
00000000
,
00010100
00000000
00001000
00000000
00100000
00000000
00001000
00010000
00000000
00001000
00100000
00000000
00110000
00000000
00010000
00000000
,
10000000
00000000
01000000
00000000
11000000
00000000
10000000
00100000
00000000
01000000
00010000
00000000
01010000
00000000
00100000
00000000
,
00001000
00000000
00010000
00000000
00010100
00000000
00001000
00000010
00000000
00000010
00001000
00000000
00001001
00000000
00000001
00000000
,
00000100
00000000
00001000
00000000
00010000
00000000
01000000
10000000
00000000
10000000
01000000
00000000
00010000
00000000
00001000
00000100
,
00000010
00000000
00000100
00000000
00000001
00000000
00000010
00000001
00001000
00000010
00001000
00000000
00000100
00000000
00100000
00001000
,
00100000
00000000
00010000
10000000
00010000
00000000
10000000
00100000
10000000
00100000
10000000
00000000
10010000
00000000
01000000
00001000
,
01000000
00000000
00010000
00001000
00010000
00000000
00000100
00000000
00010100
00000000
00010000
00000000
00010010
00000000
00000010
00000000
,
00002010
00000000
00000000
00000000
00000000
00000000
00000000
00000000
00003002
00000000
00000000
00000000
00000003
00001000
00000010
00001000
,
00000010
00000000
00001000
00000000
00001010
00000000
00000100
00000000
00010000
00000000
00001000
00000000
00100000
00000000
00010000
00100000
,
00010000
00000000
00100000
00000000
00001000
00000000
00010000
00000000
00000100
00000000
00001000
00000000
00000100
00000000
00010000
00001000
,
00100000
00000000
00010000
10000000
00010000
00000000
10000000
00100000
10000000
00000000
00010000
01000000
00010000
00000000
10000000
00000000
,
20100000
00000000
00000000
00000000
30010000
01000000
00010000
01000000
,
00010000
00000000
10000000
00000000
00010000
00000000
01000000
00100000
00000000
00100000
10000000
00000000
10010000
00000000
10000000
00000000
,
00010000
00000000
00100000
00000000
00001000
00000000
00010000
00000010
00000000
00000010
00010000
00000000
00010010
00000000
00010000
00000000
,
00000010
00000000
00001000
00000000
00000010
00000000
00001000
00000010
00000000
00001000
00000010
00000000
00001000
00000000
00000001
00000000
,
00000100
00000000
00001000
00000000
00000100
00000000
00000002
00000000
00000000
00000000
00000000
00000003
00000100
00000000
00000010
00001000
,
00000010
00001000
00000010
00000000
00001010
00000000
00000100
00010000
00000100
00010000
00000100
00000000
00010100
00000000
00001000
00100000
,
00001000
01000000
00001000
00000000
01010000
00000000
00100000
10000000
00010000
01000000
00001000
00000000
01001000
00000000
00010000
00000100
,
00001000
00000100
00100000
00000000
00110000
00000000
00010000
10000000
01000000
00010000
01000000
00000000
11000000
00000000
00010000
01000000
,
10000000
01000000
00100000
00000000
11000000
00000000
00010000
00100000
00001000
00010000
00000100
00000000
00010100
00000000
00010000
00000100
,
00001000
00000001
00000100
00000010
00001000
00000000
00000100
00010000
00001000
00010000
00000100
00010000
00001000
00000000
00100000
00001000
,
00010000
00001000
00100000
00010000
00100000
00000000
00010000
10000000
00100000
01000000
00010000
10000000
00010000
00000000
10000000
01000000
,
00010000
00000000
00001000
00000100
00000001
00000000
00000001
00000100
00001000
00000000
00010000
01000000
10000000
00000000
10000000
00100000
,
01000000
00000000
00001000
00010000
00000100
00000000
00001000
00000001
00001000
00000000
00000100
00000000
00010000
00000000
00010000
00000000
,
00220000
00330000
00000000
00000000
;
