#TITLE:Years;
#SUBTITLE:;
#ARTIST:Alesso feat Matthew Koma;
#TITLETRANSLIT:;
#SUBTITLETRANSLIT:;
#ARTISTTRANSLIT:;
#GENRE:;
#CREDIT:;
#MUSIC:Years.ogg;
#BANNER:Years.png;
#BACKGROUND:;
#CDTITLE:;
#SAMPLESTART:32.332;
#SAMPLELENGTH:19.327;
#SELECTABLE:YES;
#OFFSET:-0.223;
#BPMS:0.000=128.000
,177.000=63.990
,209.000=127.980
;
#STOPS:;
#BGCHANGES:;
#FGCHANGES:;

//--------------- dance-single - ----------------
#NOTES:
     dance-single:
     :
     Beginner:
     2:
     0,0,0,0,0:
0000
0000
0000
0000
,
0000
0000
0000
0001
,
0000
0000
0000
0100
,
0000
0000
0000
0000
,
0000
0001
0000
0000
,
0000
1000
0000
0000
,
0000
0001
0000
0000
,
0000
0002
0000
0003
,
0000
1000
0000
0000
,
0000
0001
0000
0000
,
0000
0010
0000
0000
,
0000
0001
0000
0000
,
0000
0200
0000
0300
,
0000
0020
0000
0030
,
0000
2000
0000
3000
,
0000
0002
0000
0003
,
0000
1000
0000
0000
,
0000
0001
0000
0000
,
0000
0020
0000
0030
,
0000
0020
0000
0030
,
0000
0001
0000
0001
,
0000
1000
0000
1000
,
0000
0010
0000
0010
,
0000
0100
0000
0100
,
0000
0001
0000
1000
,
0000
0010
0000
0100
,
0000
0001
0000
1000
,
0000
0010
0000
0000
,
0000
1001
0000
0100
,
0000
0000
0000
0010
,
0000
0000
0000
0002
,
0000
0000
0000
0003
,
0000
0100
0000
0000
,
0001
0000
0000
0000
,
1000
0000
0000
0000
,
0000
0001
0000
0100
,
0000
1001
0000
0001
,
0000
0000
0000
0100
,
0000
0000
0000
2000
,
0000
0000
0000
3000
,
0000
0001
0000
0100
,
0000
0000
0000
0001
,
0000
0000
0000
1000
,
0000
0001
0000
0100
,
0000
1001
0000
1000
,
0000
0001
0000
0100
,
0000
0010
0000
1000
,
0000
0001
0000
0100
,
0000
0001
0000
0100
,
0000
0001
0000
1000
,
0000
0001
0000
1000
,
0000
0010
0000
0100
,
0000
2002
0000
3003
,
0000
0200
0000
0300
,
0000
0002
0000
0003
,
0000
0200
0000
0300
,
0000
0001
0000
0000
,
0000
1000
0000
0000
,
0000
0002
0000
0003
,
0000
0200
0000
0300
;

//--------------- dance-single - ----------------
#NOTES:
     dance-single:
     :
     Easy:
     4:
     0,0,0,0,0,151,147,4,39,0,0,0,0,0,0,0,151,147,4,39,0,0:
0000
0000
0000
0000
,
0000
0000
0000
1000
,
0000
0000
0000
0001
,
0000
0000
0000
0000
,
0000
1000
0000
1000
,
0000
0010
0000
0010
,
0000
0100
0000
0100
,
0000
0001
0000
1000
,
0000
0001
0100
0001
,
1000
0001
1000
0010
,
1000
0001
1000
0001
,
0100
0100
0010
0010
,
1000
0002
0000
0000
,
0000
1003
0000
0010
,
0000
2000
0000
0000
,
0000
3001
0000
0100
,
0000
0010
1000
0001
,
0001
1000
0010
0010
,
0100
0002
0000
1000
,
0000
0100
0000
1003
,
0000
0002
0000
2003
,
0000
3020
0000
0230
,
0000
0302
0000
2003
,
0000
3020
0000
0230
,
0000
0301
1000
0001
,
1000
0010
0100
0010
,
0100
0000
0001
1000
0001
0000
1000
0001
,
1000
0002
0000
0000
,
0003
2000
0000
3020
,
0000
0230
0000
0302
,
0000
2003
0000
3020
,
0000
0130
0000
0001
,
0000
2000
0000
3001
,
0000
0200
0000
0310
,
0000
2000
0000
3001
,
0000
0100
0010
1000
,
1001
2000
0000
0010
,
0000
3002
0000
0100
,
0000
2003
0000
0010
,
0000
3002
0000
0100
,
0000
0023
0000
0100
,
0000
0230
0000
1000
,
0000
2300
0000
0010
,
0000
3001
0001
0001
,
1001
2000
0000
3002
,
0000
0000
0103
0010
1000
0000
0001
0000
,
0000
2000
0000
3002
,
0000
1003
0000
0010
,
0000
0000
0100
0001
0001
1000
0001
0000
,
1000
0010
1000
0001
,
1000
0000
0010
1000
1000
0000
0001
1000
,
0001
0000
0100
0100
0100
0000
0010
0010
,
0010
1001
0000
0000
,
0000
2000
0000
0000
,
3000
0002
0000
0000
,
0003
0200
0000
0000
,
0300
0000
0010
1000
,
0001
0000
0100
0000
0000
0010
0000
0000
,
0000
2000
0000
0000
,
0000
0002
0000
0000
,
3003
2002
0000
0000
,
3003
0000
0000
0000
;

//--------------- dance-single - ----------------
#NOTES:
     dance-single:
     :
     Medium:
     7:
     0,0,0,0,0,242,234,8,29,0,0,0,0,0,0,0,242,234,8,29,0,0:
0000
0000
0000
0000
,
0000
0000
0000
0000
,
0000
0000
0000
1000
,
0000
0001
0000
0000
0000
0000
0000
0000
,
0000
1001
1000
0001
,
0100
0000
0020
0000
0000
1030
0000
0000
,
0000
0001
1000
0001
,
0100
0010
1000
0001
,
1000
0010
0100
0001
,
1000
0000
0002
0000
0000
1003
0000
0000
,
0010
0100
0001
1000
,
0001
1000
1000
0010
,
0100
0002
1000
1003
,
1000
0020
0100
0130
,
0001
2000
0010
0001
,
3010
0200
0001
0010
,
0301
1000
0001
0100
,
0010
0000
1000
0010
1000
0010
0000
0000
,
1000
0001
0200
0000
0000
0000
0320
0000
,
0000
0230
0000
0302
,
0000
0003
1001
0000
0000
1000
0001
0000
,
0000
0001
1000
0000
0000
1000
0010
0000
,
0000
0100
0001
0000
0000
1000
0001
0000
,
0000
0001
1000
0000
0000
1000
0010
0000
,
0000
0100
0001
0000
1000
0000
0010
0000
,
0100
0001
0010
0100
,
1000
0000
0001
1000
0001
1000
0001
1000
,
0001
1000
0002
0000
0000
0000
0000
0000
,
0003
0000
1001
0000
1000
0000
0010
0100
,
0020
0000
1000
0000
0130
0000
1000
0001
,
2000
0000
0010
0000
3001
0000
0100
0010
,
0100
0020
0000
0000
0000
0000
0000
0000
,
0030
0000
2000
0000
0001
0000
3010
0100
,
0010
0100
0000
0000
0000
0000
0001
1000
,
0001
1000
0000
0000
0000
0000
0010
0000
,
1000
0001
1000
0010
,
1001
0020
0000
1000
,
1000
2030
0000
0001
,
0100
3002
0000
1000
,
0100
1003
0001
1000
,
0010
0000
0200
0000
0301
0000
1000
0010
,
1000
0010
0000
0000
0000
0000
0100
0001
,
0100
0001
0000
0000
0000
0000
1000
0001
,
1000
0001
1000
0000
0010
0000
0100
0000
,
1001
0000
2002
0000
0000
0003
3020
0000
,
0000
0000
0130
0001
1000
0000
0002
0000
,
0000
2003
0000
3020
,
0000
2030
0000
3002
,
0000
0000
1003
0001
1000
0010
0100
0001
,
1000
0100
1000
0001
0100
0001
1000
0100
,
0010
0100
1000
0001
0100
0001
1000
0100
,
0010
0001
0100
0010
1000
0001
0100
0001
,
1000
1001
0001
1000
0001
1000
0000
0000
,
0000
0000
0010
1000
0010
1000
0000
0000
,
0000
0000
0001
0100
0001
0100
0000
0000
,
0000
0000
0010
1000
0001
0100
0000
0000
,
0000
0000
0001
1000
0001
0000
1000
0000
,
0010
0000
0100
0001
0100
0001
0000
0000
,
1000
0001
0100
0010
,
1000
0001
1000
0001
,
1000
2002
0000
0000
,
3003
0000
0000
0000
;

//--------------- dance-single - ----------------
#NOTES:
     dance-single:
     :
     Hard:
     9:
     0,0,0,0,0,361,342,19,44,0,0,0,0,0,0,0,361,342,19,44,0,0:
0000
0000
0000
0000
,
0000
0000
0000
0000
0000
0001
1000
0001
,
1000
0001
0000
0100
0000
0010
1000
0010
,
2000
0020
0000
0000
0000
0000
3030
0000
,
0000
0000
1001
0001
1000
0000
0010
0000
,
0100
0010
1000
0010
0100
0010
0000
1000
,
0001
0100
0000
0010
1000
0010
0100
0200
,
0301
0010
0001
0000
0001
0000
1000
0000
,
1000
0000
0010
0100
0010
0000
1000
0000
,
0010
0100
0010
1000
0010
0100
0000
0010
,
1000
0001
0000
0001
0100
0010
2000
0000
,
3001
0100
0010
0000
0010
0000
1000
0000
,
0001
2002
0000
0003
,
0010
0020
0000
0000
3030
0000
1000
0000
,
0001
0010
0200
0000
2300
0000
3002
0000
,
0013
0100
0020
0000
0230
0000
2300
0000
,
3001
0100
0010
1000
0020
0000
1030
0000
,
0010
1000
0010
1000
0010
0200
0000
0000
,
0301
1000
0001
0000
0100
0000
0010
0000
,
1000
0001
0010
0100
,
1000
0000
1001
0000
0000
0001
0100
0000
,
0000
0010
1000
0000
0000
0001
0010
0000
,
0000
0100
1000
0000
0000
0100
0010
0000
,
0000
0001
0010
0000
0000
0100
1000
0000
,
0000
0001
0010
0100
0010
0100
1000
0100
,
1000
0100
1000
0100
0010
0001
0010
0001
,
0100
0010
1000
0010
1000
0010
1000
0001
,
1000
0001
0200
0000
0000
0000
0000
0000
,
0310
0100
0120
0000
0000
0000
1030
0001
,
0100
0020
0000
2030
0000
0000
3001
0100
,
0010
2000
0000
3200
0000
0000
0310
0001
,
0010
0002
1000
0000
0100
0000
1003
0000
,
0010
0000
0200
0000
0301
0000
0100
0010
,
1000
0020
0000
0230
0000
0301
0010
0100
,
1000
0200
0000
0320
0000
0031
0100
0001
,
1000
0010
0100
0100
0001
0001
1000
1000
,
1001
0000
2002
0000
0000
3003
0010
0100
,
0010
0200
0000
0320
0000
1030
0001
0010
,
0100
2000
0000
3200
0000
0310
0001
0100
,
0010
2000
0010
0000
0001
0000
0100
0000
,
3100
0000
2002
0000
3003
0000
1000
0010
,
0100
0002
0000
0023
0000
0030
0100
1000
,
0100
2000
0000
3002
0000
1003
0100
0010
,
0100
1000
0001
0001
0100
0100
0010
0010
,
1010
0000
0000
0000
1001
0000
0000
0000
0000
1000
0001
0100
0010
0000
0000
0000
,
0000
0000
0000
0000
1001
0000
0010
0000
0100
0000
0001
0010
0001
0010
0000
1000
,
0000
0001
0000
0000
1001
0000
0000
0000
0000
1000
0001
0100
0010
0000
0000
0000
,
0000
1001
0000
1010
,
0000
0000
0000
0000
1001
0000
0001
0000
0100
0000
0010
0000
1000
0010
0100
0001
,
0000
0010
0100
0010
0000
0100
1000
0000
0001
0100
0000
0001
2001
0000
0000
0020
,
0000
0000
3030
0000
0101
0000
1000
0000
0001
0000
0100
0010
1000
0010
0100
0001
,
0000
1000
0100
0010
0000
0001
1000
0000
0001
0100
0000
0001
1000
0000
0100
0000
,
0010
1001
1001
0001
0100
0010
0000
1000
,
0010
0100
0001
0010
0001
0100
0000
0001
,
1000
1000
0001
0100
0001
0100
0000
0010
,
1000
0010
0100
0100
0001
0010
0000
0100
,
1000
0000
0000
1000
0100
0000
0010
0000
0001
0000
0100
0000
0010
0000
0000
0000
,
1000
0001
0100
0001
1000
0001
0000
1000
,
0010
0100
0001
0010
0001
1000
0000
0010
,
0100
0010
1000
0001
0010
0001
0000
1000
,
0001
0010
2002
0000
0000
0000
0000
0000
,
3003
0000
0000
0000
;

//--------------- dance-single - ----------------
#NOTES:
     dance-single:
     :
     Challenge:
     12:
     0,0,0,0,0,447,412,35,39,0,8,0,0,0,0,0,447,412,35,39,0,8:
0000
0000
0000
0000
,
0100
0010
0000
0010
0000
1000
0001
0100
,
0010
1000
0000
1000
0000
0001
0100
0010
,
1000
0010
0100
0001
0100
0001
1000
0010
,
1000
0010
1001
0001
0100
0000
0100
0000
,
0010
1000
0010
0100
0010
1000
0000
0001
,
0100
0010
1000
0010
0100
0001
0010
0001
,
0100
0001
1000
0010
0100
0010
1000
0010
,
0100
0001
0010
0001
2000
0000
3020
0000
,
1030
0010
0100
0010
1000
0100
0001
0100
,
1000
0010
0100
0001
0010
0001
1000
0001
,
0100
0010
1000
0010
0100
0001
0010
0001
,
0010
0000
0100
1000
0100
1000
0100
1000
,
0100
1000
0001
1000
0001
1000
0001
1000
,
0001
1000
0001
0100
0001
0100
0001
0100
,
0001
0100
0001
1000
0001
0100
0001
0010
,
0001
0100
0001
0010
0001
0000
0100
0000
,
0010
1000
0010
0100
0010
1000
0000
2000
,
0000
3002
0000
0203
0000
0310
1000
0100
,
0001
0100
1000
0010
0000
0100
0001
0010
,
0001
0100
0101
0000
0010
1000
1010
0000
,
0100
0001
0101
0000
0001
0010
0011
0000
,
0000
0001
1001
0000
1000
0010
0110
0000
,
0001
0100
0101
0000
0000
1000
1010
0000
,
0000
1000
0001
0100
0001
0010
0100
1000
,
0100
0010
0001
0100
0010
1000
0010
0100
,
0001
0000
0010
0000
0001
0100
0001
0100
0010
1000
0010
1000
0001
0100
0010
1000
,
0100
0010
0100
1000
0002
0000
0000
0000
0000
0000
0000
0000
0003
0000
0000
0000
,
1001
1000
1010
0000
1000
0000
0001
0100
,
0001
0020
0000
0230
0000
1300
0001
0100
,
0001
2000
0000
3020
0000
1030
0001
0100
,
0001
2000
0000
0010
0000
0001
0000
0100
,
0000
3010
2000
0000
3002
0000
1003
0010
,
0100
0002
0000
0203
0000
0310
1000
0100
,
0010
0200
0000
2300
0000
3001
0100
0010
,
1000
0010
1010
0010
0110
0100
0101
0001
,
1001
0000
0000
0000
1000
0001
1000
0001
1000
0000
0000
0000
0001
0000
0100
0000
,
0010
2000
0000
3020
0000
0130
0001
0010
,
0001
0200
0000
0320
0000
1030
0001
0100
,
0001
0010
0000
0001
0020
0100
0030
1000
,
0002
1000
2003
0000
3020
0000
0130
0001
,
1000
0020
0000
0230
0000
0301
1000
0100
,
0001
0200
0000
2300
0000
3001
0100
0010
,
1000
0001
1001
1000
1100
0100
0110
0010
,
0011
0000
0000
0000
2200
0000
0000
0000
0000
0010
0001
0010
3301
0000
0000
0000
,
0000
0000
0000
0000
1000
0000
0100
0000
0010
0000
0001
1000
0010
0100
0000
0001
,
0000
1000
0000
0001
0202
0000
0000
0000
0000
0010
1000
0010
1303
0000
0000
0000
,
0000
2002
3003
0022
,
0033
0000
0000
0000
1001
0000
1000
0000
0001
0000
0100
0000
0010
1000
0010
0100
,
0000
0001
0010
0001
1001
1000
0010
0000
0001
1000
0000
0001
1001
0000
0010
0000
,
1000
0000
0000
0000
1000
0000
0000
0001
1000
0000
0000
0000
1000
0000
0000
0000
0001
0000
0000
0000
0100
0000
0010
0000
1000
0000
0100
0000
0010
0000
0100
0000
,
0000
1000
0001
1000
0000
0010
0100
0000
0001
0100
0000
0001
1001
0000
1000
0000
,
0010
1001
1001
0001
0100
0010
0000
1000
,
1010
0000
1000
0001
0100
0001
0000
0001
,
1001
1000
0001
0100
0010
1000
0000
0001
,
1001
0000
1000
0010
0100
0001
0000
1000
,
1001
0000
0000
0001
1000
0000
0010
0000
1000
0000
0001
0000
0100
0000
0000
0000
,
0010
1000
0010
0100
0010
1000
0000
0001
,
0100
0001
1000
0010
0100
0001
0000
1000
,
1010
0010
0100
0001
0010
0001
0000
0100
,
0001
1000
2002
0000
0000
0000
0000
0000
,
3003
0000
0000
0000
;
