#TITLE:World Coming Down;
#SUBTITLE:;
#ARTIST:Ashbury Heights;
#TITLETRANSLIT:;
#SUBTITLETRANSLIT:;
#ARTISTTRANSLIT:;
#GENRE:;
#CREDIT:;
#MUSIC:World Coming Down.ogg;
#BANNER:ban.png;
#BACKGROUND:bg.png;
#CDTITLE:;
#SAMPLESTART:0.000;
#SAMPLELENGTH:0.000;
#SELECTABLE:YES;
#OFFSET:-0.290;
#BPMS:0.000=222.000
,80.000=111.000
,120.000=222.000
,184.000=111.000
,224.000=222.000
;
#STOPS:;
#BGCHANGES:;
#FGCHANGES:;

//--------------- dance-single - ----------------
#NOTES:
     dance-single:
     :
     Beginner:
     3:
     0,0,0,0,0:
0000
0000
0000
0000
,
0000
0000
0000
0000
,
0000
0000
0000
0000
,
0000
0000
0000
0000
,
0001
0000
0000
0000
,
1000
0000
0000
0000
,
0001
0000
0000
0000
,
0100
0000
0000
0000
,
0010
0000
0000
0000
,
1000
0000
0000
0000
,
0001
0000
0000
0000
,
0100
0000
0000
0000
,
0010
0000
0000
0000
,
0010
0000
0000
0000
,
1000
0000
0001
0000
,
1000
0000
0000
0000
,
0010
0000
0010
0000
,
0010
0000
0000
0000
,
0100
0000
0100
0000
,
0100
0000
0000
0000
,
1001
0000
0000
0000
,
0000
0000
0000
0000
,
0001
0000
0000
0000
,
0100
0000
0000
0000
,
0010
0010
0010
0000
,
1000
1000
1000
0000
,
0010
0010
0010
0000
,
0100
0100
0100
0000
,
1001
0000
0000
0000
,
0000
0000
0000
0000
,
1000
0000
0001
0000
,
0100
0000
0010
0000
,
1000
0000
0001
0000
,
0010
0000
1000
0000
,
0010
0000
0000
0000
,
0001
0000
0000
0000
,
0100
0000
0010
0000
,
1000
0000
0000
0000
,
0001
0000
1000
0000
,
0001
0000
0100
0000
,
0001
0000
0010
0000
,
0001
0000
1000
0000
,
0001
0000
0000
0000
,
1000
0000
0000
0000
,
0010
0000
0100
0000
,
0001
0000
0000
0000
,
1001
0000
0100
0000
,
0010
0000
1000
0000
,
0001
0000
0100
0000
,
0010
0000
1000
0000
,
0001
0000
1000
0000
,
0001
0000
0100
0000
,
0010
0000
1000
0000
,
0001
0000
1000
0000
,
1001
0000
0000
0000
,
0000
0000
0000
0000
,
0001
0000
1000
0000
,
0001
0000
1000
0000
,
0001
0000
0010
0000
,
0100
0000
0010
0000
,
0001
0000
0000
0000
,
0100
0000
0000
0000
,
0010
0000
1000
0000
,
0001
0000
0000
0000
,
1000
0000
0010
0000
,
1000
0000
0100
0000
,
0010
0000
0100
0000
,
0010
0000
0001
0000
,
0100
0000
0000
0000
,
0010
0000
0000
0000
,
1000
0000
0001
0000
,
1000
0000
0000
0000
,
1001
0000
0000
0000
;

//--------------- dance-single - ----------------
#NOTES:
     dance-single:
     :
     Easy:
     8:
     0,0,0,0,0:
0000
0000
0000
0000
,
0000
0000
0000
0000
,
0000
0000
0000
0000
,
0000
0000
0000
0000
,
1000
0001
1000
0010
,
0100
0001
0010
0001
,
0100
0010
0100
0010
,
0100
0001
1000
0100
,
1000
0001
0100
0010
,
0100
0001
1000
0100
,
0010
0001
0010
0001
,
0100
0010
0100
0010
,
1000
0001
1000
0010
,
1000
0001
0100
0100
,
0010
1000
0100
1000
,
0001
0100
0010
0010
,
1000
0100
1000
0001
,
0100
0010
1000
0100
,
0010
0001
0100
0010
,
1000
0100
1000
0001
,
1000
0010
1000
0000
0010
0000
0000
0000
,
0000
0000
0000
0000
,
1000
0001
0100
0010
,
0100
0000
0000
0000
,
0001
1000
0001
0000
0100
0010
0100
0000
,
0001
1000
0010
0000
0100
0001
0010
0000
,
0100
1000
0010
0000
0100
0001
0010
0000
,
0100
1000
0010
0000
0100
0001
0100
0000
,
1010
0000
0000
0000
,
1000
0000
0000
0001
,
1000
0010
1000
0010
,
0100
0001
0010
0001
,
0100
0010
0100
0001
,
1000
0100
0001
0100
,
1000
0010
0001
0010
,
1000
0100
0010
0100
,
1000
1000
0001
0001
,
0100
0010
1000
0100
,
1000
0010
1000
0100
,
1000
0001
0010
0001
,
0100
0010
0100
0010
,
1000
0100
1000
0100
,
0010
0001
0010
0001
,
0100
0010
0100
0010
,
1000
0100
1000
0001
,
0100
0010
1000
0100
,
1000
0001
1000
0001
1000
0000
0000
0000
,
0001
0100
0001
0100
0010
0000
0000
0000
,
1000
0100
1000
0010
0100
0000
0000
0000
,
0001
1000
0010
1000
0001
0000
0000
0000
,
0100
0010
0100
0001
1000
0000
0000
0000
,
0001
0100
0001
0100
0010
0000
0000
0000
,
1000
0001
1000
0010
0100
0000
0000
0000
,
0001
1000
0010
1000
0010
1000
0100
1000
,
0010
0000
0000
0000
,
1000
0000
0000
1000
,
1001
0100
0100
0100
,
0010
1000
0100
1000
,
0010
0100
0001
0010
,
0001
0100
0010
1000
,
0001
0010
0100
1000
,
0001
0100
0010
1000
,
0100
0001
0100
1000
,
0010
0100
0001
0100
,
0010
1000
0100
0010
,
0100
1000
0010
0100
,
0001
0100
0010
0100
,
0001
1000
0010
1000
,
0100
1000
0001
0010
,
0001
0100
0001
0010
,
0001
0100
0010
0100
,
0001
0100
0001
0001
,
0220
0000
0330
0000
;

//--------------- dance-single - ----------------
#NOTES:
     dance-single:
     :
     Medium:
     12:
     0,0,0,0,0:
0000
0000
0000
0000
,
0000
0000
0000
0000
,
0000
0000
0000
0000
,
0000
0000
0000
0000
,
1000
1100
0100
0110
,
0010
0000
0001
1000
0000
0001
1000
0000
,
0010
1010
1000
1001
,
0001
0000
0100
0010
0000
0100
0010
0000
,
1000
1001
0001
0101
,
0100
0000
0010
1000
0000
0010
1000
0000
,
0001
0101
0100
0110
,
0010
0000
1000
0010
0000
1000
0010
0000
,
0100
0000
0001
0000
0100
0010
0000
2000
,
0000
3200
0000
0300
0020
0000
0032
0000
,
0203
0000
0302
0000
1003
0001
1000
0001
,
0000
0020
0000
0000
0130
0000
0010
0000
,
0002
0000
2003
0000
3001
0100
0001
0100
,
0000
0020
0000
0000
2030
0000
3002
0000
,
0203
0000
0320
0000
1030
0100
1000
0001
,
0000
2000
0000
0000
3001
0000
1000
0000
,
1001
0001
0100
0000
0010
0000
1000
0000
,
0001
0000
0000
0000
,
1000
0001
1000
0000
0000
0000
0000
0000
0010
0000
0000
0000
0100
0000
0000
0000
,
0001
0000
0000
0000
,
1000
0001
0000
0000
1000
0001
0000
0000
1000
0010
0000
0000
0110
0000
0000
0000
,
0100
0001
0000
0000
0100
0010
0000
0000
1000
0001
0000
0000
1001
0000
0000
0000
,
0100
0010
0000
0000
0100
1000
0000
0000
0100
0010
0000
0000
1100
0000
0000
0000
,
0010
0001
0000
0000
0100
0010
0000
0000
1000
0001
0000
0000
1001
0000
0000
0000
,
0101
0000
0100
0000
0010
0000
0000
1000
0000
0001
0000
0000
0100
0000
0010
0000
,
1000
0000
0100
0000
1000
0000
0000
0001
0000
0100
0000
0000
0010
0000
1000
0000
,
0001
2001
0010
3100
,
1000
0001
0000
2000
0000
0000
3010
0100
,
0010
0000
1000
0001
1000
0000
0010
0100
,
0010
0000
1000
0100
0010
0000
0001
0100
,
0010
0000
1010
0000
1000
0000
0001
0100
,
0010
1010
1000
1001
,
0001
0101
0100
1010
,
1000
0000
0100
0010
0000
0001
0100
0000
,
0010
2000
0100
3010
,
0100
0001
0100
0010
1000
0000
0001
1000
,
0010
0000
1000
0100
1000
0000
0001
0010
,
0001
0000
1000
0001
0100
0000
0010
1000
,
0010
0000
1010
0000
1000
0000
0001
0100
,
0010
1000
0100
0020
,
0031
0000
0101
0000
0100
0000
0010
1000
,
0010
0000
0100
0001
0000
0100
0010
0000
,
1000
0100
0010
0001
0100
0000
1010
0000
,
1000
0001
0100
0010
1000
0000
1001
0000
,
0001
0010
0100
1000
0100
0000
0011
0000
,
0100
1000
0010
0100
0001
1000
1001
0000
,
0001
0100
0010
0100
0001
0000
0101
0000
,
0010
1000
0100
1000
0010
0000
0110
0000
,
0100
0001
0010
0001
0100
0010
1010
1000
,
0001
0000
0001
0000
0100
0000
0100
0000
0010
0000
0010
0000
0100
0001
0100
0001
,
0100
0000
0010
0000
1000
0000
1000
0001
0000
0100
0000
0000
0010
0000
1000
0000
,
0100
0000
1000
0000
0001
0000
1000
0010
0000
0100
0000
0000
0001
0000
1000
0000
,
0001
0101
0100
0110
,
0010
1000
0010
1000
0010
0000
0100
0001
,
1000
0000
0001
0010
0001
0000
1000
0100
,
1000
0000
0001
0100
0001
0000
1000
0100
,
1000
0000
1001
0000
0001
0000
0100
0010
,
1000
0000
0001
0100
0000
0010
1000
0000
,
0001
0101
0010
1001
,
1000
0000
0001
0100
0000
0001
0100
0000
,
0010
2000
3002
0103
,
0010
1000
0010
0000
0100
0001
0100
0000
,
0010
1000
0010
0000
1000
0100
1000
0000
,
0001
0010
0001
0000
0100
0000
0110
0000
,
0010
0000
1010
0000
1000
0000
0001
0100
,
0010
0000
1000
0100
0000
1000
0001
0000
,
0100
0000
0110
0000
0001
0000
1000
0010
,
0100
0000
0001
0010
0000
0100
0010
0000
,
2002
3003
0000
0000
;

//--------------- dance-single - ----------------
#NOTES:
     dance-single:
     :
     Hard:
     14:
     0,0,0,0,0:
0000
0000
0000
0000
,
0000
0000
0000
0000
,
0000
0000
0000
0000
,
0000
0000
0000
0000
,
1000
1100
0100
0110
,
0010
0000
0001
1000
0000
1000
0010
0000
,
0100
0101
0001
1001
,
1000
0000
0010
1000
0000
1000
0010
0000
,
0100
0001
0010
0001
0100
0010
0100
0001
,
1000
0000
0001
1000
0000
1000
0001
0000
,
1000
0100
1000
0010
0100
0001
0010
0001
,
0100
0000
0010
1000
0000
1000
0010
0000
,
2000
0000
3002
0000
1003
0100
1000
0010
,
0000
1000
0001
0100
0001
0010
0001
1000
,
0002
0000
0203
0000
0310
1000
0100
1000
,
0000
0001
0100
0010
1000
0010
0100
0001
,
1000
0000
1100
0000
0100
0010
0001
0010
,
0001
1000
0010
0100
0001
0010
0001
1000
,
0001
0000
1001
0000
1000
0100
1000
0010
,
0100
0001
0010
0001
1000
0010
0100
0001
,
1000
0100
1000
0000
0010
1000
0000
0010
0100
0000
0001
1000
0010
0100
0001
1000
,
0000
0000
0000
0000
0001
0000
1000
0020
0000
0000
1030
0000
0001
1000
0000
0010
,
0100
0001
0100
0010
1000
0100
1000
0000
0010
0000
0100
0001
0100
0010
1000
0000
,
0000
0000
0001
1000
0000
0000
0010
1000
0000
0000
0010
0100
0000
0000
0000
0000
,
0001
1000
0000
0000
1000
0010
0000
0000
0010
0100
0000
0000
1010
0000
0010
0000
,
1000
0010
1000
0000
0001
0100
0001
0000
0100
0010
0100
0000
0101
0000
0001
0000
,
1000
0010
1000
0000
0001
0100
0001
0000
1000
0010
0000
0000
0110
0000
0000
0000
,
0100
0001
0010
0000
0100
1000
0010
0000
0100
0001
0000
0000
0101
0000
0000
0000
,
0100
0001
1000
0000
0010
0100
0001
0100
0000
0010
0000
0000
1000
0000
0100
0000
,
0010
0000
0001
0000
0100
0010
0100
0001
0000
1000
0000
0100
1000
0001
1000
0001
,
1000
0100
1000
0100
0010
0001
0010
0001
,
1000
0100
1000
0000
0001
0010
0100
1000
,
0100
0010
0001
0100
0010
1000
1001
0000
,
1000
0010
0100
0001
1000
0100
0001
0100
,
1000
0001
0100
0001
0010
1000
0010
0001
,
0100
0010
1000
0100
0010
0001
0101
0000
,
0100
0000
0110
0000
0010
0000
1000
0100
,
0002
0000
0103
1000
0000
0010
1000
0000
,
0001
0100
0001
0100
0010
1000
0010
1000
,
0001
0100
0010
1000
0100
0010
0200
0000
,
1300
0000
0010
0100
0001
0100
0010
1000
,
0010
0100
0001
1000
0100
0001
0100
0010
,
0100
1000
0001
1000
0100
0001
0100
1000
,
0010
0100
0001
0010
0001
1000
0100
0010
,
0001
0000
0101
0000
0100
0000
0010
1000
,
0100
0000
0010
0001
0000
0100
0010
0000
,
1000
0001
1000
0100
1000
0010
0100
0001
1000
0000
0010
0000
1010
0000
0100
0000
,
0001
0010
0001
0100
0010
0100
0001
1000
0001
0000
0100
0000
1010
0000
0000
0000
,
0100
0001
0010
0001
0100
0010
1000
0100
0010
0000
0000
0000
0011
0000
0000
0000
,
0001
0100
0010
0100
0001
0100
0010
0100
0001
0000
0000
0000
1010
0000
0010
0000
,
1000
0100
1000
0010
1000
0001
0010
0001
1000
0000
0010
0000
0110
0000
0100
0000
,
0001
0010
0001
0100
0010
1000
0001
0100
0010
0000
1000
0001
0100
0000
0010
0000
,
1000
0100
1000
0100
0010
0100
1000
0010
0100
0000
0001
0000
0101
0000
0100
0000
,
0010
1000
0010
1000
0100
1000
0001
0100
0001
0100
0010
1000
0100
0010
0001
0100
,
0010
0000
1000
0000
0001
0100
0010
0100
0000
0001
0100
0000
0010
0000
1000
0000
,
0100
0000
1000
0000
0001
0100
0010
0100
0000
0001
1000
0000
0001
0100
0001
0100
,
0010
1000
0100
1000
0010
0100
0001
0100
,
0010
1000
0100
0010
0001
1000
0100
0010
,
0001
0000
1000
0001
0100
0001
0100
0010
,
1000
0000
0001
0100
0010
1000
0100
0001
,
0100
1000
0010
0000
0010
0000
1000
0001
,
0100
1000
0100
0001
0010
0001
0101
0000
,
0100
0000
0110
0000
0010
1000
0100
1000
,
0001
0000
1000
0100
0000
0010
0001
0000
,
1000
0100
1000
0100
0001
0100
0001
0100
,
1000
0010
1000
0010
0001
0010
0001
0010
,
1000
0100
0010
0001
0100
0000
0010
1000
,
0010
0000
0100
0001
1000
0010
0001
0010
,
0100
0010
1000
0000
0001
0010
0001
0010
,
1000
0010
1000
0010
0001
0000
0101
0000
,
0100
0000
0110
0000
0010
0000
1000
0100
,
0000
0010
0001
0000
0100
0000
0001
0000
,
2002
0000
3003
0000
;

//--------------- dance-single - ----------------
#NOTES:
     dance-single:
     :
     Challenge:
     16:
     0,0,0,0,0:
0000
0000
0000
0000
,
0000
0000
0000
0000
,
0000
0000
0000
0000
,
0000
0000
0000
0000
,
1000
0100
1000
0010
0100
0001
0010
0001
,
1000
0001
1000
0100
0001
0100
0010
0100
,
1000
0010
0100
0001
1000
0100
0010
0001
,
1000
0001
1000
0100
0001
0100
0010
0100
,
1000
0010
1000
0100
1000
0010
0100
0010
,
1000
0001
1000
0100
0001
0100
1000
0010
,
0100
0001
0100
0010
0100
0001
0100
0010
,
1000
0001
1000
0010
0001
0010
0100
0010
,
1000
0100
1000
0010
0100
0100
0001
0001
,
0000
1000
0100
1000
0001
0100
0001
0100
,
0010
1000
0001
0010
0100
1000
0010
0100
,
0000
0001
1000
0001
1000
0100
0001
0100
,
1000
0010
1000
0100
1000
0001
1000
0010
,
0000
0100
0001
0100
0001
0010
0001
0100
,
0010
0100
0001
1000
0100
0001
0100
1000
,
0000
0001
0100
0010
1000
0100
1000
0010
,
1010
1000
0001
0100
0010
1000
0001
0100
0010
0000
1000
0100
1000
0001
0100
0010
,
1000
0000
0000
0000
0001
0000
1000
0010
0000
0000
1000
0000
0001
0100
0000
0000
,
0010
1000
0010
0100
0001
0100
0010
1000
0100
0000
1000
0001
1000
0010
0100
0001
,
0100
0000
0001
0010
0000
0000
0100
0010
0000
0000
0001
0100
0000
0000
0001
0100
,
0001
0001
0100
0010
0100
0100
0001
0000
1000
1000
0010
0000
0101
0000
0001
1000
,
0010
0100
0001
0000
1010
0010
0100
0000
0001
0100
0010
0000
1010
0000
0010
0000
,
0100
0001
0100
0010
1000
0100
0010
0001
0100
0010
0000
0000
1010
1000
0000
0001
,
0100
0010
1000
0100
1100
1000
0000
0010
0100
0100
0000
0001
1001
0000
1000
0000
,
1001
0000
0001
0000
0100
0010
1000
0100
0000
1000
0010
0001
0010
0000
0100
0001
,
0100
0000
0010
0000
0100
0001
0100
0010
0000
0100
0001
0100
0100
0010
1000
0000
,
1010
0010
1000
0100
1000
0010
1000
0001
,
0010
0100
1000
0010
0100
0001
0100
0010
,
0100
1000
0100
0010
0001
0100
0001
0001
,
1000
0100
0010
0010
0001
1000
0001
0100
,
1000
0100
0001
1000
0001
1000
0001
0100
,
1000
0100
0001
0010
0100
1000
0010
0000
,
1000
0001
1001
0000
1000
0010
1000
0010
,
0100
0001
0100
0100
0010
0100
0100
0001
,
1000
0010
0100
0001
1000
0100
0010
0001
,
1000
0010
0100
0001
0100
1000
0100
0010
,
0100
1000
0100
0100
0001
0100
0001
0001
,
1000
0001
0100
0010
1000
0100
0001
0100
,
1000
0001
1000
0001
1000
0100
0001
0100
,
1000
0010
0100
0001
0100
0010
1000
0100
,
1000
0001
1000
0100
1000
0010
0100
0001
,
0100
0000
0101
0100
0000
0100
0010
0000
,
1010
0010
1000
0100
1000
0001
1000
0100
1000
0010
0100
0001
1000
0010
0100
0010
,
1000
0100
1000
0010
1000
0100
0010
0001
1000
0010
0100
0001
1000
0100
0010
0001
,
1000
0010
1000
0010
0100
0001
0100
0010
1000
0100
1000
0010
0100
0001
0010
0001
,
1000
0100
1000
0100
0010
0001
0100
0010
1000
0001
1000
0100
1000
0010
0100
0001
,
1000
0010
0100
0001
0100
0010
0100
0100
0001
0100
0010
1000
1010
0000
1000
0001
,
1000
0100
1000
0010
1000
0100
0010
0001
1000
0000
0001
1000
1001
0000
0001
0000
,
1000
0100
0010
0001
1000
0010
0100
0001
1000
0100
0010
0001
0100
0010
1000
0001
,
1000
0100
1000
0010
1000
0100
0010
0001
0100
0010
0100
0001
0010
0001
0100
0010
,
1010
0000
0100
0000
0001
0100
0010
1000
0000
0001
0100
0010
1000
0100
0010
0100
,
1000
0001
0100
0000
0010
1000
0010
1000
0000
0001
0100
0010
1000
0001
1000
0010
,
1010
1000
0010
0100
0001
0100
0010
1000
,
0100
0001
0100
0010
0100
0001
0100
1000
,
0100
0010
0100
0100
1000
0010
0100
0100
,
0001
1000
0001
0100
1000
0100
0010
1000
,
0001
0010
0100
1000
0001
0100
1000
0100
,
0010
1000
0001
0100
0010
1000
1010
0000
,
0010
0100
0001
0100
0001
0100
0010
0100
,
0010
0000
1000
0001
0000
1000
0010
0000
,
1000
0100
1000
0100
0001
0100
0001
0100
,
1000
0010
1000
0100
0001
0100
0001
0100
,
1000
0001
0100
0100
0010
1000
0001
0001
,
1000
0001
0010
1000
0001
0100
1000
0001
,
0100
0010
1000
0001
1000
0010
0001
0010
,
1000
0001
0100
0010
1000
0100
1100
0000
,
0010
0001
0100
0010
1000
0100
1000
0001
,
1000
0010
0100
0001
0010
0001
1000
0000
,
2002
0000
3003
0000
;

//--------------- dance-double - ----------------
#NOTES:
     dance-double:
     :
     Hard:
     16:
     0,0,0,0,0:
00000000
00000000
00000000
00000000
,
00000000
00000000
00000000
00000000
,
00000000
00000000
00000000
00000000
,
00000000
00000000
00000000
00000000
,
00010000
00001000
01000000
00100000
10000000
01000000
00100000
00001000
,
00010000
00000100
00100000
00001000
00010000
00000100
00010000
00000000
,
00000010
00000100
00000001
00000100
00000010
00010000
00001000
00010000
,
00000010
00001000
00000100
00010000
00000010
00001000
00000100
00000000
,
00010000
00001000
01000000
00100000
01000000
00001000
00010000
00001000
,
00010000
00000100
00001000
00000010
00000100
00000001
00000010
00000000
,
00000001
00000100
00000010
00010000
00001000
00100000
00010000
01000000
,
00100000
10000000
01000000
10000000
00100000
01000000
00001000
00000000
,
10000000
01000000
00010000
01000000
00100000
00001000
00010000
00000100
,
00001000
00000010
00000100
00000001
00000010
00000100
00010000
00001000
,
01000000
00100000
10000000
01000000
00100000
00001000
00100000
00001000
,
00010000
00000100
00010000
00001000
01000000
00100000
10000000
00010000
,
10000000
00100000
01000000
00001000
00010000
00001000
01000000
00010000
,
00100000
00001000
00010000
00000100
00010000
00001000
00010000
00000100
,
00001000
00000001
00001000
00000001
00000100
00000010
00000100
00000010
,
00001000
00000100
00010000
00001000
00100000
00010000
10000000
00010000
,
10010000
10000000
00100000
00000000
01000000
00010000
01000000
00100000
10000000
00000000
00100000
10000000
00100000
01000000
00010000
00100000
,
00000000
00000000
00000000
00000000
00001000
00000000
00010000
00001000
00000000
00000000
00010000
00000000
00001000
00010000
00000000
00001000
,
00010000
00000100
00001000
00000010
00000100
00000001
00000010
00000001
00000010
00000000
00000100
00010000
00001000
00100000
00001000
00010000
,
00000100
00000000
00010000
00001000
00000000
00000000
00100000
00010000
00000000
00000000
01000000
00100000
00000000
00000000
10000000
01000000
,
10000000
00100000
01000000
00001000
01000000
00010000
00100000
00001000
00010000
00001000
00100000
00001000
00011000
00000000
00010000
00010000
,
00001000
00010000
00000100
00001000
00000010
00000100
00000001
00000100
00000010
00001000
00000100
00001000
00001010
00000000
00000010
00000000
,
00001000
00000100
00001000
00000100
00001000
00000100
00010000
00001000
00010000
00001000
00010000
00000100
00001000
00000100
00001000
00000010
,
00000100
00000001
00000100
00000010
00001000
00000100
00010000
00001000
00100000
00010000
01000000
00100000
10100000
00000000
10000000
00100000
,
10000000
00000000
01000000
00000000
00100000
01000000
00100000
01000000
00000000
10000000
01000000
00000000
00100000
00000000
00001000
00000000
,
00010000
00000000
00000100
00000000
00001000
00000010
00001000
00000010
00000000
00000100
00000001
00000100
00000010
00000100
00000001
00000100
,
00000001
00000101
00000110
00000101
,
00000001
00000010
00001000
00010000
00100000
10000000
00100000
00010000
,
00001000
00000010
00000001
00001000
00000001
00001000
00000010
00010000
,
00000010
00010000
00001000
00100000
00001000
00100000
00010000
10000000
,
01000000
10000000
00100000
01000000
00010000
01000000
00100000
10000000
,
01000000
00100000
00001000
00100000
01000000
10000000
10100000
00000000
,
01100000
00000000
01010000
00000000
00011000
00000000
00010000
00000100
,
00001000
00000000
00000001
00001000
00000001
00001000
00000001
00000000
,
00001000
00011000
00001100
00001001
,
00000001
00000100
00001000
00010000
01000000
10000000
01000000
00010000
,
00001000
00000100
00000001
00000010
00000001
00000100
00000010
00001000
,
00000100
00010000
00001000
00100000
00010000
01000000
00100000
10000000
,
00100000
10000000
01000000
00100000
00001000
00010000
00001000
00100000
,
00001000
00100000
00001000
00010000
00001000
00100000
00110000
00000000
,
10010000
00000000
11000000
00000000
10010000
00000000
10000000
00010000
,
01000000
00000000
00100000
10000000
01000000
10000000
00010000
00000000
,
00110000
00100000
00001000
00010000
00000100
00001000
00000001
00000100
00000010
00001000
00000010
00001000
00000100
00010000
00000100
00010000
,
00001000
01000000
00100000
10000000
00010000
01000000
00001000
00010000
00000100
00001000
00000100
00001000
00000001
00000010
00000001
00000100
,
00000010
00001000
00000100
00010000
00001000
00100000
00010000
01000000
00100000
10000000
01000000
10000000
00010000
10000000
01000000
10000000
,
00010000
00100000
00001000
00010000
00000010
00000100
00000001
00000100
00000010
00001000
00000010
00001000
00000010
00000100
00000001
00000010
,
00000001
00001000
00000100
00010000
00001000
00010000
00000010
00000100
00000001
00001000
00000100
00001000
00000001
00000010
00000001
00001000
,
00000100
00010000
00001000
00100000
00001000
00100000
00010000
00100000
00001000
00010000
00000100
00001000
00000010
00010000
00001000
00100000
,
00010000
01000000
00100000
10000000
01000000
10000000
00010000
00100000
00001000
00010000
00001000
00010000
00000100
00001000
00000010
00001000
,
00000100
00010000
00000100
00001000
00000010
00000100
00000001
00001000
00000100
00010000
00001000
00100000
00010000
01000000
00001000
00010000
,
00011000
00000000
00001000
00000000
01000000
00100000
01000000
00010000
00000000
00100000
00010000
00000000
00100000
00000000
00001000
00000000
,
00010000
00000000
00000010
00000000
00000100
00000001
00001000
00000100
00000000
00010000
00001000
00100000
00010000
01000000
00100000
10000000
,
10100000
00000000
10000000
01000000
00100000
00001000
00010000
00000100
,
00000010
00000001
00000010
00000100
00010000
00001000
00100000
01000000
,
10000000
00010000
01000000
00100000
01000000
00100000
10000000
00010000
,
10000000
00010000
01000000
00100000
01000000
00100000
01000000
00001000
,
00010000
00000010
00000100
00000010
00001000
00000010
00000100
00000001
,
00000010
00000100
00010000
00001000
00010000
00000100
00000010
00000001
,
00000011
00000000
00001100
00000000
00011000
00000000
00001000
00100000
,
00010000
00000000
10000000
01000000
10000000
00100000
10000000
00000000
,
00010000
01000000
00100000
10000000
00100000
01000000
00001000
00010000
,
00001000
00100000
00001000
01000000
00100000
10000000
01000000
00100000
,
00001000
00010000
00000100
00000010
00000001
00000010
00001000
00000010
,
00000001
00000100
00000010
00010000
00001000
00100000
10000000
00100000
,
00010000
01000000
00100000
10000000
00010000
01000000
10000000
01000000
,
00100000
10000000
00010000
00100000
00010000
00100000
00101000
00000000
,
00011000
00000000
00010100
00000000
00001100
00000000
00001000
00000010
,
00000100
00000010
00001000
00000010
00000100
00000010
00001000
00000100
,
00010000
00000000
00000000
00000000
;
