#TITLE:Winter;
#SUBTITLE:;
#ARTIST:Emoticon;
#TITLETRANSLIT:;
#SUBTITLETRANSLIT:;
#ARTISTTRANSLIT:;
#GENRE:Happy Hardcore;
#CREDIT:;
#MUSIC:winter.ogg;
#BANNER:winter.png;
#BACKGROUND:;
#CDTITLE:;
#SAMPLESTART:31.519;
#SAMPLELENGTH:10.303;
#SELECTABLE:YES;
#OFFSET:-0.005;
#BPMS:0.000=190.000;
#STOPS:;
#BGCHANGES:;
#FGCHANGES:;

//--------------- dance-single - ----------------
#NOTES:
     dance-single:
     :
     Beginner:
     4:
     0,0,0,0,0:
0000
0000
0000
0000
,
1001
0000
0000
0000
,
1000
0000
0000
0000
,
0001
0000
0000
0000
,
0100
0000
0010
0000
,
1001
0000
0000
0000
,
1000
0000
0000
0000
,
0001
0000
0000
0000
,
0100
0000
0010
0000
,
1001
0000
1000
1000
,
1000
0000
0001
0000
,
0000
0000
0100
0100
,
0000
0000
0010
0000
,
0000
0000
1000
1000
,
1000
0000
0000
0000
,
0000
0000
0001
0001
,
0001
0000
0000
0000
,
1001
0000
0000
0000
,
1000
0000
0001
0000
,
1000
0000
0000
0000
,
0010
0000
0100
0000
,
0001
0000
1000
0000
,
0100
0000
0010
0000
,
0001
0000
0100
0000
,
0010
0000
1000
0000
,
1001
0000
0001
0000
,
0100
0000
0010
0000
,
1000
0000
0100
0000
,
0010
0010
0010
0000
,
0100
0000
0001
0000
,
1000
0000
0100
0000
,
0010
0000
0001
0000
,
1000
0000
0001
0000
,
1001
0000
0001
0001
,
0001
0000
1000
0000
,
0000
0000
0100
0100
,
0100
0000
0000
0000
,
0000
0000
0010
0010
,
0010
0000
0000
0000
,
0000
0000
0100
0100
,
0100
0000
0000
0000
,
1001
0000
0000
0000
,
0001
0000
0000
0000
,
1000
0000
0000
0000
,
0010
0000
0000
0000
,
0100
0000
0000
0000
,
0001
0000
0000
0000
,
0100
0000
0000
0000
,
0001
0000
0000
0000
,
1001
0000
1000
0000
,
0001
0000
0100
0000
,
0010
0000
1000
0000
,
0100
0000
0010
0000
,
1001
0000
0100
0000
,
0010
0000
1000
0000
,
0001
0000
0100
0000
,
0001
0000
1000
0000
,
1001
0000
0001
0000
,
0110
0000
0010
0000
,
1001
0000
0100
0000
,
1001
0000
1001
0000
,
1001
0000
0100
0000
,
1001
0000
0010
0000
,
0110
0000
0100
0000
,
1001
0000
1001
0000
,
0110
0000
0000
0000
,
0100
0000
0000
0000
,
0001
0000
0000
0000
,
1000
0000
0001
0000
,
1001
0000
0001
0000
,
0100
0000
0010
0000
,
1000
0000
0100
0000
,
0010
0000
0001
0000
,
1001
0000
0000
0000
;

//--------------- dance-single - ----------------
#NOTES:
     dance-single:
     :
     Easy:
     7:
     0,0,0,0,0:
0000
0000
0000
0000
,
1001
0000
0001
0000
,
1000
0000
0010
0000
,
0100
0000
0001
0000
,
1000
0001
0100
0010
,
2002
3003
1000
0000
,
0001
0000
0100
0000
,
0010
0000
1000
0000
,
0100
0010
0001
1000
,
2002
3003
0001
1000
,
0010
0100
0001
0100
,
0000
0010
0000
0000
1000
0000
0001
0000
,
1000
0000
0000
0100
0000
0000
0010
0000
,
0000
0001
0000
0000
0100
0000
0100
0000
,
0010
1000
0100
1000
,
0000
0001
0000
0000
0100
0000
0100
0000
,
0010
1000
0001
1000
,
1001
0000
0001
0100
,
0010
1000
0100
0010
,
0001
1000
0010
0100
,
0001
0010
0100
1000
,
0001
0000
0001
1000
,
0010
0100
0001
0010
,
0100
1000
0010
0100
,
0001
0010
0100
1000
,
1001
0000
0001
1000
,
0010
0000
0100
0001
,
0010
0000
0100
1000
,
0001
0100
0001
0100
,
0001
0000
1000
0100
,
0010
0000
0001
0100
,
0010
0000
1000
0001
,
1000
0100
0010
0001
,
2002
3003
1000
0001
,
0100
0010
1000
0100
,
0000
1000
0000
0000
0001
0000
0001
0000
,
0100
0000
0000
0001
0000
0000
1000
0000
,
0001
0001
1000
1000
,
0010
0100
0001
1000
,
0000
0001
0000
0000
1000
0000
1000
0000
,
0001
0100
0010
1000
,
0002
0003
1000
0001
,
0200
0300
0010
1000
,
0002
0003
1000
0100
,
0020
0030
0001
0100
,
0002
0003
1000
0001
,
2000
3000
0001
0100
,
0002
0003
1000
0100
,
0020
0030
0001
1000
,
2002
0000
3003
0000
,
0020
0000
0030
0000
,
0200
0000
0300
0000
,
0020
0000
0030
0000
,
1001
0001
0100
0001
,
0010
0001
1000
0100
,
1000
0001
0010
0100
,
0110
0010
0001
1000
,
1001
0001
0100
0001
,
0011
0001
0100
0010
,
1010
1000
0001
0100
,
0101
0100
0110
0010
,
1010
1000
0001
0100
,
0110
0010
1000
0001
,
1001
0001
0100
0010
,
0110
0010
0101
0100
,
0110
0010
1000
0100
,
0010
0001
0100
0010
,
1000
0001
0010
0100
,
1000
0010
0100
0001
,
1001
1000
0010
0100
,
0001
0010
0100
0010
,
0001
1000
0010
0100
,
0001
1000
0001
1000
,
0110
0000
0000
0000
;

//--------------- dance-single - ----------------
#NOTES:
     dance-single:
     :
     Medium:
     12:
     0,0,0,0,0:
0000
0000
0000
0000
,
1001
0000
1000
0000
0000
0001
0000
0000
0100
0000
0000
0010
0000
0000
1000
0000
,
0000
0000
0001
0000
0000
0100
0000
0000
0010
0000
0000
1000
0000
0000
0100
0000
,
0000
0000
0010
0000
0000
0001
0000
0000
0100
0000
0000
0010
0000
0000
1000
0000
,
0002
0203
0320
1030
,
1010
0000
0010
0000
0000
0100
0000
0000
0001
0000
0000
0010
0000
0000
0001
0000
,
0000
0000
0100
0000
0000
0010
0000
0000
1000
0000
0000
0100
0000
0000
1000
0000
,
0000
0000
0001
0000
0000
0100
0000
0000
0010
0000
0000
1000
0000
0000
0001
0000
,
0100
0000
0010
0000
0000
1000
0000
0000
0010
0000
0100
0000
0001
0000
0000
0000
,
1001
1000
0000
0001
0100
0000
0010
0000
,
1000
0100
1000
0100
1000
0010
0100
0000
,
0000
0001
0000
0100
0010
0000
1000
0000
,
0100
0000
0010
0002
0000
1003
0200
0000
,
0300
1000
0000
0010
0100
0000
0002
0000
,
1003
0100
0010
0001
0100
0010
1000
0000
,
0000
0001
0000
1000
0100
0000
0010
0000
,
0001
1000
0100
1000
0001
0000
1000
0000
,
1001
0000
0000
0001
0000
0000
0100
0000
0010
0000
1000
0000
0001
0000
0000
0000
,
0100
0010
0100
0010
0100
0001
1000
0000
,
0001
0010
0001
0100
0010
1000
0001
0000
,
1000
0001
0100
0001
0010
0001
0100
0000
,
0001
0000
0000
1000
0000
0000
0010
0000
0100
0000
0001
0000
1000
0000
0000
0000
,
0100
0010
0100
1000
0010
0100
0001
0000
,
1000
0100
1000
0001
0100
0010
1000
0000
,
0001
0010
0100
1000
0010
0100
0001
0000
,
1001
0000
1000
0000
0000
0010
0000
0000
0100
0000
0000
0001
0000
0000
1000
0000
,
0100
0000
0010
0000
0000
0001
0000
0000
0100
0000
0000
0010
0000
0000
1000
0000
,
0100
0000
1000
0000
0000
0010
0000
0000
0100
0000
0000
0001
0000
0000
1000
0000
,
0001
0100
0001
0010
0001
0100
0010
1000
,
0010
0000
0100
0000
0000
0001
0000
0000
1000
0000
0000
0100
0000
0000
1000
0000
,
0001
0000
0100
0000
0000
0010
0000
0000
1000
0000
0000
0100
0000
0000
0010
0000
,
0001
0000
1000
0000
0000
0010
0000
0000
1000
0000
0000
0100
0000
0000
1000
0000
,
0001
0100
0010
1000
,
1010
0010
0000
0100
0020
0000
0130
0000
,
0100
0010
1000
0100
1000
0010
0100
0000
,
0000
0001
0000
1000
0100
0000
1000
0000
,
0001
0000
0100
0010
0000
1000
0001
0000
,
0000
0100
0000
0010
1000
0000
0100
0000
,
0010
0001
0010
0001
0100
0010
0100
0000
,
0000
0001
0000
1000
0010
0000
0100
0000
,
0001
0100
0010
1000
0100
1000
0000
0000
,
1001
0000
0000
0001
0000
0000
1000
0000
0010
0000
0100
0000
0001
0000
0000
0000
,
1000
0100
1000
0001
0100
0010
0100
0000
,
0001
0010
0100
1000
0001
0010
0100
0000
,
1000
0010
1000
0100
1000
0001
0100
0000
,
0010
0000
0000
0010
0000
0000
1000
0000
0100
0000
1000
0000
0001
0000
0000
0000
,
0100
0010
0100
0001
0010
0001
0100
0000
,
0010
1000
0100
1000
0001
0010
0100
0000
,
1000
0001
0010
0001
0100
0010
1000
0000
,
2010
0000
3001
0000
,
0200
0000
0310
0000
,
2000
0000
3001
0000
,
0100
0000
0010
0000
1000
0001
0100
0000
,
0110
0000
0010
0000
0000
1000
0000
0000
0001
0000
0000
0100
0000
0000
0001
0000
,
0000
0000
1000
0000
0000
0100
0000
0000
1000
0000
0000
0001
0000
0000
0100
0000
,
0000
0000
0010
0000
0000
1000
0000
0000
0100
0000
0000
0001
0000
0000
0100
0000
,
1100
0000
0000
0000
0100
0000
0000
0000
0010
0000
0000
0001
0000
0000
1000
0000
,
1010
0000
0010
0000
0000
1000
0000
0000
0001
0000
0000
0100
0000
0000
0010
0000
,
1000
0000
0100
0000
0000
0010
0000
0000
0001
0000
0000
0100
0000
0000
0010
0000
,
1000
0000
0001
0000
0000
0010
0000
0000
0001
0000
0000
0100
0000
0000
0010
0000
,
1000
0000
0001
0000
0000
0100
0000
0000
0010
0000
0000
1000
0000
0000
0100
0000
,
1100
0000
1000
0000
0000
0001
0000
0000
0100
0000
0000
0010
0000
0000
1000
0000
,
0001
0000
0000
0010
0000
0000
0001
0000
0100
0000
0000
0010
0000
0000
1000
0000
,
0100
0000
0010
0000
0000
0001
0000
0000
0100
0000
0000
0010
0000
0000
1000
0000
,
1001
0110
0101
1010
,
1001
0001
0100
0010
1000
0100
1000
0001
,
0010
0000
0100
0000
1000
0000
0010
0000
0100
0000
0000
0001
0000
0000
0100
0000
,
0010
0000
1000
0000
0100
0000
0000
0000
1000
0000
0000
0001
0000
0000
1000
0000
,
0010
0100
0001
0010
0100
1000
0010
1000
,
0001
0000
1000
0000
0000
0100
0000
0000
0100
0000
0000
0100
0000
0000
0100
0000
,
1000
0000
0010
0000
0000
0100
0000
0000
0100
0000
0000
0001
0000
0000
0001
0000
,
1000
0000
0010
0000
0000
0100
0000
0000
0001
0000
0000
1000
0000
0000
0100
0000
,
0010
0000
0001
0000
0000
0100
0000
0000
0010
0000
1000
0000
0001
0000
0000
0000
,
1001
0000
0000
0000
;

//--------------- dance-single - ----------------
#NOTES:
     dance-single:
     :
     Hard:
     17:
     0,0,0,0,0:
0000
0000
0000
0000
,
1001
0000
0001
0000
1000
0001
0000
0100
0010
0000
1000
0100
0000
0010
0001
0000
,
1000
0000
0001
0000
0010
0100
0000
1000
0010
0000
0100
0001
0000
1000
0100
0000
,
0010
0001
0010
0000
0100
1000
0000
0010
1000
0000
0100
0010
0000
0100
1000
0000
,
0001
0010
0001
0000
1000
0010
0000
0100
0001
0000
1000
0010
0000
0100
0001
0000
,
1001
0000
1000
0100
0010
0001
0000
1000
0010
0100
0001
1000
0100
0010
0001
0000
,
1000
0010
1000
0000
0001
0100
0000
0010
1000
0100
0010
0001
0000
1000
0100
0000
,
0010
0001
0010
0000
0001
0100
0000
0010
1000
0100
0010
0001
0000
1000
0010
0000
,
0100
0000
0100
0000
0010
0000
0000
1000
0100
0000
0010
0000
0002
0000
0003
0000
,
0012
0010
0000
0100
0103
0000
0110
0000
,
0010
0001
0010
0000
0100
1000
0010
0000
0100
0000
0001
0000
1001
0000
0000
0000
,
0000
1000
0000
0100
1000
0000
1001
0000
,
0002
0000
0010
0010
0000
1000
1003
0000
,
0100
0020
0000
0100
0230
0000
1300
0000
,
0001
0010
0001
0010
0100
1000
0100
0000
,
0000
2000
0000
3001
0002
0000
0013
0000
,
0100
1000
0010
1000
0100
0000
0000
0000
,
0011
0000
0000
0010
0000
0000
0001
0000
1000
0000
0100
0010
0100
0000
0000
0000
,
1000
0001
0100
0001
0010
0000
0100
0000
1000
0010
1000
0000
0001
0000
0000
0000
,
1000
0000
0100
0010
0100
0000
0010
0000
0001
0000
1000
0000
1100
0000
0000
0000
,
0100
0000
0010
0001
0100
0000
0010
0000
0100
0000
0001
0000
0100
0000
0000
0000
,
0010
0000
0000
0100
0000
0000
0001
0000
1000
0000
0100
0010
0100
0000
0000
0000
,
1000
0001
0010
0001
1000
0000
0100
0000
0010
0000
0001
0000
0100
0000
0000
0000
,
0010
0000
1000
0100
0010
0000
0001
0000
0100
0000
0010
0000
0110
0000
0000
0000
,
0100
0000
0001
0010
0001
0000
0100
0000
0010
0000
1000
0000
0001
0000
0000
0000
,
1001
0000
0001
0000
0010
0100
0000
1000
0010
0000
0100
0001
0000
1000
0100
0010
,
0001
0100
0010
0000
1000
0100
0000
0010
0001
0000
0100
0001
0000
1000
0010
0000
,
1000
0001
1000
0000
0100
0010
0000
0001
0100
0000
0010
1000
0000
0001
0010
0000
,
0110
0011
0101
1001
,
1000
0100
1000
0100
0010
0001
0100
0001
1000
0000
0001
0100
0000
0010
1000
0000
,
0001
0100
0001
1000
0100
1000
0000
0010
0100
0000
0001
0010
0000
0100
1000
0000
,
0001
0100
0001
1000
0010
1000
0000
0001
0010
0000
0100
1000
0000
0100
0010
0000
,
0001
0100
0001
0000
1000
0000
1000
0000
0100
1000
0100
0000
0010
0000
0001
0000
,
0011
0010
0000
0001
0002
0000
1003
0000
,
0100
0010
0001
0100
1000
0100
0001
0000
,
0000
2000
0000
0100
3200
0000
0310
0000
,
0200
0000
1300
0001
0000
1000
0001
0000
,
0000
0010
0000
0100
1000
0000
0001
0000
,
0100
0010
1000
0100
0010
0001
1000
0000
,
0000
0001
0000
0100
0010
0000
1000
0000
,
0100
0010
0001
0100
0001
1000
0001
0000
,
1000
0000
0000
0001
0000
0000
0010
0000
0100
0000
1000
0010
1000
0000
0000
0000
,
0001
0100
0001
0100
0001
0000
1000
0000
0100
0000
0010
0000
0001
0000
0000
0000
,
1000
0000
0100
0010
0100
0000
1000
0000
0010
0000
0100
0000
0101
0000
0000
0000
,
0010
0000
1000
0100
0010
0000
0001
0000
0100
0000
0010
0000
1000
0000
0000
0000
,
0100
0000
0000
0010
0000
0000
0100
0000
1000
0000
0100
0010
0100
0000
0000
0000
,
1000
0010
0100
0010
1000
0000
0100
0000
0010
0000
0100
0000
1000
0000
0000
0000
,
0010
0000
0001
0100
0001
0000
0010
0000
0100
0000
0010
0000
0001
0000
0000
0000
,
0010
0000
0001
0100
0001
0000
0010
0000
0100
0000
0010
0000
0001
0000
0000
0000
,
1100
0000
0100
0000
0000
0010
0000
0000
0001
0000
0000
0100
0000
0000
0010
0000
,
0000
0000
1000
0000
0000
0100
0000
0000
0010
0000
0000
0001
0000
0000
1000
0000
,
0000
0000
0001
0000
0000
0100
0000
0000
0010
0000
0000
1000
0000
0000
0100
0000
,
0000
0000
0010
0000
0001
0000
0000
1000
0100
0000
0010
0000
0001
0000
0000
0000
,
1001
0000
0001
0000
1000
0010
1000
0100
0010
0001
0100
0010
1000
0100
0010
0001
,
1000
0000
0100
0000
0010
0001
0100
0001
0100
0001
0010
0100
1000
0010
1000
0100
,
0010
0000
0001
0000
1000
0100
1000
0010
0100
0001
0010
0100
1000
0010
1000
0001
,
0100
0000
0010
0000
1000
0100
0010
0100
1000
0100
0010
0001
1000
0000
0001
0000
,
1001
0000
1000
0000
0100
0010
0000
0100
1000
0000
0001
0100
0000
0010
1000
0000
,
1010
0000
0100
0000
0001
0010
0000
0100
1000
0000
0100
0010
0000
0001
0100
0000
,
0101
0000
0010
0000
1000
0100
0000
0010
0001
0000
0100
0001
0000
1000
0100
0000
,
0110
0000
0010
0000
0001
0010
0000
0000
0011
0000
0000
0001
0000
0000
0010
0000
,
0110
0000
0100
0000
1000
0010
0000
0100
0001
0000
0010
0100
0000
1000
0100
0000
,
0110
0000
0010
0000
0001
0100
0000
0001
1000
0000
0100
0010
0000
0001
1000
0000
,
1001
0000
0001
0000
0100
0010
0000
1000
0100
0000
0010
0001
0000
1000
0100
0000
,
0110
0010
0011
0000
1001
0000
1100
0000
,
0110
0000
0100
0000
1000
0001
0000
0010
0001
0000
1000
0100
0000
0010
0001
0000
,
1000
0000
0010
0000
0100
0001
0000
0010
0100
0000
1000
0010
0000
0100
0001
0000
,
1000
0000
0100
0000
0010
0001
0000
0100
0001
0000
1000
0010
0000
0100
0001
0000
,
1000
0000
0100
1000
0100
0000
0000
0000
1000
0000
0010
0000
1000
0000
0100
0000
,
0110
0000
0010
0000
0001
0100
0000
0001
0010
0000
0100
1000
0000
0001
0010
0000
,
0100
0000
1000
0000
0010
1000
0000
0100
0010
0000
0001
0100
0000
0001
1000
0000
,
0001
0000
0010
0000
0100
1000
0000
0100
0010
0000
0001
0100
0000
0001
0100
0000
,
0010
0000
1000
0000
0100
0010
0000
0100
1000
0000
0100
0010
0100
0000
0000
0000
,
1001
0000
0000
0000
;

//--------------- dance-single - ----------------
#NOTES:
     dance-single:
     :
     Challenge:
     19:
     1,1,1,0.222,1,777,111,21,3,9,0:
0000
0000
0000
0000
,
0001
1000
0001
0010
0100
0010
0001
0100
0010
1000
0100
0010
0001
1000
0001
0010
,
0100
1000
0001
0100
0001
1000
0100
1000
0001
0100
0010
1000
0100
0010
0001
1000
,
0001
0100
0001
0010
0100
1000
0010
1000
0001
0010
0001
1000
0100
0010
0001
1000
,
0001
0010
0100
1000
0001
0100
0010
1000
0001
0010
0100
1000
0001
0100
0010
1000
,
0001
1000
0001
0100
0010
1000
0100
0010
0001
0100
0010
1000
0100
0010
0001
1000
,
0100
0010
0001
0100
0010
1000
0001
0010
0001
0100
0001
1000
0010
1000
0001
0010
,
0001
1000
0100
0010
0100
1000
0001
1000
0100
0010
0100
1000
0001
0100
0010
1000
,
0001
0010
0100
1000
0001
0100
0010
0100
0001
1000
0010
1000
0001
0010
0100
0010
,
0001
1000
0001
1000
0100
0010
0001
1000
0001
1000
0010
0100
0001
0010
0100
1000
,
0001
0100
0001
0100
0010
1000
0100
0010
0001
0100
0010
1000
0001
0010
0001
0100
,
0010
1000
0100
0010
0001
1000
0100
0010
0100
0010
0001
0100
0010
1000
0100
0010
,
0001
1000
0100
0010
0001
1000
0001
1000
0100
0010
0001
1000
0001
1000
0010
0100
,
0001
1000
0100
0010
0001
0100
0010
1000
0010
1000
0100
0010
0001
1000
0010
0100
,
0001
0010
0001
0100
0010
1000
0010
0100
0001
0010
0001
0100
0010
1000
0100
0010
,
0001
1000
0100
0010
0001
0100
0010
1000
0010
0100
0001
0010
0100
1000
0100
1000
,
0010
0100
0001
1000
0100
0010
0001
0100
0010
1000
0100
0010
0001
1000
0001
0100
,
0001
0000
0010
0100
0000
1000
0100
0010
0001
0100
0010
1000
0001
0000
1000
0100
,
1000
0010
0100
0001
1000
0000
0001
0010
0100
1000
0001
0000
0001
0000
1000
0100
,
0010
0000
0001
1000
0001
0000
1000
0100
0010
0001
1000
0000
1000
0000
0001
0100
,
0001
0000
0010
0100
0010
0000
0001
0000
0010
0000
0010
0000
0010
0000
0001
1000
,
0001
0000
0000
0010
0000
0000
0001
1000
0001
0000
0010
0100
0010
0000
0001
0000
,
1000
0100
1000
0100
0010
0000
0001
1000
0100
0000
1000
0001
0010
0000
0100
1000
,
0001
0000
0010
0100
0010
0000
0100
0000
1000
0100
0010
0001
1000
0000
0001
0010
,
0100
0000
1000
0001
1000
0000
0100
0000
0010
0000
0010
0000
0001
0000
0000
0000
,
1000
0001
1000
0010
0100
0001
0010
0100
1000
0010
0100
0001
0010
0001
1000
0100
,
0010
0001
0100
0010
0100
0001
1000
0001
0010
0100
1000
0001
0100
0010
1000
0001
,
0010
0100
1000
0010
0100
0001
0010
0100
1000
0010
0100
0001
1000
0001
0010
0100
,
1000
0010
0100
0001
1000
0010
1000
0100
1000
0010
0100
0001
1000
0100
0010
0001
,
1000
0100
0010
0001
0100
0010
1000
0100
0010
0001
0010
0100
1000
0010
0100
0001
,
1000
0100
0010
0001
0010
0100
1000
0010
0100
0001
1000
0100
0010
0100
1000
0001
,
0010
0100
1000
0001
1000
0100
0010
0100
1000
0010
1000
0001
0010
0001
0100
0010
,
1000
0100
0010
0001
1000
0010
0100
0001
0100
0010
1000
0001
0010
0100
1000
0001
,
0100
0010
1000
0100
0010
0001
1000
0100
1000
0100
0010
0001
1000
0010
1000
0100
,
0010
0001
0100
0001
1000
0100
0010
0100
1000
0001
0100
0010
1000
0100
0010
0001
,
1000
0010
1000
0001
1000
0100
0010
0001
0010
0100
1000
0010
0100
0001
0010
0100
,
1000
0010
0100
0010
1000
0100
0010
0001
0010
0100
1000
0010
1000
0001
0100
0010
,
1000
0001
1000
0010
0100
0001
1000
0100
0010
0100
1000
0001
1000
0010
0100
0001
,
1000
0100
0010
0001
1000
0010
0100
0001
1000
0100
0010
0100
1000
0001
0100
0010
,
1000
0001
0010
0100
1000
0001
0100
0010
1000
0010
1000
0001
0100
0001
1000
0100
,
0010
0001
0100
0010
1000
0100
0010
0100
1000
0010
0100
0001
0100
0010
1000
0010
,
1000
0000
0000
1000
0000
0000
0010
0000
0100
0000
0001
0100
0001
0000
0000
0000
,
1000
0001
1000
0001
1000
0000
0010
0000
0100
0000
0001
0000
1000
0000
0000
0000
,
0001
0000
1000
0010
1000
0000
0100
0000
0001
0000
0001
0000
1000
0000
0000
0000
,
0001
0000
0100
0010
0100
0000
0001
0000
1000
0000
0100
0000
0010
0000
0000
0000
,
0001
0000
0000
0100
0000
0000
0010
0000
1000
0000
0001
1000
0001
0000
0000
0000
,
1000
0010
1000
0001
1000
0000
0001
0000
0100
0000
0010
0000
1000
0000
0000
0000
,
0001
0000
1000
0001
1000
0000
0010
0000
0100
0000
0001
0000
1000
0000
0000
0000
,
0001
0000
1000
0010
0100
0000
0010
0000
1000
0000
0001
0000
1000
0000
0000
0000
,
1001
0000
1000
0100
0010
0001
0100
0010
1000
0100
0010
0001
0100
0010
1000
0001
,
0100
0001
1000
0100
0010
0001
1000
0001
1000
0100
0010
0001
0100
0010
1000
0001
,
0010
0100
1000
0001
0100
0010
1000
0001
0010
0100
1000
0010
0100
0001
0100
0010
,
1000
0001
0010
0100
1000
0010
0100
0001
0010
0001
0100
0010
1000
0001
0010
0100
,
1000
0010
1000
0010
0100
0001
0010
0100
1000
0001
0010
0001
0100
0010
0100
0001
,
1000
0010
1000
0010
0100
0001
0010
0001
0100
0010
1000
0001
0100
0001
0010
0100
,
1000
0001
1000
0001
0100
0010
1000
0001
0010
0100
1000
0001
0100
0010
1000
0001
,
0100
0010
0100
0010
1000
0001
0010
0100
1000
0100
0010
0001
0100
0010
1000
0001
,
1000
0010
0100
0001
0010
0100
1000
0001
1000
0100
0010
0001
1000
0010
0100
0001
,
1000
0100
0010
0100
1000
0001
0100
0010
1000
0001
0010
0100
1000
0010
0100
0001
,
1000
0100
0010
0001
0010
0100
1000
0001
1000
0100
0010
0001
1000
0010
1000
0001
,
1000
0010
0100
0001
0010
0100
1000
0010
0100
0001
0010
0100
1000
0010
0100
0001
,
1000
0100
0010
0001
0100
0010
1000
0100
0010
0001
0100
0010
1000
0001
0010
0100
,
1000
0010
0100
0001
0010
0100
1000
0001
0010
0001
1000
0010
0100
0001
1000
0100
,
0010
0001
0100
0010
1000
0001
1000
0100
0010
0100
1000
0001
0100
0010
0100
0001
,
1000
0001
0010
0100
0010
0001
0100
0001
0010
0100
1000
0001
0100
0010
1000
0100
,
0010
0000
0001
0000
1000
0010
0100
0001
1000
0100
0010
0100
1000
0001
0010
0100
,
0010
0001
1000
0010
0100
0001
0010
0100
1000
0010
0100
0001
1000
0100
0010
0100
,
1000
0001
0100
0010
0100
0001
1000
0100
1000
0001
0010
0100
0010
0001
1000
0010
,
0100
0001
1000
0100
0010
0001
0100
0010
1000
0001
0010
0100
1000
0010
0100
0001
,
1000
0100
0010
0001
0100
0010
1000
0100
1000
0001
0010
0100
1000
0010
1000
0100
,
1000
0010
0100
0001
1000
0100
0010
0100
1000
0001
0100
0010
1000
0001
0010
0100
,
1000
0010
0100
0001
1000
0100
0010
0100
1000
0001
0010
0100
1000
0010
0100
0010
,
1000
0100
0010
0001
0100
0010
1000
0001
0010
0100
0010
0100
1000
0000
0000
0000
,
0100
0000
0000
0000
;
