#TITLE:Wake Me up When September Ends;
#SUBTITLE:;
#ARTIST:Spike;
#TITLETRANSLIT:;
#SUBTITLETRANSLIT:;
#ARTISTTRANSLIT:;
#GENRE:;
#CREDIT:;
#MUSIC:wake me up when september ends - SPIKE.ogg;
#BANNER:;
#BACKGROUND:;
#CDTITLE:;
#SAMPLESTART:0.000;
#SAMPLELENGTH:0.000;
#SELECTABLE:YES;
#OFFSET:-0.040;
#BPMS:0.000=128.000;
#STOPS:;
#BGCHANGES:;
#FGCHANGES:;

//--------------- dance-single - ----------------
#NOTES:
     dance-single:
     :
     Beginner:
     1:
     0,0,0,0,0:
0000
0000
0000
0000
,
0001
0000
0000
0000
,
0100
0000
0000
0000
,
0010
0000
1000
0000
,
1001
0000
0000
0000
,
0001
0000
0000
0000
,
0100
0000
0000
0000
,
0010
0000
0000
0000
,
1001
0000
0000
0000
,
0100
0000
0000
0000
,
0010
0000
0000
0000
,
1000
0000
0000
0000
,
0001
0000
0000
0000
,
1000
0000
0000
0000
,
0100
0000
0000
0000
,
0010
0000
0000
0000
,
1001
0000
0000
0000
,
0100
0000
0000
0000
,
0010
0000
0000
0000
,
1000
0000
0000
0000
,
1001
0000
0000
0000
,
0100
0000
0000
0000
,
0010
0000
0000
0000
,
1000
0000
0000
0000
,
0001
0000
0000
0000
,
1000
0000
0000
0000
,
0010
0000
0000
0000
,
0100
0000
0000
0000
,
0001
0000
0000
0000
,
1000
0000
0000
0000
,
0010
0000
0000
0000
,
0100
0000
0000
0000
,
1001
0000
0000
0000
,
0100
0000
0000
0000
,
0010
0000
0000
0000
,
0100
0000
0000
0000
,
1000
0000
0000
0000
,
0001
0000
0000
0000
,
0100
0000
0000
0000
,
0010
0000
0000
0000
,
1000
0000
0000
0000
,
0001
0000
0000
0000
,
0100
0000
0000
0000
,
0010
0000
0000
0000
,
1001
0000
0000
0000
,
1000
0000
0000
0000
,
1000
0000
0000
0000
,
1001
0000
0000
0000
;

//--------------- dance-single - ----------------
#NOTES:
     dance-single:
     :
     Easy:
     4:
     0,0,0,0,0:
0000
0000
0000
0000
,
0001
1000
0001
0000
,
1000
0010
0100
0000
,
0001
1000
0010
0100
,
0102
0000
0103
0010
,
2000
0000
3001
0100
,
0020
0000
1030
0100
,
0020
0000
0031
0100
,
2010
0000
3001
0100
,
0010
1000
0001
0100
,
0001
0001
1000
0000
,
0010
0010
0100
0000
,
1002
0000
1003
0010
,
0200
0000
0301
1000
,
0020
0000
1030
0100
,
0010
0000
0001
0100
,
0010
0010
1000
0100
,
1000
0010
0100
0001
,
0100
0010
1000
0000
,
0001
0001
0001
0000
,
2001
0000
0000
0000
,
3020
0000
0000
0000
,
0130
0000
0001
0000
,
0100
0000
0100
0010
,
0220
0330
0010
0100
,
0002
0003
1000
0010
,
0200
0300
0001
1000
,
0010
0000
1000
0001
,
2002
3003
0010
0100
,
0002
0003
1000
0100
,
0020
0030
0001
0100
,
0020
0030
1000
0001
,
1001
0000
0010
0100
,
0002
0003
1000
0010
,
0100
0100
0001
1000
,
0100
0010
0100
1000
,
0001
0100
0001
0100
,
0010
1000
0100
1000
,
0010
0100
0010
0100
,
0001
0010
0001
0100
,
0001
0010
0001
0100
,
0010
1000
0100
1000
,
0010
0100
0001
0010
,
0001
0100
0001
0100
,
0010
1000
0010
1000
,
0100
0010
0100
0001
,
0100
0010
0100
1000
,
0002
0000
0003
0000
;

//--------------- dance-single - ----------------
#NOTES:
     dance-single:
     :
     Medium:
     6:
     0,0,0,0,0:
0000
0000
0000
0000
,
0001
0100
0001
0000
,
0100
0010
0100
0000
,
0001
1000
0001
0000
0100
0000
0001
0000
,
1002
0000
1003
0000
0001
0100
0001
0000
,
2000
0000
3010
0100
0000
0000
0001
0000
,
2000
0000
3001
0100
0000
0001
0000
1000
,
0000
0001
0000
1000
0000
0000
0001
0000
,
1002
0000
1003
0010
0100
0000
0001
0000
,
0100
0000
0010
2000
0000
3002
0000
0103
,
0001
0000
1000
0000
0100
0010
0000
0000
,
0001
0000
0100
0000
0010
1000
0001
1000
,
0001
0000
1000
0020
0000
2030
0000
3000
,
0001
0000
0100
0001
0000
0000
1000
0000
,
0001
0000
0100
0020
0000
2030
0000
3200
,
0000
0320
0000
0031
0000
0000
1000
0001
,
1000
0000
0001
0200
0000
0000
0310
0000
,
1000
0000
0001
0100
0000
0001
0000
1000
,
0010
0000
0100
0000
0001
0100
0010
0000
,
1000
0000
0100
0000
0010
0001
0100
0000
,
2010
0000
0000
0100
0000
0100
0000
0000
,
3002
0000
0000
0103
0000
0000
0000
0000
,
0010
0000
1000
0000
0001
1000
0000
0001
,
1000
0000
0000
0000
0010
0000
1000
0001
,
2000
0000
0000
0010
0000
3100
0000
0000
,
0010
0000
0100
0010
1000
0001
0000
0000
,
0100
0000
0010
0000
1000
0100
0000
0010
,
0001
0000
0000
0000
1000
0000
0001
0100
,
0002
0000
0000
0100
0000
0010
0000
0000
,
2003
0000
0000
3010
0000
0100
0000
0000
,
0001
0000
0100
0001
0000
0100
0000
0020
,
0000
2030
0000
3100
0000
0000
0001
0100
,
1000
0000
0100
0010
0000
0000
1000
0000
,
0001
0000
0100
0010
0000
0100
0000
0001
,
1000
0010
0100
0001
,
1000
0100
1000
0010
0100
0001
0000
0000
,
1000
0001
1000
0000
0010
0000
0100
0000
,
0001
0010
0001
0000
0100
0000
0010
0000
,
1000
0001
1000
0000
0010
0000
0100
0000
,
0001
0010
0001
0000
0100
0010
0100
0000
,
0001
1000
0001
0000
1000
0000
0010
0000
,
0100
0001
0010
0000
0100
0000
1000
0000
,
0001
1000
0010
0000
0100
0000
0001
0000
,
1000
0001
1000
0000
0010
0100
0010
0000
,
1001
0100
0010
1000
,
0001
0100
0010
1000
,
0001
1000
0010
0100
,
0020
0030
0000
0000
;

//--------------- dance-single - ----------------
#NOTES:
     dance-single:
     :
     Hard:
     10:
     0,0,0,0,0:
0000
0000
0000
0000
,
1000
0001
0100
0010
0100
0001
0000
1000
,
0100
0010
0001
0100
0010
1000
0000
0001
,
0100
0010
0100
0001
0100
0010
0100
0001
,
0201
0000
0302
0000
1003
0100
0010
0001
,
0200
0000
0320
0000
1030
0100
0010
0001
,
0200
0000
0310
1000
0100
0000
0001
0200
,
1000
0301
0100
0010
0100
0001
0010
0001
,
0021
0000
0031
1000
0100
1000
0001
0100
,
0002
0000
1003
0100
1000
0001
0100
0010
,
1000
0100
1000
0100
0001
0100
0010
0000
,
0100
1000
0100
0010
0001
0100
0010
1000
,
1100
0000
0100
0010
0000
0001
0100
0010
,
2000
0000
3001
0100
0000
0010
1000
0100
,
2000
0000
3001
0100
0000
0010
1000
0100
,
1000
0001
0100
0010
0100
0001
0010
0001
,
0101
0000
0100
0010
1000
0100
1000
0001
,
0100
0000
0010
1000
0100
0010
0001
0100
,
0010
1000
0100
1000
0001
0010
0000
0000
,
0100
1000
0100
1000
0001
0100
0010
1000
,
0002
0000
0000
1000
0000
0013
0000
0000
,
2000
0000
0001
3001
0000
0100
0010
1000
,
0200
0000
0310
0000
0001
0100
0000
0010
,
1000
0001
0000
0010
0000
0001
1000
0000
0001
0000
0100
0000
0010
0000
0100
0000
,
0102
0000
0103
0010
1000
0100
0010
0001
,
0200
0000
0310
1000
0100
0010
0001
0100
,
0002
0000
1003
0000
0010
0100
0001
0010
,
0001
1000
0000
0010
0000
0100
0001
0000
0100
0000
0010
0000
1000
0000
0001
0000
,
0200
0000
0310
1000
0100
0010
0001
0100
,
0002
0000
1003
0100
0001
0100
0010
0100
,
0001
0000
0100
1000
0010
0100
0000
0001
,
0000
1000
0010
0100
0000
0001
0010
0001
,
0101
0000
0100
0010
1000
0100
0010
0001
,
0200
0000
0310
1000
0000
0010
0000
0100
,
0001
0100
0100
1000
0100
0100
0000
0001
,
0010
0010
1000
0010
0010
0001
0100
0010
,
0100
0100
0001
0010
0001
0100
0010
0010
,
1000
0100
1000
0100
1000
0010
0100
0100
,
0001
0010
0001
0010
0001
1000
0100
0100
,
1000
0010
1000
0100
1000
0001
0100
0010
,
0100
0001
0010
0001
0100
0001
0100
0100
,
0010
1000
0100
1000
0010
0100
0001
0001
,
0100
0010
1000
0100
1000
0010
0100
0100
,
0001
0010
0001
0100
0010
0100
0001
0001
,
0101
0100
0010
1000
0100
0010
0001
0001
,
0100
0010
1000
0001
0010
0100
1000
1000
,
0010
0100
0001
0010
0001
0100
0010
0010
,
1000
0100
0010
0001
0100
0010
0000
0000
;
