#TITLE:Time To Say Goodbye;
#SUBTITLE:;
#ARTIST:DJ Mystik;
#TITLETRANSLIT:;
#SUBTITLETRANSLIT:;
#ARTISTTRANSLIT:;
#GENRE:;
#CREDIT:;
#MUSIC:Time To Say Goodbye - DJ Mystik.ogg;
#BANNER:;
#BACKGROUND:;
#CDTITLE:;
#SAMPLESTART:50.330;
#SAMPLELENGTH:12.000;
#SELECTABLE:YES;
#OFFSET:-0.048;
#BPMS:0.000=143.200
,81.000=71.600
,89.000=143.200
,194.000=71.600
,198.000=143.200
;
#STOPS:40.000=1.257
,169.000=1.257
;
#BGCHANGES:;
#FGCHANGES:;

//--------------- dance-single - ----------------
#NOTES:
     dance-single:
     :
     Beginner:
     3:
     0,0,0,0,0:
0000
0000
0000
0000
,
0000
0000
1000
0000
,
0001
0000
0000
0000
,
0000
0000
0000
1000
,
1000
0000
0000
0000
,
0000
0001
0001
0000
,
1000
0000
0000
0010
,
0010
0000
0100
0000
,
0001
0000
0000
0000
,
1000
0000
0000
0000
,
1001
0001
0000
2000
,
0000
3000
0000
0010
,
0010
0020
0000
0000
,
0030
0000
0000
0000
,
0001
0002
0000
0000
,
0000
0003
1000
1000
,
1000
1000
0000
0000
,
0010
0010
0000
0000
,
0100
0100
0000
0000
,
0000
0001
0000
0000
,
0000
1001
0000
0100
,
0000
0010
0000
0100
,
0000
0110
0000
0000
,
0000
0010
0000
0000
,
0000
1000
0000
0000
,
0000
0001
0000
0000
,
0000
1001
0000
0000
,
0000
1000
0000
0000
,
0000
0001
0000
0000
,
0000
0100
0000
0000
,
0000
1001
0000
0000
,
0000
0001
0000
0000
,
0000
1000
0000
0000
,
0000
0100
0000
0000
,
0000
0110
0000
0000
,
0000
0001
0000
0000
,
0000
1001
0000
0000
,
0000
0100
0000
0000
,
0000
1001
0000
0100
,
0000
1001
0000
0010
,
0000
1000
0000
1000
,
0000
0001
0000
0001
,
0000
1001
0001
0000
,
0000
0000
1000
0000
,
0000
0000
0001
0000
,
0000
0000
0100
0000
,
0000
0000
0010
0000
,
0000
0000
0100
0000
,
0000
0000
1001
0000
,
0000
0000
0001
0000
,
2000
0000
3000
0000
,
0010
0010
0020
0000
,
0030
0000
0000
0000
,
0000
0100
0200
0000
,
0300
0000
0000
0001
,
0001
0001
0002
0000
,
0003
1000
2000
0000
,
3000
0000
0001
0000
,
0000
0000
0100
0000
,
0000
0000
1001
0000
;

//--------------- dance-single - ----------------
#NOTES:
     dance-single:
     :
     Easy:
     5:
     0,0,0,0,0:
0000
0000
0000
0000
,
0000
0000
0001
1000
,
0020
0000
0030
0000
,
0000
0000
0000
1000
,
0002
0000
0003
0000
,
0000
0100
0010
1000
,
0002
0000
0003
0100
,
0010
0000
0000
1000
,
0100
0000
0000
0000
,
0010
0002
0000
1003
,
1001
0002
0000
2003
,
0000
0010
0000
3002
,
2003
3002
0100
0000
,
0100
0000
0003
0000
,
2000
3002
0010
0000
,
1000
0000
0023
0230
,
0320
0032
0000
0000
,
2003
3002
2003
0000
,
3020
0230
0000
0300
,
0000
0020
2000
0030
,
3001
1001
0000
0001
,
0000
0100
0000
0010
,
0100
1001
0001
0100
,
0010
1000
0100
0010
,
0100
1000
0001
0100
,
0001
0100
0010
1000
,
0001
1001
1000
0010
,
0100
0001
0010
0001
,
0100
0010
1000
0100
,
0010
0001
0100
0010
,
1000
0001
1000
0001
,
1000
0010
0100
0010
,
0100
0001
0010
0001
,
0010
0100
1000
0100
,
1000
1001
0001
0100
,
0001
0010
0001
0100
,
0010
0101
0001
1000
,
0100
0010
0001
0100
,
0010
1010
1000
0001
,
0100
1010
0100
0001
,
1000
1001
1001
1001
,
1001
0010
0010
0010
,
0010
1001
0001
0100
,
0001
0100
0010
1000
,
0010
1000
0100
0010
,
0001
0100
0001
0010
,
0001
0100
0010
1000
,
0100
1000
0001
0010
,
0100
0010
2002
0000
,
3003
0000
0020
0100
,
0200
0000
0300
0000
,
2030
3020
0230
0000
,
0000
0000
0000
0000
,
0300
2000
3002
0100
,
0000
1000
0000
2003
,
3200
0320
0032
0000
,
0003
0200
0320
2030
,
3000
0002
0203
0000
,
0300
0000
0010
1000
,
1000
1000
1001
0000
;

//--------------- dance-single - ----------------
#NOTES:
     dance-single:
     :
     Medium:
     9:
     0,0,0,0,0:
0000
0000
0000
0000
,
0000
0000
2000
3002
,
0203
0310
1000
0001
,
0100
0010
1000
0200
,
0320
0031
0100
0010
,
1000
0002
0203
0320
,
2030
0000
3001
0000
0100
0000
0010
1000
,
0010
0000
0100
0001
0100
0000
0001
0010
,
0001
0000
1000
0100
1000
0000
0001
0100
,
0001
1000
0100
0010
,
1001
0000
0001
1000
0001
0000
0100
0010
,
0200
0000
0000
2300
,
0001
3200
0000
0020
,
0300
0031
0100
0010
,
2000
0000
3001
1000
0001
0000
0100
0010
,
0100
0001
1001
1100
,
1001
0200
0310
0100
,
0011
0000
1001
0000
1100
0000
1000
0001
,
1000
0000
0010
0100
0001
0000
1000
0000
,
0100
0011
1002
0003
,
0100
1001
0000
1000
,
0000
0000
1000
0000
0100
0000
0010
0001
,
0100
0000
0010
0000
1001
0000
0000
0000
0001
0000
0000
1000
0000
0000
0010
0000
,
1000
0000
0000
0000
0001
0000
0000
0000
1000
0000
0000
0100
0000
0010
0000
0000
,
0001
0000
0000
0000
0100
0000
0000
0000
0010
0000
0000
1000
0000
0100
0000
0000
,
1000
0000
0000
0000
0001
0000
0000
0000
0100
0000
0000
0010
0000
1000
0000
0000
,
0001
0000
0000
0000
0201
0000
0000
0000
0310
0000
0000
1000
0000
0001
0000
0000
,
0100
0000
0000
0000
0020
0000
0000
0000
1030
0000
0000
0001
0000
0001
0000
0000
,
0100
0000
0000
0000
0002
0000
0000
0000
1003
0000
0000
0001
0000
0100
0000
0000
,
0001
0000
1000
0100
0010
0000
0001
0100
,
0010
0000
0000
0000
1010
0000
0000
0000
1000
0000
0000
0001
0000
0001
0000
0000
,
0100
0000
0000
0000
0010
0000
0000
0000
1000
0000
0000
0100
0000
0100
0000
0000
,
0010
0000
0000
0000
0001
0000
0000
0000
0100
0000
0000
0010
0000
0010
0000
0000
,
1000
0000
0000
0000
0100
0000
0000
0000
0010
0000
0000
0001
0000
0100
0000
0000
,
0010
0000
0000
0000
1010
0000
0000
0000
1000
0000
0000
0001
0000
0100
0000
0000
,
0010
0000
0000
0000
1000
0000
0000
0000
0100
0000
0000
0010
0000
0001
0000
0000
,
0100
0000
0000
0000
1010
0000
0000
0000
0100
0000
0000
0001
0000
0100
0000
0000
,
0010
0000
0000
0000
1000
0000
0000
0000
0100
0000
0000
0010
0000
0001
0000
0000
,
0100
0000
1010
0000
1000
0001
0100
0010
,
1000
0000
1010
0000
0010
0100
0001
0010
,
0001
0011
0101
0110
,
1010
0000
0100
0100
0001
0001
1000
1000
,
0001
0000
0001
0000
1001
0000
0000
0000
0100
0000
0000
0000
0010
0000
0000
1000
,
0000
0100
0000
0000
0010
0000
0000
0000
0002
0000
0000
0000
1003
0000
0000
0001
,
0000
0100
0000
0000
0020
0000
0000
0000
1030
0000
0000
0000
0001
0000
0000
1000
,
0000
0100
0000
0000
2000
0000
0000
0000
3001
0000
0000
0000
0100
0000
0000
0010
,
0000
1000
0000
0000
0100
0000
0000
0000
0010
0000
0000
0000
0001
0000
0000
1000
,
0000
0010
0000
0000
0100
0000
0000
0000
0002
0000
0000
0000
1003
0000
0000
0010
,
0000
0100
0000
0000
0001
0000
1000
0000
1001
0000
0000
0000
0000
0000
0000
0000
,
0001
0000
1000
0000
0001
0010
0100
0000
,
1000
0001
0200
0000
0000
0000
0000
0000
,
0320
2030
3002
1000
,
0010
1000
0100
1000
,
0013
0200
0302
1000
,
0010
1000
0013
0200
,
0320
0032
0203
0310
,
1000
1001
0101
0110
,
0010
0000
1000
0000
0100
0010
0001
0000
,
0100
0010
1000
0000
0100
0010
0001
0100
,
0010
1000
0001
1000
1001
0000
0000
0000
;

//--------------- dance-single - ----------------
#NOTES:
     dance-single:
     :
     Hard:
     14:
     0,0,0,0,0:
0000
0000
0000
0000
,
0000
0000
0002
2003
,
3001
0100
0001
0010
0100
1000
0010
1000
,
0100
0010
0001
0100
0001
1000
0100
1000
,
0010
0100
0010
0100
0001
1000
0001
1000
,
0010
0100
0001
0010
0100
1000
0010
0100
,
0001
1000
0100
0001
0100
1000
0010
0100
,
0001
0010
0100
0010
0001
0100
0010
1000
,
0100
0010
0001
0100
0010
1000
0001
0010
,
0100
1000
0100
1000
0001
0100
0001
1000
,
1001
0000
0002
0100
0103
0000
0020
1000
,
1030
0000
0001
0100
1000
0100
0002
0000
,
2003
0000
3020
1000
1030
0001
0100
1000
,
0100
0001
0100
0010
1000
0100
0001
0100
,
2000
0000
3002
0100
0103
0010
1000
0100
,
1000
0001
0100
0010
1010
0000
0110
0000
,
0101
0000
0001
0010
0001
0100
0001
1000
,
0002
0203
0320
1030
,
0001
1000
0001
0000
0100
0010
0100
0000
,
0001
0010
0100
1000
0010
0100
0001
0010
,
0001
0000
0000
0000
1000
0000
0000
0000
0101
0000
0001
0000
0100
0000
0000
0010
0000
0000
1000
0000
0100
0000
0000
0000
0010
0000
0001
0000
0100
0000
0000
0010
,
0000
0000
1000
0000
0100
0000
0000
0000
1000
0000
0001
0000
0100
0000
0000
0001
0000
0000
0010
0000
0100
0000
0000
0000
1000
0000
0010
0000
0100
0000
0000
0001
,
0000
0010
0001
0100
0001
1000
0001
0000
0100
0000
0000
0001
0000
1000
0010
1000
,
0010
0000
0100
0000
0001
0010
0001
0000
0100
0000
0000
0010
0000
1000
0001
1000
,
0001
0000
0010
0000
0100
1000
0100
0000
1000
0000
0000
0001
0000
0100
0010
1000
,
0010
0000
0100
0000
0001
0010
0001
0000
1000
0000
0000
0010
0000
0100
0001
0100
,
0010
0000
1000
0000
1010
0000
0010
0000
0100
0000
0000
0001
0000
0100
0010
0100
,
0010
0000
0100
0000
0001
0000
0100
0000
0010
0000
0000
0100
0000
0001
1000
0100
,
1000
0000
0010
0000
0100
0001
0100
0000
0010
0000
0000
1000
0000
0100
0010
0100
,
0010
0000
0001
0000
1000
0100
1000
0000
0001
0000
0100
0000
0010
0000
1000
0000
,
0100
0000
0010
0000
0001
1000
0000
1000
0010
0000
0010
0100
0000
0001
0000
0100
,
0010
0000
0100
0000
0001
0010
0000
0100
1000
0000
0001
0100
0000
0010
0000
1000
,
0100
0000
1000
0001
1000
0001
0000
0100
0010
0000
1000
0100
0000
0010
0000
0001
,
0100
0000
0000
0000
0010
1000
0000
0100
1000
0000
0001
0100
0000
0010
0000
1000
,
0100
0000
1000
0001
1000
0001
0000
0100
0001
0000
1000
0100
0000
0010
0000
0001
,
0100
0000
0000
0000
0010
1000
0000
0100
1000
0000
0001
0100
0000
0010
0000
1000
,
0100
0000
1000
0001
1000
0100
0000
1000
0100
0000
1000
0100
0000
1000
0000
0001
,
1000
0000
0000
0000
0010
0100
0000
0001
0100
0000
0010
0100
0000
0001
0000
1000
,
0100
0000
0010
0001
0010
0001
0000
0010
0001
0000
0010
0001
0000
1000
0000
0010
,
1000
0000
0000
0000
0001
0100
0000
0001
0100
0000
0010
1000
0000
0100
0000
0010
,
0001
1000
1001
0001
0101
0100
0110
0010
,
1010
0000
1000
0000
0001
0100
0000
0100
0001
0000
1000
0010
0000
0100
0000
0001
,
0100
0000
0010
1000
0001
0000
0000
0000
1000
0100
0000
0010
0001
0000
0100
0010
,
0000
1000
0100
0000
1000
0000
0001
0000
0100
0010
0000
0100
0001
0000
1000
0100
,
0000
0010
0000
0001
0100
0000
0010
1000
0010
1000
0000
0001
0100
0000
0001
1000
,
0000
0100
0000
1000
0001
0000
0000
0000
1000
0100
0000
0010
0001
0000
0010
0100
,
0000
1000
0000
0001
1000
0000
0010
0000
0100
0001
0000
0010
0001
0000
0100
0001
,
0000
0100
0000
0010
1000
0000
0000
0000
0100
1000
0000
0010
1000
0000
0001
0100
,
0000
0010
0000
1000
0100
0000
0010
0000
0022
0000
0000
0000
0033
0000
0000
0000
,
0000
0000
0000
0000
0000
0000
0000
0000
1000
0001
1000
0000
0001
0010
0001
0000
,
1000
0100
1000
0000
0001
0100
0001
0000
1000
0100
1000
0000
0001
0100
0001
0000
,
2000
0000
0000
0000
3020
0000
0000
0000
0130
0001
0100
0000
0010
1000
0010
0000
,
1000
0100
1000
0000
0001
0010
0001
0000
1000
0001
1000
0000
0010
0100
0010
0000
,
1000
0001
1000
0000
0020
0000
0000
0000
0130
0001
0100
0000
0001
0010
0001
0000
,
1000
0100
0010
0000
0001
0100
0001
0000
1000
0100
1000
0000
0002
0000
0000
0000
,
2003
0000
0000
0000
3002
0000
0000
0000
0103
0010
0100
0000
0001
1000
0001
0000
,
0100
0010
1000
0000
0002
0000
0000
0000
0203
0000
0000
0000
0310
0000
1000
0000
,
0100
0010
0002
1000
1003
0010
0100
0001
,
1000
0100
0010
0001
1000
0100
0001
0100
,
1000
0001
0010
0001
1000
0010
1000
0100
1000
0000
0000
0000
0000
0000
0000
0000
;

//--------------- dance-single - ----------------
#NOTES:
     dance-single:
     :
     Challenge:
     17:
     1.235698,1.40595,0.018307,0.018307,2.187643,945,943,2,2,0,0,1.235698,1.40595,0.018307,0.018307,2.187643,945,943,2,2,0,0:
0000
0000
0000
0000
,
0000
0000
1000
0001
,
1000
0100
0010
0001
0100
0010
1000
0001
,
0010
0100
1000
0010
0100
0001
1000
0010
,
1000
0001
1000
0000
0001
0100
0001
0000
1000
0100
1000
0000
0001
0100
0001
0000
,
1000
0100
1000
0000
0001
0100
0001
0000
1000
0100
0010
0000
0001
0100
0010
0000
,
1000
0100
1000
0001
0010
0001
0100
0010
1000
0100
0010
0001
0100
0010
0100
0010
,
1000
0001
1000
0001
0100
0010
0100
0001
1000
0100
1000
0001
0100
0010
0100
0001
,
1000
0100
1000
0001
1000
0100
0010
0001
0100
0010
0100
0001
1000
0100
0010
0001
,
0100
0010
0100
0001
1000
0100
0010
0001
1000
0010
1000
0001
0100
0010
1000
0001
,
0100
0000
0000
0000
0001
1000
0001
0000
0100
0000
0010
0000
1000
0100
1000
0000
,
0001
0000
0100
0000
0010
1000
0010
0000
0100
0001
0100
0000
0020
0000
1000
0000
,
2030
0000
0001
0000
3002
0000
0010
0000
0013
0001
1000
0000
0010
0100
0010
0000
,
1000
0100
0010
0000
0001
0100
0001
0000
1000
0100
1000
0000
0001
0100
0001
0000
,
2000
0000
3100
0100
0010
0010
0001
0001
,
1000
0010
1000
0000
0001
0100
0001
0000
1000
0000
0010
0000
0100
0000
0001
0000
,
1000
0000
0100
0000
0010
0001
0010
0000
0100
1000
0100
0000
1000
0001
1000
0000
,
0010
0100
0001
0000
1000
0100
0010
0000
0100
1000
0001
0000
0100
0010
1000
0000
,
0001
0010
0100
0000
1000
0010
0100
0000
0001
1000
0100
0000
0010
0001
0100
0000
,
0010
1000
0100
0000
1000
0001
0100
0000
0010
1000
0100
0000
0010
0001
0100
0000
,
0010
0000
1000
0000
0010
0000
0000
0000
1000
0001
1000
0000
0010
0000
0100
0001
0000
1000
0100
0010
0001
0100
0010
0000
0100
0010
0100
0000
0001
0000
1000
0100
,
0000
0010
0001
0100
0010
1000
0001
0000
0100
0010
0100
0000
0001
0000
1000
0100
0000
0010
0001
0100
0010
1000
0001
0000
1000
0010
0100
0000
0001
0000
0010
0100
,
0000
1000
0010
0100
0001
0010
0001
1000
0001
0000
0010
0000
0100
0000
1000
0000
0010
0000
0000
0000
1000
0000
0100
0000
0000
0000
0010
0000
0001
0000
0100
0000
,
0010
1000
0001
0100
0001
0010
0001
0000
0011
0000
0001
0100
0000
0010
1000
0100
,
0010
0001
0100
0010
1000
0100
1000
0000
0011
0000
0010
0001
0000
0100
0010
0100
,
0001
1000
0100
0010
0100
1000
0010
0100
0001
0000
0001
0100
0000
0010
1000
0100
,
1000
0001
0010
0100
1000
0010
0100
0001
1000
0000
0100
0010
0000
0001
0100
0010
,
1000
0001
0010
0100
1000
0010
0100
0000
0110
0000
0010
1000
0000
0100
1000
0010
,
1000
0100
1000
0001
0010
0001
0100
0010
1000
0000
0100
0010
0000
0001
0100
0010
,
1000
0001
0010
0100
1000
0001
1000
0001
0100
0010
0100
0010
1000
0100
0010
0001
,
0100
0010
1000
0001
1000
0010
0100
0001
0100
0000
0010
1000
0000
0010
0000
0100
,
0001
1000
0010
1000
0100
0010
0000
0001
0100
0000
0010
1000
0000
0001
0000
0010
,
0100
0000
1000
0100
0010
0001
0100
0010
1000
0000
0001
0010
0000
0001
0100
0010
,
1000
0100
0010
0000
0001
0100
0010
1000
0100
0000
1000
0001
0000
0100
0010
0100
,
0001
0000
1000
0100
0010
0001
0100
0010
1000
0000
0001
0010
0000
0001
0100
0010
,
1000
0001
0010
0100
1000
0010
0000
0100
0001
0000
1000
0100
0000
0010
0000
0001
,
0100
0000
0010
1000
0100
1000
0001
0010
0100
0000
1000
0010
0000
0100
0000
0001
,
1000
0100
0010
0000
0001
0010
0001
0100
0001
0000
1000
0100
0000
1000
0000
0010
,
0100
0000
0001
0010
0001
0100
0010
1000
0001
0010
0100
1000
0010
0100
0001
0010
,
0001
1000
0100
0010
0100
1000
0001
1000
0010
0100
0001
1000
0010
0100
0001
0010
,
0100
1000
0001
0000
0101
0000
0100
0000
0101
0000
0010
0000
1010
0000
1000
0000
,
1100
0000
0001
0000
0101
0000
1010
0000
0110
0000
0101
0000
0001
1000
0100
0010
,
0001
0100
0010
1000
0001
0000
0000
0000
1000
0100
0000
0010
0001
0000
0100
0010
,
0000
1000
0000
0001
0100
0000
0010
0000
1000
0100
0000
0010
0001
0000
0100
0010
,
0000
1000
0000
0100
0001
0000
0010
0001
0100
0010
0000
1000
0100
0000
1000
0001
,
0000
0100
0000
0010
1000
0000
0000
0000
0100
0010
0000
0001
0100
0000
0010
1000
,
0000
0001
0000
0010
0100
0000
1000
0000
0001
0100
0000
0010
1000
0000
0001
0010
,
0000
0001
0000
0100
0010
0000
1000
0000
0100
0010
0000
0001
0100
0000
0010
1000
,
0000
0000
0001
0000
0000
0000
0010
0000
0100
0000
0000
0000
1000
0000
0001
0000
1000
0010
0000
0100
0001
0000
0100
0010
0000
1000
0000
1000
0010
0000
0000
0000
,
0100
0001
0000
0100
0010
0000
0100
0001
0000
0100
0000
0010
0100
0000
0001
0000
1000
0000
0100
0000
1000
0000
0000
0000
0001
0000
0010
0000
0001
0000
0000
0000
,
1000
0010
1000
0000
0001
0100
0001
0000
1000
0100
0010
0000
0001
0100
0010
0000
,
1000
0100
1000
0000
0001
0010
0100
0000
1000
0001
1000
0010
0100
0001
0010
0000
,
0100
1000
0100
1000
0001
0100
0010
0000
1000
0100
0010
0001
0100
0010
1000
0000
,
0001
0100
0010
1000
0100
1000
0001
0010
0001
0100
0010
1000
0100
1000
0001
0000
,
1000
0100
0010
0001
0100
0010
1000
0000
0001
0010
0001
0100
0001
1000
0100
1000
,
0001
0010
0001
0010
0100
1000
0100
1000
0001
0100
0001
0000
1000
0100
1000
0000
,
0001
0100
0001
0000
0100
0010
1000
0000
0010
0100
0010
0000
0100
0001
0010
0000
,
0001
0100
0010
0000
1000
0100
1000
0000
0001
0100
0001
0000
1000
0100
0010
0000
,
0001
0100
0010
0000
1000
0000
0100
0000
1000
0001
0010
0100
1000
0001
0100
0010
,
1000
0100
0010
0001
1000
0010
0100
0001
1000
0000
0000
0000
0000
0000
0000
0000
;
