#TITLE:The End Of The World;
#SUBTITLE:;
#ARTIST:Undercore;
#TITLETRANSLIT:;
#SUBTITLETRANSLIT:;
#ARTISTTRANSLIT:;
#GENRE:;
#CREDIT:;
#MUSIC:The End Of The World -unlimited fear mix- - UndeRCore.ogg;
#BANNER:../Banner.png;
#BACKGROUND:../BG.png;
#CDTITLE:../CDTitleBraeden.png;
#SAMPLESTART:68.529;
#SAMPLELENGTH:12.000;
#SELECTABLE:YES;
#OFFSET:-0.140;
#BPMS:0.000=125.000
,1.000=62.500
,9.000=125.000
,24.000=250.000
,147.000=125.000
,155.000=250.000
,330.000=62.500
,336.500=125.000
;
#STOPS:123.000=0.120
,124.500=0.120
,125.500=0.120
,127.000=0.120
,129.000=0.120
,130.000=0.120
,131.500=0.120
,132.500=0.120
,135.000=0.120
,136.000=0.120
,137.500=0.120
,139.500=0.120
,141.000=0.120
,142.000=0.120
;
#BGCHANGES:;
#FGCHANGES:;

//--------------- dance-single - ----------------
#NOTES:
     dance-single:
     :
     Beginner:
     5:
     0.411544,0.7142,0.330092,0.020006,0,288,255,33,2,0,0,0.411544,0.7142,0.330092,0.020006,0,288,255,33,2,0,0:
0000
0000
0000
0000
,
0000
0000
0000
0000
,
0000
1001
0000
0000
,
0010
0000
0000
1000
,
0000
0000
1000
0000
,
0000
0001
0000
0000
,
0001
0000
1001
0000
,
1000
0000
0010
0000
,
0100
0000
0001
0000
,
1000
0000
0010
0000
,
0100
0000
1001
0000
,
1000
0000
1001
0000
,
0001
0000
0100
0000
,
0010
0000
1000
0000
,
0000
0000
0001
0000
,
0100
0000
0010
0000
,
1000
0000
0001
0000
,
0100
0000
0010
0000
,
0100
0000
0001
0000
,
1000
0000
0010
0000
,
0100
0000
0001
0000
,
0010
0000
0100
0100
,
0100
0000
1001
0000
,
0001
0000
0100
0000
,
0010
0000
1001
0000
,
0001
0000
0100
0000
,
0010
0000
1001
0000
,
1000
0000
0010
0000
,
0100
0000
1000
0000
,
0001
0000
0100
0000
,
0010
0000
0100
0000
,
0000
0100
0000
0000
,
0010
0000
0000
0100
,
0000
0000
0010
0000
,
0000
0100
0000
0000
,
0010
0000
0000
1000
,
0000
0001
0000
1001
,
0000
0000
0000
0000
,
0000
0000
0000
1000
,
0000
0001
0000
1001
,
0000
0001
0000
0110
,
0000
1001
0000
1000
,
0000
0001
0000
1000
,
0000
0000
0001
0001
,
0000
0000
0000
0100
,
0000
0000
0010
0010
,
0000
0000
0000
1000
,
0000
0000
0010
0010
,
0000
0000
0000
0100
,
0000
0000
0001
0001
,
0000
0000
0000
1000
,
0000
0001
0000
1000
,
0000
0010
0000
0100
,
0000
0001
0000
1000
,
0000
0010
0000
0100
,
0000
0100
0000
0010
,
0000
0010
0000
1000
,
0000
1000
0000
0001
,
0000
0000
0000
1000
,
0000
0001
0000
1000
,
0000
0001
0000
0100
,
0000
0010
0000
0100
,
0000
0001
0000
1000
,
0000
0010
0000
0100
,
0000
0010
0000
1000
,
0000
0100
0000
0010
,
0000
0100
0000
1000
,
0000
0001
0000
1000
,
0000
0010
0000
0100
,
0000
0001
0000
1000
,
0000
0010
0000
0100
,
0000
0001
0000
1000
,
0000
0010
0000
1000
,
0000
0001
0000
0100
,
0000
0001
0000
1000
,
0000
0010
0000
1000
,
0000
0001
0000
1000
,
0000
0010
0000
1000
,
0000
0001
0000
0100
,
0000
0010
0000
0100
,
0000
0010
0000
1000
,
0000
0001
0000
1000
,
0000
0000
1001
0000
;

//--------------- dance-single - ----------------
#NOTES:
     dance-single:
     :
     Easy:
     12:
     0.478705,0.714554,0.130036,0.040011,0,335,322,13,4,0,0,0.478705,0.714554,0.130036,0.040011,0,335,322,13,4,0,0:
0000
0000
1001
0000
1000
1000
0001
0000
,
1000
0000
0010
1000
0010
0000
1000
0000
,
0001
1000
0010
0010
0000
0000
0000
0000
,
1000
1000
0000
0000
0000
0000
0001
0001
,
0000
0000
0000
0000
1000
1000
0000
0000
,
0000
0000
0010
0010
0000
0000
0000
0000
,
1000
0000
0001
0100
0001
0000
1000
0000
,
0010
0100
0001
0010
,
0100
1000
0001
0100
,
0010
1000
0001
0100
,
1001
0010
1001
1000
,
0001
0100
1001
0000
,
0000
1000
1000
0001
,
0001
0100
0200
0000
,
0300
0000
0010
1000
,
0010
1000
0001
0100
,
0100
0010
0100
1000
,
0010
0100
0010
1000
,
0010
0000
1000
0010
,
0100
0001
1000
0010
,
1000
0100
0010
0001
,
0100
0010
1000
1000
,
1000
0000
0001
1000
,
0001
1000
0010
0100
,
0001
1000
0100
0100
,
1000
1000
0001
0001
,
0100
0010
1000
0001
,
1000
0010
1000
0001
,
1000
0010
0100
0100
,
0001
0001
1000
1000
,
0010
0000
1000
0000
0001
0000
1000
1000
,
0000
0000
1000
0000
0000
1000
0000
0000
,
0010
0000
0000
0010
0000
0000
0100
0000
,
0000
0001
0000
0000
1000
0000
0000
0010
,
0000
0000
1000
0000
0000
0001
0000
0000
,
1000
0000
0010
0100
,
0001
1000
0001
2001
,
0000
0010
0000
0100
,
0000
0001
3001
1000
,
0000
0000
0000
0010
,
0000
0000
0000
1000
,
0000
0001
0000
1000
,
1000
1000
0000
0001
,
1000
0001
0000
0000
0100
0000
0010
0000
,
1000
0010
0000
0000
0000
0000
1000
0000
,
0001
1000
0000
0000
0010
0000
1000
0000
,
0010
1000
0000
0000
0000
0000
0001
0000
,
1000
0001
0000
0000
1000
0000
0001
0000
,
1000
0001
0000
0000
0000
0000
0010
0000
,
0000
1000
0010
0000
1000
0000
0010
0000
,
0010
1000
1000
0001
,
0100
0010
1000
0010
,
1000
0001
0100
0100
,
0010
1000
0100
0010
,
0001
0100
0010
1000
,
0001
1000
0010
1000
,
0001
1000
0001
0100
,
0001
0100
0010
1010
,
0000
0000
1001
0000
0000
0000
1000
0100
,
1000
0100
1000
0100
1000
0100
1000
0100
,
1000
0100
1000
0000
0000
0000
0001
1000
,
0001
1000
0001
1000
0001
1000
0001
1000
,
0001
1000
0001
0000
0000
0000
1000
0100
,
1000
0000
0000
0000
0000
0000
0001
1000
,
0001
0000
0000
0000
0000
0000
0001
0100
,
0001
0100
0010
1010
,
0000
1001
0000
1000
,
0100
0000
1000
0100
0000
0100
1000
0000
,
1000
0001
0000
0001
1000
0000
0001
0000
,
1000
0000
0010
1000
0000
1000
0010
0000
,
0100
0001
1000
0001
,
1000
0000
0001
0100
0000
0100
1000
0000
,
0010
1000
0000
1000
0001
0000
1000
0000
,
0001
0000
1000
0010
0000
1000
0010
0000
,
1000
0001
1000
0100
,
0001
0100
1000
0010
,
0001
0010
1000
0001
,
0100
1000
0001
0010
,
1000
0000
0001
0000
0000
0000
1000
0001
,
1000
0001
1000
0100
1000
0100
0010
0001
,
0010
0001
1000
0001
1000
0001
0100
0010
,
0100
0010
1000
0100
1000
0000
1001
0000
,
0101
1010
2002
0000
,
0000
0000
0000
0000
,
0000
3003
0000
0000
0000
0000
0000
0000
0000
0000
0000
0000
0000
0000
0000
0000
0000
0000
0000
0000
0000
0000
0000
0000
;

//--------------- dance-single - ----------------
#NOTES:
     dance-single:
     :
     Medium:
     16:
     0.925974,1.050294,0.32009,0.050014,0.235066,648,616,32,5,0,0,0.925974,1.050294,0.32009,0.050014,0.235066,648,616,32,5,0,0:
0000
0000
1100
0000
1000
0001
1000
0000
,
0010
0000
1000
0001
0100
0000
0010
0000
,
1000
0001
1001
1000
0000
0000
0001
0000
,
1000
0010
1000
0010
1000
0000
0001
0100
,
0000
0000
0010
0000
1000
0001
1000
0001
,
1000
0000
0001
0100
0000
0000
0000
0000
,
1001
0010
1001
0001
,
0100
0010
1000
0100
,
0010
0000
0001
1000
0001
0000
1000
0000
,
0010
0100
0001
1000
,
1001
0000
0001
0100
0002
0000
0103
0000
,
0010
1000
1001
1000
,
0010
0000
0100
0001
1000
0100
1000
0100
,
0010
0001
0010
0001
1000
0100
0010
0001
,
2000
0000
0000
0000
3001
0010
0100
1000
,
0001
0010
0100
1000
0010
0100
0001
1000
,
0100
0010
0001
0001
1000
0100
0010
0001
,
0010
0100
1000
0001
0100
0001
1000
0001
,
1000
0000
0001
0100
0001
0100
0010
1000
,
0001
1000
0100
0010
0001
0100
0010
1000
,
0001
1000
0001
0001
1000
0010
0100
0001
,
0100
0010
1000
0001
1001
0000
1010
0000
,
0101
0000
1000
0001
1000
0001
0100
0010
,
1000
0100
0010
0100
0010
0001
0100
0010
,
0100
0001
1000
0100
1000
0100
0010
0100
,
1000
0001
0100
0010
1000
0100
0010
0100
,
0010
0000
0001
1000
0001
1000
0010
0100
,
0001
1000
0010
1000
0001
0010
0100
1000
,
0100
0000
0000
0010
0000
0000
0001
0000
0000
0010
0000
0000
0001
0000
1000
0000
0001
0000
1000
0000
0001
0000
1000
0000
,
0001
1000
0001
1000
0001
1000
0010
0100
0010
0100
0010
0100
,
0010
0000
0100
0000
0010
0000
0100
0000
0010
0000
0100
0000
0010
0000
0000
1000
0000
0000
0010
0000
0000
1000
0000
0000
,
0100
0010
0100
1000
0010
0100
0001
1000
,
0001
0100
0010
0010
1000
0001
0100
0010
,
1000
0100
1000
0100
0010
0001
0010
0010
,
0100
1000
0001
0100
0010
0100
0010
1000
,
0100
0010
0001
0100
0010
1000
0100
0010
,
0001
0100
0010
1000
0001
1000
0002
0000
,
0013
0000
0200
0000
1300
0010
0100
0001
,
1000
0000
0010
0000
0100
0000
0001
0000
1000
0001
1000
0001
0100
0000
0010
0000
,
1000
0100
0010
0001
0010
0001
1000
0001
,
0100
0010
1000
0000
0001
0100
0001
0010
,
0100
1000
0100
1000
0001
1000
1010
0000
,
1001
0000
0101
0000
1001
0001
0100
0010
,
1000
0100
0010
0100
1000
0001
0100
0010
,
1000
0100
1000
0000
1000
0001
0100
0010
,
1000
0010
0100
0001
0100
0010
1000
0100
,
0010
0001
1000
0000
1000
0001
1000
0001
,
0100
0010
1000
0100
0010
0001
0100
0010
,
1000
0001
1000
0000
0001
0100
0010
1000
,
0100
0010
0100
1000
0010
0100
0010
0001
,
0010
0001
0010
0001
0010
0001
1000
0100
,
1000
0001
1000
0100
1000
0010
0100
0001
,
0010
0000
0001
1000
0001
0000
0010
0000
0100
0000
1000
0001
1000
0000
0001
0000
,
0010
0000
0100
0000
1000
0000
0001
1000
0001
0000
0100
0000
0010
0000
1000
0000
,
0010
0000
0100
0000
0001
0000
1000
0000
0010
0000
1000
0000
0010
0000
1000
0010
,
1000
0001
0100
0010
1000
0100
1000
0100
,
1000
0000
0010
0000
0100
0000
0001
0000
1000
0000
0001
0100
0001
0000
0100
0000
,
0010
1000
0100
1000
0001
1000
1001
0000
,
0101
0000
1010
0000
1001
0000
1000
0001
,
1000
0001
0100
0010
0100
0010
1000
0100
,
1000
0001
1000
0000
1001
0000
1000
0001
,
0100
0010
1000
0100
0010
0100
1000
0001
,
0100
0000
0010
0000
1000
0000
0000
0000
1000
0000
0001
0000
1000
0100
1000
0000
,
0001
0000
1000
0000
0001
0010
0001
0000
1000
0000
0001
0000
1000
0100
1000
0000
,
0001
0000
1000
0000
0001
0000
0000
0000
1001
0000
0000
0000
1000
0100
1000
0000
,
0001
0000
1000
0000
0001
0100
0001
0000
1000
0000
0010
0000
0110
0000
0000
0000
,
1001
0000
1010
0000
1001
0000
1000
0100
,
0001
0100
0010
0001
0100
1000
0100
0001
,
1000
0000
1000
0100
0010
0001
1000
0001
,
0100
0010
1000
0100
0001
0100
1000
0000
,
1001
0000
0000
0000
0101
0000
0000
0000
1001
0000
0000
0000
0001
1000
0001
0000
,
1000
0000
0001
0000
1000
0001
1000
0000
0010
0000
1000
0000
0001
0100
0001
0000
,
1000
0010
1000
0100
0010
0001
1000
0010
,
1000
0010
0100
0001
0100
0001
1000
0000
,
1001
0000
1100
0000
1001
1000
0001
0100
,
1000
0100
0001
0010
0100
1000
0100
0001
,
0100
0010
0100
1000
0010
1000
0001
0100
,
0010
1000
0100
0001
0100
1000
0010
0100
,
0001
1000
0001
0010
0100
1000
0001
0100
,
0010
1000
0100
1000
0001
0010
0001
1000
,
0100
1000
0001
0010
0001
0100
0001
1000
,
0001
1000
0001
1000
0001
1000
0100
0000
,
1001
0000
0000
0000
0000
0000
0000
0000
1010
0000
0000
0000
0000
0000
0000
0000
2001
0000
0000
0000
0000
0000
0000
0010
0000
0010
0000
0000
0000
0000
0000
0000
,
0000
0000
0000
0001
0000
0001
0000
0000
0000
0000
0000
0000
0000
0000
0000
0010
0000
0010
0000
0000
0000
0000
0000
0000
0000
0000
0000
0001
0000
0001
0000
0000
,
3000
0000
0000
0000
;

//--------------- dance-single - ----------------
#NOTES:
     dance-single:
     :
     Hard:
     18:
     1.053152,1.260353,0.340095,0.07002,0.655183,737,703,34,7,0,0,1.053152,1.260353,0.340095,0.07002,0.655183,737,703,34,7,0,0:
0000
0000
0000
0000
1001
0000
1000
0000
0001
0100
0001
0000
1000
0000
0000
0000
,
0001
0000
0000
0000
1000
0001
1000
0000
0010
0000
0000
0000
1000
0000
0000
0000
,
0001
1000
0001
0000
1001
0000
1000
0000
0000
0000
0000
0000
0000
0000
0000
0000
,
0001
0001
1000
1000
0010
0000
1000
1000
,
0000
0000
0001
0000
1000
1000
0010
0010
,
1000
0000
0001
0001
0000
0000
1000
0000
,
1001
0000
0001
1000
1001
0000
1000
0001
,
0000
1000
0100
1000
0000
0001
0010
0001
,
0000
1000
0010
1000
0000
0001
0100
0001
,
0000
1000
0100
0010
0000
0001
1000
0000
,
1001
0000
0001
0100
0101
0000
0010
0000
,
1000
0001
1001
1000
,
0010
0000
0100
0001
1000
0100
1000
0100
,
0010
0001
0010
0001
1000
0100
0010
0001
,
2000
0000
0000
0000
3001
0010
0100
1000
,
0001
0010
0100
1000
0010
0100
0001
1000
,
0100
0000
0010
0000
0001
1000
0001
1000
0001
0000
0100
0000
0010
0000
1000
0000
,
0100
0010
0001
1000
0010
1000
0001
1000
,
0001
0000
0001
0100
0001
0100
0010
1000
,
0001
1000
0100
0010
0001
0100
0010
1000
,
0001
0000
1000
0000
0001
1000
0001
1000
0001
0000
0010
0000
0100
0000
1000
0000
,
0100
0010
0001
1000
1001
0000
1010
0000
,
0101
0000
1000
0001
1000
0001
0100
0010
,
1000
0100
0010
0100
0010
0001
0100
0010
,
0100
0000
0001
0000
1000
0100
1000
0100
1000
0000
0100
0000
0010
0000
0100
0000
,
1000
0001
0100
0010
1000
0100
0010
0100
,
0110
0000
0001
1000
0001
1000
0010
0100
,
0001
1000
0010
1000
0001
0010
0100
1000
,
0100
0000
0000
0000
0000
0000
0010
0000
0000
0000
0000
0000
0001
0000
0000
0010
0000
0000
0001
0000
0000
0010
0000
0000
0001
0000
0000
0000
0010
0000
0000
0000
0001
0000
0000
0000
1000
0000
0000
0000
0100
0000
0000
0000
1000
0000
0000
0000
,
0100
0010
0100
0010
0001
0010
0001
0010
0100
0010
0100
1000
,
0100
0000
0010
0000
0100
0000
0010
0000
0001
0000
1000
0000
0001
0000
0000
1000
0000
0000
0010
0000
0000
1000
0000
0000
,
0100
0010
0100
1000
0010
0100
0001
1000
,
0001
0100
0010
0010
1000
0001
0100
0010
,
1000
0100
0001
0100
0010
0001
0010
0010
,
0100
1000
0001
0100
0010
0100
0010
1000
,
0100
0010
0001
0100
0010
1000
0100
0010
,
0001
0100
0010
1000
0001
1000
0002
0000
,
0013
0000
0200
0000
1300
0010
0100
0001
,
1000
0000
0010
0000
0100
0000
0001
0000
1000
0001
1000
0001
0100
0000
0010
0000
,
1000
0100
0010
0001
0010
0001
0200
0301
,
0100
0010
1000
0000
0001
0100
0002
0013
,
0100
1000
0200
1300
0001
1000
1010
0000
,
1001
0000
0101
0000
1001
0001
0100
0010
,
1000
0100
0010
0100
1000
0001
0100
0010
,
1000
0100
1000
0000
1000
0001
0100
0010
,
1000
0010
0100
0001
0100
0010
1000
0100
,
0010
0001
1000
0000
1000
0001
1000
0001
,
0100
0010
1000
0100
0010
0001
0100
0010
,
1000
0001
1000
0000
0001
0100
0010
1000
,
0100
0010
0100
1000
0010
0100
0010
0001
,
0010
0001
0010
0001
0010
0001
1000
0100
,
1000
0001
1000
0100
1000
0010
0100
0001
,
0010
0100
0010
0100
0010
0000
0001
0000
1000
0000
0001
0010
0001
0000
1000
0000
,
0001
0000
0100
0000
0010
0000
1000
0001
1000
0000
0001
0000
0010
0000
0001
0000
,
0010
0000
0001
0000
0100
0000
0010
0000
1000
0010
1000
0010
1000
0000
0001
0100
,
0001
1000
0010
0100
0001
0010
0001
0010
,
0001
0000
0100
0000
0010
0000
1000
0000
0001
0000
1000
0010
1000
0000
0010
0000
,
0100
0001
0010
0001
1000
0001
1001
0000
,
0101
0000
0000
0000
1010
0000
0000
0000
1001
0000
0000
0000
1000
0001
1000
0001
,
1000
0000
0010
0000
0100
0000
0001
0000
1000
0000
0100
0000
0010
0001
0100
0010
,
1000
0000
0010
0000
0100
0000
0000
0000
0101
0000
0000
0000
0010
1000
0010
1000
,
0010
0000
0100
0000
0001
0000
0010
0000
0100
0000
1000
0000
0001
1000
0001
0010
,
0001
0000
1000
0000
0010
0000
0000
0000
1000
0000
0001
0000
1000
0100
1000
0000
,
0001
0000
1000
0000
0001
0010
0001
0000
1000
0000
0001
0000
1000
0100
1000
0000
,
0001
0000
1000
0000
0001
0000
0000
0000
1001
0000
0000
0000
1000
0100
1000
0000
,
0001
0000
1000
0000
0001
0100
0001
0000
1000
0000
0010
0000
0110
0000
0000
0000
,
1001
0000
0000
0000
1010
0000
0000
0000
1001
0000
0000
0000
1000
0100
1000
0100
,
1000
0000
0000
0000
0001
0010
0001
0010
0001
0000
0000
0000
1000
0001
1000
0001
,
1000
0000
0000
0000
1000
0000
0100
0000
0010
0000
0001
0000
1000
0100
1000
0100
,
1000
0000
0000
0000
0001
0010
0001
0010
0001
0000
1000
0000
0001
0000
0000
0000
,
1001
0000
0000
0000
0101
0000
0000
0000
1001
0000
0000
0000
0001
1000
0001
0000
,
1000
0000
0001
0000
1000
0001
1000
0000
0010
0000
1000
0000
0001
0100
0001
0000
,
1000
0000
0010
0000
1000
0000
0100
0000
0010
0000
0001
0000
1000
0001
1000
0000
,
0100
0010
0100
0000
1000
0001
1000
0000
0010
0100
0010
0000
1000
0000
0000
0000
,
1001
0000
0000
0000
1100
0000
0000
0000
1001
0000
1000
0000
0001
1000
0010
1000
,
0001
0000
0100
0000
0010
0000
1000
0000
0001
0000
0010
0000
0100
1000
0001
0100
,
0001
0000
1000
0000
0001
0000
0000
0000
1000
0000
0010
0000
1000
0001
1000
0010
,
1000
0001
0100
0010
1000
0100
0010
0001
,
0100
0000
0010
0000
1000
0000
0010
0000
1000
0000
0100
0000
1000
0001
1000
0000
,
0001
0000
0100
0000
0001
1000
0001
0000
1000
0000
0001
0000
1000
0100
1000
0000
,
0010
0000
0100
0000
0001
0100
0001
0000
0100
0000
0010
0000
1000
0100
1000
0010
,
0100
0001
0010
0100
1000
0001
0010
0100
0010
0001
0100
0010
1000
0000
0000
0000
,
1001
0000
0000
0000
0000
0000
0000
0000
1010
0000
0000
0000
0000
0000
0000
0000
2001
0000
0000
0000
0000
0000
0000
0010
0000
0010
0000
0000
0000
0000
0000
0000
,
0000
0000
0000
0001
0000
0001
0000
0000
0000
0000
0000
0000
0000
0000
0000
0010
0000
0010
0000
0000
0000
0000
0000
0000
0000
0000
0000
0001
0000
0001
0000
0000
,
3000
0000
0000
0000
;

//--------------- dance-single - ----------------
#NOTES:
     dance-single:
     :
     Challenge:
     20:
     1.190333,1.386388,0.400112,0.050014,1.025287,833,793,40,5,0,0,1.190333,1.386388,0.400112,0.050014,1.025287,833,793,40,5,0,0:
0000
0000
0000
0000
1001
0000
1000
0000
0001
0100
0001
1000
0010
0000
1000
0100
,
0010
0000
0000
0000
0001
0000
0010
0000
0100
0000
1000
0000
1001
0000
0001
0000
0100
0000
0000
0000
0010
0000
1000
0000
0001
0000
0000
0001
0000
0000
1000
0000
,
0010
0010
0010
1000
1001
0000
0001
0000
1000
0000
0010
0000
0100
0000
0000
0000
,
0001
0000
0001
0000
1000
0000
0010
0000
0000
0100
0001
0100
0000
0010
1000
0010
,
0000
1000
0100
1000
0000
0001
0010
0001
1000
0000
1000
0000
0001
0000
0001
0000
,
0000
1000
0010
0100
0001
0000
0001
0000
0000
1000
0001
1000
0010
0000
0010
0000
,
1000
0000
0001
1000
1001
0000
1000
0001
,
0000
1000
0100
1000
0000
0001
0010
0001
,
0000
1000
0010
1000
0000
0001
0100
0001
,
0000
1000
0100
0010
0000
0001
1000
0000
,
1001
0000
0001
0100
0101
0000
0010
0000
,
1000
0001
1001
1000
,
0010
0000
0100
0001
1000
0100
1000
0100
,
0010
0001
0010
0001
1000
1000
0001
0001
,
1000
0100
0010
0001
1000
0001
0100
0010
1000
0000
0100
0000
0010
0000
0001
0000
,
0100
0010
0100
0001
0010
0100
1000
0010
,
0100
0000
0001
0000
1000
0001
1000
0001
1000
0000
0100
0000
0010
0000
0001
0000
,
0100
0010
1000
0100
0010
0100
1000
0001
,
1000
0001
0100
0001
0010
0100
1000
0010
,
0100
0001
0100
0010
1000
0100
0010
0001
,
1000
0000
0100
0000
0010
0001
0010
0100
0010
0000
0001
0000
0100
0000
0001
0000
,
0100
0010
1000
0001
1001
0000
1010
0000
,
0101
0000
1000
0001
1000
0001
0100
0010
,
1000
0100
0010
0100
0010
0001
0100
0010
,
0100
0000
0001
0000
1000
0100
0010
0001
1000
0000
0100
0000
0010
0000
0100
0000
,
1000
0001
0100
0010
1000
0100
0010
0100
,
0110
0000
0001
1000
1001
1000
0010
0100
,
0001
1000
0010
1000
1001
0001
0100
0010
,
1000
0000
0000
0000
0000
0000
0001
0000
0000
0000
0000
0000
1000
0000
0000
0001
0000
0000
1000
0000
0000
0001
0000
0000
1000
0000
0000
0000
0100
0000
0000
0000
1000
0000
0000
0000
0001
0000
0000
0000
0010
0000
0000
0000
0001
0000
0000
0000
,
1000
0100
0010
0001
0100
0001
1000
0100
0010
0001
0100
0001
,
1000
0000
0100
0000
0010
0000
0001
0000
0100
0000
0001
0000
1000
0000
0000
1000
0000
0000
0010
0000
0000
1000
0000
0000
,
0100
0010
0100
1000
0010
0100
0001
1000
,
0002
0100
0103
0010
1000
0001
0100
0010
,
1000
0100
0010
0100
0020
0001
0031
1000
,
0010
0100
0101
0001
1000
0100
0010
0001
,
1000
0100
0010
0100
0010
0001
0100
0010
,
1000
0000
0100
0000
0010
0001
0010
0100
1000
0010
0100
0001
2000
0000
0000
0000
,
3010
0000
0200
0000
0301
1000
0010
0100
,
0001
0000
1000
0000
0100
0000
0010
0000
0001
1000
0001
1000
0001
0000
0100
0000
,
0010
1000
0100
0010
0001
1000
1001
0001
,
0100
0010
1000
0000
0001
0100
0101
0010
,
1000
0100
1100
1000
0001
1000
1010
0000
,
1001
0000
0101
0000
1001
0001
0100
0010
,
1000
0100
0010
0100
1000
0001
0100
0010
,
1000
0001
1000
0000
1000
0001
0100
0010
,
1000
0010
0100
0001
0100
0010
1000
0100
,
0010
0001
1000
0000
0001
1000
1001
0001
,
0100
0010
1000
0100
0010
0001
0100
0010
,
1000
0001
1000
0000
0001
0100
0010
1000
,
0100
0010
0100
1000
0010
0100
0010
1000
,
0010
1000
0010
1000
0010
1000
0100
0010
,
0001
0010
0100
1000
0001
0100
0010
1000
,
0001
1000
0010
0100
0001
0000
1000
0000
0010
0000
1000
0001
1000
0000
0010
0000
,
0100
0000
0001
0000
1000
0000
0100
0010
0100
0000
0010
0000
0001
0000
0100
0000
,
0010
0000
0100
0000
0010
0000
1000
0000
0001
0100
0010
1000
0001
0000
1000
0001
,
0010
0010
0100
1000
0001
0100
0010
1000
,
0001
0000
0010
0000
0100
0000
1000
0000
0001
0000
0100
0010
0100
0000
0010
0000
,
1000
0100
1000
0001
1000
0001
1001
0000
,
0101
0000
0000
0000
1010
0000
0000
0000
1001
0000
0000
0000
1000
0100
0010
0001
,
1000
0010
0100
0001
0010
0100
1000
0001
0100
0010
0100
0001
0010
0001
1000
0100
,
0010
0001
1000
0001
0010
0000
0000
0000
1001
0000
0000
0000
0001
0010
0100
1000
,
0001
1000
0100
0010
0001
0010
0100
1000
0001
0100
0010
1000
0010
0100
0001
0100
,
0010
1000
0100
1000
0001
0000
0000
0000
1000
0000
0001
0000
1000
0100
0010
0001
,
0010
0100
1000
0001
0100
0010
0100
0001
0010
0001
1000
0010
0100
0001
0010
0100
,
1000
0001
0100
0010
1000
0000
0000
0000
1001
0000
0000
0000
1000
0100
0010
0001
,
0010
0100
1000
0001
0100
0010
1000
0100
0010
0100
1000
0001
1000
0000
0000
0000
,
1001
0000
0000
0000
1010
0000
0000
0000
1001
0000
0000
0000
1000
0001
1000
0100
,
0010
0001
1000
0010
0100
0001
0010
0100
1000
0001
0100
0010
0100
0001
1000
0100
,
0010
0001
1000
0010
1000
0000
0100
0000
0010
0000
0001
0000
1000
0001
0010
0100
,
1000
0001
0100
0010
0100
0001
1000
0100
0010
0001
1000
0010
1000
0000
0000
0000
,
1001
0000
0000
0000
0101
0000
0000
0000
1001
0000
0000
0000
0001
1000
0100
1000
,
0001
0010
0100
1000
0001
0100
0010
0100
0001
0010
0001
1000
0100
0010
0001
1000
,
0010
0100
0001
1000
0001
0000
0100
0000
0010
0000
1000
0000
0010
0100
0001
1000
,
0100
0010
0100
1000
0001
0010
0100
1000
0001
0100
0010
1000
0010
0000
0000
0000
,
1001
0000
0000
0000
1100
0000
0000
0000
1001
0000
1000
0000
0100
1000
0001
0100
,
0010
0100
0001
0010
0100
1000
0001
0100
0010
1000
0100
0010
0001
0010
0100
1000
,
0001
0100
0010
1000
0001
0000
0000
0000
1000
0000
0010
0000
1000
0100
0010
0001
,
0010
0001
1000
0001
1000
0100
1000
0001
0010
0001
1000
0100
1000
0001
0010
0001
,
1000
0001
0010
0001
1000
0000
0010
0000
1000
0000
0100
0000
1000
0001
1000
0010
,
1000
0001
0010
0100
1000
0001
0100
0010
0100
0001
0010
0001
1000
0100
0010
0001
,
0010
0100
1000
0001
0100
0010
0100
0001
0010
0100
1000
0001
0100
0010
0100
0001
,
0010
0001
1000
0100
0010
0001
1000
0010
0100
0001
0100
0001
0010
0000
0000
0000
,
0101
0000
0000
0000
0000
0000
0000
0000
1010
0000
0000
0000
0000
0000
0000
0000
2001
0000
0000
0000
0000
0000
0000
0010
0000
0010
0000
0000
0000
0000
0000
0000
,
0000
0000
0000
0001
0000
0001
0000
0000
0000
0000
0000
0000
0000
0000
0000
0010
0000
0010
0000
0000
0000
0000
0000
0000
0000
0000
0000
0001
0000
0001
0000
0000
,
3000
0000
0000
0000
;

//--------------- dance-double - ----------------
#NOTES:
     dance-double:
     :
     Challenge:
     20:
     1.117456,1.386388,0.310087,0.060017,0.915256,782,751,31,6,0,24,1.117456,1.386388,0.310087,0.060017,0.915256,782,751,31,6,0,24:
00000000
00000000
00000000
00000000
00022000
00000000
00000000
00000000
00100000
00100000
00100000
00000000
00000000
00000000
00000000
00000000
,
00000010
00000000
00000000
00000010
00000000
00000000
00000000
00000000
00100000
00000000
00100000
00000000
00100000
00000000
00000000
00000000
00000000
00000000
00000000
00000000
00000000
00000000
00000000
00000000
00000010
00000000
00000000
00000010
00000000
00000000
00000000
00000000
,
00033000
00000000
00101000
00001000
00000000
00000000
00000000
00000000
,
00001000
00010000
00000010
00010000
00000000
00000000
00000001
00001000
,
00000000
00000000
00000000
00000000
10000000
01000000
00010000
00001000
,
00000000
00000000
00000001
00000001
00000000
00000000
00000000
00000000
,
00011000
00000000
00001000
00100000
00101000
00000000
00010000
00000100
,
00000000
00001000
00000001
00001000
00000000
00000001
00000100
00000001
,
00000000
00001000
00000010
00001000
00000000
00000001
00010000
00000100
,
00000000
00010000
00001000
00100000
00000000
00010000
10000000
00010000
,
10010000
00000000
00010000
01000000
01010000
00000000
00100000
00000000
,
10000000
00001000
00101000
00010000
,
00000010
00000000
00000100
00000001
00001000
00000100
00010000
00001000
,
00010000
00000100
00001000
00000001
00000100
00000010
00001000
00000010
,
00010000
00001000
00010000
00001000
00010000
00001000
00010000
00001000
00010000
00000000
00001000
00000000
00100000
00000000
00010000
00000000
,
01000000
00010000
01000000
00010000
00100000
01000000
10000000
00100000
,
01000000
00000000
00010000
00000000
10000000
00010000
10000000
00010000
10000000
00000000
00100000
00000000
01000000
00000000
00001000
00000000
,
00010000
00000010
00000100
00000001
00000100
00000010
00010000
00001000
,
00100000
00000000
00010000
00001000
00010000
00001000
00100000
00001000
,
01000000
00010000
10000000
00010000
00100000
00001000
00010000
00001000
,
00010000
00000000
00001000
00000000
00010000
00000100
00010000
00000100
00010000
00000000
00001000
00000000
00100000
00000000
00010000
00000000
,
00100000
00001000
00010000
00000010
00001010
00000000
00000101
00000000
,
00001001
00000000
00000001
00000001
00000001
00000100
00000010
00010000
,
00000010
00000100
00000010
00010000
00000010
00000100
00000001
00000010
,
00000100
00000000
00001000
00000000
00000001
00000010
00000001
00000010
00000001
00000000
00001000
00000000
00000100
00000000
00010000
00000000
,
00001000
00010000
00000010
00000100
00001000
00000100
00000010
00010000
,
00001000
00000100
00001000
00100000
01000000
00100000
00001000
00100000
,
00001000
01000000
00100000
10000000
01000000
00100000
01000000
10000000
,
00010000
00000000
00000000
00000000
00000000
00000000
10000000
00000000
00000000
00000000
00000000
00000000
00010000
00000000
00000000
10000000
00000000
00000000
00010000
00000000
00000000
10000000
00000000
00000000
01000000
00000000
00000000
00000000
10000000
00000000
00000000
00000000
01000000
00000000
00000000
00000000
10000000
00000000
00000000
00000000
01000000
00000000
00000000
00000000
10000000
00000000
00000000
00000000
,
01000000
00100000
01000000
00100000
01000000
00100000
00010000
00100000
00010000
00100000
00010000
00100000
,
00001000
00000000
00100000
00000000
00001000
00000000
00100000
00000000
00001000
00000000
00100000
00000000
00001000
00000000
00000000
00010000
00000000
00000000
00000100
00000000
00000000
00001000
00000000
00000000
,
00000001
00000100
00000010
00010000
00001000
00100000
00010000
00100000
,
00000100
00001000
00000100
00000001
00000100
00001000
00000010
00010000
,
00001000
01000000
00100000
10000000
01000000
10000000
00010000
00100000
,
00001000
00100000
00010000
10000000
01000000
00100000
01000000
10000000
,
00100000
01000000
00001000
00010000
00000100
00010000
00001000
00100000
,
00010000
00000000
10000000
00000000
00001000
00010000
00001000
00010000
00001000
00010000
00001000
00010000
00002000
00000000
00000000
00000000
,
02000000
00100000
00100000
00000000
10000000
00000000
10000000
00000000
,
00000010
00000000
00000010
00000000
03003000
00000000
01001000
01000000
,
00001000
00010000
00000010
00000100
00000010
00010000
00001000
00010000
,
00000010
00000100
00000010
00010000
00001000
00100000
00000010
00000100
,
00000010
00001000
00000001
00001000
00000100
00000010
00000110
00000000
,
00000101
00000000
00001001
00000000
00000001
00001000
00000100
00000010
,
00000001
00001000
00000100
00000001
00000100
00001000
00000010
00000100
,
00000001
00001000
00000100
00000000
00010000
00001000
00100000
00010000
,
01000000
00100000
10000000
01000000
00100000
01000000
10000000
00010000
,
01000000
00100000
10000000
00000000
00010000
10000000
00010000
00100000
,
00001000
00100000
00000100
00100000
00001000
00100000
00010000
10000000
,
00010000
10000000
00010000
00000000
10000000
01000000
00010000
00001000
,
00000100
00000001
00000100
00001000
00010000
01000000
10000000
10000000
,
00010000
00010000
00100000
00100000
00001000
00001000
00010000
00010000
,
00000001
00000010
00000001
00001000
00000010
00000100
00000001
00010000
,
00001000
00000000
00010000
00000000
00000010
00000000
00000100
00000000
00000001
00000000
00001000
00000001
00001000
00000000
00000010
00000000
,
00000100
00000000
00000001
00000000
00010000
00000000
00001000
00010000
00001000
00000000
10000000
00000000
00100000
00000000
10000000
00000000
,
00001000
00000000
01000000
00000000
00100000
00000000
10000000
00000000
00001000
00010000
00001000
00010000
00001000
00000000
01000000
00000000
,
00100000
00000000
10000000
00100000
10000000
00000000
00001000
00000000
00010000
00000000
00001000
00000000
00010000
00000000
00000010
00000000
,
00010000
00000000
00000010
00000000
00010000
00000000
00001000
00000000
00010000
00001000
00010000
00001000
00010000
00000000
00001000
00000000
,
01000000
00100000
10000000
01000000
00100000
01000000
11000000
00000000
,
01010000
00000000
00000000
00000000
10100000
00000000
00000000
00000000
10010000
00000000
00000000
00000000
10000000
00010000
10000000
00010000
,
10000000
00010000
10000000
00010000
10000000
00010000
10000000
00010000
10000000
00010000
10000000
00010000
10000000
00010000
10000000
00010000
,
10000000
00010000
10000000
00010000
10000000
00000000
00000000
00000000
00100000
00000000
00000000
00000000
01000000
00001000
01000000
00001000
,
01000000
00001000
01000000
00001000
01000000
00001000
01000000
00001000
01000000
00001000
01000000
00001000
01000000
00001000
01000000
00001000
,
01000000
00001000
01000000
00001000
01000000
00000000
00000000
00000000
00001000
00000000
00010000
00000000
00000100
00001000
00000100
00001000
,
00000100
00001000
00000100
00001000
00000100
00001000
00000100
00001000
00000100
00001000
00000100
00001000
00000100
00001000
00000100
00001000
,
00000100
00001000
00000100
00001000
00000100
00000000
00000000
00000000
00001100
00000000
00000000
00000000
00001000
00000001
00001000
00000001
,
00000100
00000010
00000100
00000010
00001000
00000001
00000100
00000001
00001000
00000010
00001000
00000001
00001000
00000000
00000000
00000000
,
00001001
00000000
00000000
00000000
00010010
00000000
00000000
00000000
00011000
00000000
00000000
00000000
00001000
00010000
00001000
00010000
,
00001000
00010000
00001000
00010000
00001000
01000000
00001000
01000000
00001000
01000000
00001000
01000000
00010000
01000000
00010000
01000000
,
00010000
01000000
00010000
01000000
00100000
00000000
10000000
00000000
00100000
00000000
01000000
00000000
00001000
00010000
00001000
00010000
,
00001000
00010000
00001000
00010000
00001000
01000000
00001000
01000000
00001000
01000000
00001000
01000000
00001000
00000000
00000000
00000000
,
00101000
00000000
00000000
00000000
00010100
00000000
00000000
00000000
00001010
00000000
00000000
00000000
00000001
00001000
00000001
00001000
,
00000001
00000010
00000100
00001000
00000100
00000010
00000001
00001000
00000100
00001000
00000001
00000010
00000001
00001000
00000100
00000010
,
00000001
00000010
00000100
00001000
00000100
00000000
00010000
00000000
00001000
00000000
00100000
00000000
00001000
00010000
00001000
00010000
,
00000010
00010000
00000010
00010000
00000010
00000100
00000010
00000100
00000001
00000100
00000001
00000100
00000001
00000000
00000000
00000000
,
00000101
00000000
00000000
00000000
00001001
00000000
00000000
00000000
00001010
00000000
00000010
00000000
00010000
00001000
00010000
00001000
,
00010000
00001000
00010000
00001000
00010000
00001000
00010000
00001000
00010000
00001000
00010000
00001000
00010000
00001000
00010000
00001000
,
00010000
00001000
00010000
00001000
00010000
00000000
00000000
00000000
00001000
00000000
01000000
00000000
00100000
10000000
00100000
10000000
,
00010000
01000000
00010000
01000000
00010000
00100000
00010000
00100000
00001000
00100000
00001000
00100000
00010000
00100000
00010000
00100000
,
00010000
00100000
01000000
10000000
00010000
00000000
10000000
00000000
01000000
00000000
10000000
00000000
01000000
00100000
01000000
00100000
,
00010000
00100000
00010000
00100000
00001000
00100000
00001000
00100000
00001000
00010000
00001000
00010000
00000100
00010000
00000100
00010000
,
00000100
00001000
00000100
00001000
00000001
00001000
00000001
00001000
00000001
00000100
00000001
00000100
00000010
00001000
00000010
00001000
,
00000010
00010000
00000010
00010000
00001000
00010000
00001000
00010000
00001000
01000000
00001000
01000000
00010000
00000000
00000000
00000000
,
00110000
00000000
00000000
00000000
00000000
00000000
00000000
00000000
00101000
00000000
00000000
00000000
00000000
00000000
00000000
00000000
02000200
00000000
00000000
00000000
00000000
00000000
00000000
00100000
00000000
00100000
00000000
00000000
00000000
00000000
00000000
00000000
,
00000000
00000000
00000000
00000010
00000000
00000010
00000000
00000000
00000000
00000000
00000000
00000000
00000000
00000000
00000000
00100000
00000000
00100000
00000000
00000000
00000000
00000000
00000000
00000000
00000000
00000000
00000000
00010000
00000000
00010000
00000000
00000000
,
03000300
00000000
00000000
00000000
;
