#TITLE:Shock;
#SUBTITLE:;
#ARTIST:Beast;
#TITLETRANSLIT:;
#SUBTITLETRANSLIT:;
#ARTISTTRANSLIT:;
#GENRE:;
#CREDIT:;
#MUSIC:Shock.ogg;
#BANNER:ban.png;
#BACKGROUND:bg.png;
#CDTITLE:;
#SAMPLESTART:0.000;
#SAMPLELENGTH:0.000;
#SELECTABLE:YES;
#OFFSET:-0.177;
#BPMS:0.000=67.490
,16.000=134.979
,24.000=202.470
,26.000=134.979
,58.000=67.490
,59.000=134.979
,131.000=202.470
,133.000=134.979
;
#STOPS:24.000=0.037
,24.250=0.037
,24.500=0.037
,24.750=0.037
,25.000=0.037
,25.250=0.037
,25.500=0.037
,25.750=0.037
,131.000=0.037
,131.250=0.037
,131.500=0.037
,131.750=0.037
,132.000=0.037
,132.250=0.037
,132.500=0.037
,132.750=0.037
;
#DISPLAYBPM:67.000:135.000;
#BGCHANGES:;
#FGCHANGES:;

//--------------- dance-single - ----------------
#NOTES:
     dance-single:
     :
     Beginner:
     3:
     0,0,0,0,0:
0000
0000
0000
0000
,
0020
0000
0030
0000
,
0200
0000
0300
0000
,
0002
0000
0003
0000
,
2000
0000
0000
3000
,
0001
0000
0001
0000
,
1000
0000
1000
1000
,
1000
0000
0001
0000
,
0100
0000
0010
0010
,
0010
0000
1000
0000
,
0001
0000
0001
0001
,
0000
0000
0001
0000
,
0200
0300
0010
0000
,
2000
3000
0001
0000
,
1000
0000
0002
2003
,
3000
0001
0000
0100
,
0200
0000
0300
0010
,
0000
0010
0000
0000
,
0002
0000
0003
2000
,
3000
0002
0003
0000
,
0000
0020
0030
0001
,
0000
1000
0000
2000
,
0000
3000
0000
0002
,
0000
0003
0000
2000
,
3000
0000
0000
0200
,
0000
0300
0000
0010
,
0010
0000
1000
2000
,
0000
3000
0000
0002
,
0003
0000
0000
0020
,
0000
0030
0000
0100
,
0000
0000
0000
2000
,
0000
0000
3000
0001
,
0000
1000
0000
0001
,
0000
1000
0000
0000
,
MMMM
0000
0001
0000
,
MMMM
0000
1000
0000
,
0001
0000
0100
0000
,
0010
0000
1000
0000
,
MMMM
0000
0100
0000
,
MMMM
0000
0010
0000
,
1000
0000
0001
0000
,
1000
0000
0000
0100
,
0100
0100
0000
0010
,
0000
0001
0000
1000
,
1000
1000
0000
0100
,
0000
0010
0000
0001
,
0001
0001
0000
1000
,
0000
0010
0000
0100
,
0100
0100
0000
0001
,
0000
1000
0000
1001
;

//--------------- dance-single - ITG 3 ----------------
#NOTES:
     dance-single:
     ITG 3:
     Easy:
     5:
     0,0,0,0,0:
0000
0000
0000
0000
,
0002
0000
0000
0000
,
2003
0000
3020
0000
,
2030
0000
3020
0030
,
2020
0000
0000
0030
,
3001
0100
0010
1000
,
0001
1000
0001
1000
,
0001
0000
2000
0000
,
3001
0000
0010
0010
,
2000
3000
0002
0003
,
1000
0000
0100
0100
,
1000
1001
0000
1001
,
0002
0103
0000
0010
,
2000
3001
0100
0010
,
1000
0001
2000
3002
,
1003
0100
1000
1000
,
0200
0000
0310
0002
,
1003
0010
0100
0001
,
2000
0000
3001
0200
,
0302
2003
3000
0002
,
0000
2003
3020
0230
,
0301
1000
0100
0010
,
0010
0001
1000
0002
,
0000
1003
0000
1001
,
0000
0001
0000
0200
,
0000
0310
1000
0001
,
1000
0000
0001
2000
,
0000
3001
0000
0200
,
0300
0010
0000
2000
,
0000
3001
0100
0010
,
1000
0000
0001
0200
,
0000
0000
0000
0310
,
1000
0100
0010
0001
,
1000
0001
0100
0010
,
MMMM
0100
0010
1000
,
MMMM
0001
0100
0001
,
1000
0010
0100
0001
,
1000
0100
0010
0100
,
MMMM
0100
0010
1000
,
MMMM
0100
1000
0010
,
0000
0100
0001
0100
,
0010
1000
0100
2000
,
0000
3001
0100
0000
,
0010
1000
0010
0100
,
1000
0100
1000
0010
,
0100
0001
1000
0100
,
0100
0100
1000
0010
,
0100
0001
0010
0100
,
0100
1000
0010
0100
,
0001
0010
0100
1001
;

//--------------- dance-single - ITG 7 ----------------
#NOTES:
     dance-single:
     ITG 7:
     Medium:
     10:
     0,0,0,0,0:
0000
0000
0000
0000
,
0002
0000
0000
0000
,
1003
0000
0010
1000
0000
0000
0001
0100
0020
0000
0000
0000
0000
0000
0000
0000
,
2030
0000
3002
0000
,
2003
0000
3001
0000
0100
0000
0010
1000
,
0001
0100
0001
0100
0010
1000
0010
1000
,
0001
0001
0001
0001
1000
0010
1000
0010
,
0200
0000
0301
1000
0020
0000
0030
0000
,
1000
0000
0000
0001
0000
0000
1000
0000
1001
0000
0000
0000
1001
0000
0000
0000
,
0020
0000
0130
0010
1000
0100
1000
0010
,
1000
0000
0000
1000
0000
0000
0001
0000
1001
0000
0000
0000
1002
0000
0000
0000
,
1003
0000
0010
0000
0010
0000
0000
0000
1000
0001
1000
0001
1000
0000
0010
0000
,
0200
0000
0000
0000
0301
0000
1000
0000
0100
0000
0010
0001
1000
0000
0000
0000
,
0010
0000
1000
0000
0010
0000
0100
0000
0001
0000
0000
1000
0000
0000
0001
0000
,
0100
0010
1000
0100
0020
0000
0032
0000
,
1003
0010
0001
0010
0100
0010
0001
0010
,
2000
0000
0000
0000
3001
0010
2000
0000
,
3010
0001
0100
0010
1000
0100
0001
0100
,
2000
0010
3000
1000
0010
0100
0002
0000
,
0203
0000
0320
0000
1030
0002
0000
0000
,
1003
0010
0100
0000
0102
0000
1003
0100
,
0010
0001
0100
0010
1000
0001
0010
0100
,
2000
0000
0000
0000
3001
0100
0002
0000
,
1003
0000
0001
0000
1000
0000
0000
0010
0000
0000
0100
0000
0001
0000
0000
0000
,
1000
0000
0100
0000
0010
0000
0000
0001
0000
0000
0100
0000
0020
0000
0000
0000
,
1030
0001
1000
0100
0010
0001
0100
0100
,
0010
1000
0000
0001
1000
0010
2000
0000
,
3001
0000
0100
0000
0010
0000
0000
1000
0000
0000
0001
0000
0100
0000
0001
0000
,
0001
0100
0001
1000
0010
0100
0002
0000
,
1003
0010
0100
0001
1000
0100
0010
0010
,
0001
0100
0010
1000
0001
1000
0200
0000
,
0000
0000
0000
0000
0300
0000
0010
0100
,
1000
0010
0100
0001
1000
0010
0100
0100
,
0100
0100
0010
1000
0001
1000
0010
0000
,
MMMM
0000
1000
0010
0100
0001
1000
0000
,
MMMM
0000
1000
0100
1000
0010
0100
0001
,
1000
0100
0010
0001
0100
0010
0000
1000
,
0001
1000
0010
0100
0001
0010
0100
0000
,
MMMM
0000
1000
0001
1000
0010
0100
0000
,
MMMM
0000
0000
0000
0010
0000
1000
0000
0100
0000
1000
0000
0001
0000
1000
0001
,
0000
1000
0010
0100
0001
0020
0000
0130
,
1000
0002
0000
1003
0010
1000
0002
0000
,
0203
0000
0320
0000
1030
0100
0000
1000
,
0000
0001
1000
0010
1000
0001
0200
0000
,
0320
0000
0230
0000
0310
1000
0001
0100
,
0010
1000
0100
0000
0011
0000
0002
0000
,
0023
0000
0230
0000
0310
0100
0000
0010
,
0000
0001
0100
0010
1000
0001
1000
0100
,
0001
0100
1000
0010
0100
0001
0000
1000
,
0100
1000
0001
0000
1000
0001
1001
0000
;

//--------------- dance-single - ITG 8 ----------------
#NOTES:
     dance-single:
     ITG 8:
     Hard:
     11:
     0,0,0,0,0:
0000
0000
0000
0000
,
0002
0000
0000
0000
0000
0000
0000
0000
0000
0000
0000
0000
0003
1000
0001
1000
,
0200
0000
0010
0010
0000
0000
1000
1300
0020
0000
0000
0000
0000
0000
1030
0001
,
0200
0000
0320
0030
,
2001
0000
3002
0000
0203
0000
0301
0100
,
0001
0010
0100
1000
0001
0100
0010
1000
,
0001
1000
0001
1000
0010
0100
0001
1000
0001
0000
0100
0000
0001
0000
0100
0000
,
0101
0000
0000
0000
0010
0000
1000
0000
0020
0000
0000
1000
0000
0000
1000
0000
,
1030
0000
0001
1000
0000
0001
0100
0000
0020
0000
0000
0000
2030
0001
0000
0000
,
3002
0000
0000
0000
1003
0000
0010
0000
0200
0000
0001
0000
0000
0310
0000
0000
,
0001
0000
1000
0001
0000
1000
0010
0000
0200
0000
0000
0000
0301
1000
0001
0000
,
2000
0000
0010
0000
3010
0000
0000
0000
0100
0001
0100
0001
0000
0000
1000
0000
,
0001
0000
0100
0000
0101
0000
0001
0000
1000
0001
1000
0001
1000
0020
0000
0000
,
0130
0000
0001
0000
0010
0000
1000
0000
0010
0000
0001
0100
0010
0000
1000
0000
,
0001
0100
0000
0001
0100
0000
0010
0000
2000
0000
0000
0000
3002
0000
0000
0000
,
1003
0100
0001
0100
1000
0010
0100
0001
,
0200
0000
0000
0310
1010
0000
2000
0000
,
3001
1000
0100
0001
0100
0010
0100
1000
,
0002
0100
0000
0100
0103
0010
2000
0000
,
3040
0000
0130
0001
1000
0200
0000
0310
,
0001
0100
0010
1000
1001
0001
0100
0001
,
0010
0001
0100
0010
1000
0100
0001
0100
,
1000
0000
0010
0000
0100
0000
0001
1000
0001
0000
0100
0000
0020
0000
0000
0000
,
1000
0000
1000
0000
1030
0000
0000
0100
0010
0000
0001
0000
2000
0000
0000
0000
,
3010
0010
0100
0001
0100
0010
0200
0000
,
0300
0000
0001
0000
0001
0000
1000
0000
0010
0100
0001
0000
1000
0000
1000
0000
,
0001
2000
0000
3001
0100
0010
2000
0000
,
3001
0000
0100
0000
1000
0000
0000
0100
0000
0000
0001
0000
1000
0000
0010
0000
,
0100
0001
0010
0001
0100
0010
2000
0000
,
0000
3001
0100
0001
0010
0001
0100
0100
,
0010
1000
0001
1000
0001
1000
2002
0000
,
0000
0000
0000
0000
0003
0000
3001
0010
,
0100
0000
1000
0000
0001
0000
0100
0000
0010
0000
1000
0000
0001
0100
0001
0100
,
0010
1000
0010
0100
0001
0000
0010
0000
0100
0000
1000
0000
0001
0000
0000
0000
,
MMMM
0000
0001
0010
0100
1000
0001
0000
,
MMMM
1000
0001
1000
0010
0100
0001
0010
,
0010
0100
1000
0001
0100
0010
0100
0001
,
1000
0010
0100
0001
0100
0010
1000
0000
,
MMMM
0000
0001
0010
0100
1000
0001
0000
,
MMMM
0000
0100
0000
0001
0000
0100
0000
0010
0000
1000
0000
0001
0000
1000
0010
,
0000
1000
0001
1000
0100
0001
0100
1000
,
0010
0100
0001
0010
0100
1000
1001
0000
,
0101
0000
1010
0000
1000
0001
0100
0010
,
1000
0001
1000
0100
1000
0100
1100
0000
,
0011
0000
0000
0000
1020
0000
0000
0000
1030
0000
0010
0000
1000
0000
0100
0010
,
0001
0100
0001
0001
0010
0100
1100
0000
,
1001
0000
0021
0000
0031
2000
0000
3010
,
1000
0100
1000
0001
0010
0100
1000
0100
,
0001
0100
1000
0001
0010
0200
0000
0310
,
0001
0100
0002
0000
1003
0001
1001
0000
;

//--------------- dance-single - ITG 10 ----------------
#NOTES:
     dance-single:
     ITG 10:
     Challenge:
     15:
     0,0,0,0,0:
0000
0000
0000
0000
,
0002
0000
0000
0000
0000
0000
0000
0000
0000
0000
0000
0000
0003
1000
0001
0010
,
0200
0000
1300
0002
0000
0000
1003
0100
2000
0000
0000
0000
3000
0000
0001
1000
,
0002
0000
0000
0013
0000
0001
1000
0100
0020
0000
0000
0000
0000
0000
0030
0000
,
0021
0000
0032
0000
2003
0000
3100
0010
,
0001
0100
0010
1000
0001
0010
0100
1000
0001
0100
0010
1000
0001
0010
0100
1000
,
0001
0010
0001
0010
0100
1000
0100
1000
0001
0000
0011
0000
0110
0000
0100
1000
,
0001
0000
0000
1000
0001
0000
0010
0000
0200
0000
1000
0000
1300
0001
0000
0000
,
2000
0000
3001
0010
0100
0010
0001
0000
0010
0000
0100
0000
1000
0010
1000
0000
,
1002
0000
0000
0013
0100
0000
1000
0000
0001
0000
0020
0000
0031
0100
0000
0000
,
0010
0000
1000
0001
0010
0100
1000
0000
0001
0000
0100
0000
0001
1000
0001
0000
,
2000
0000
3001
0010
0100
0000
1000
0000
0001
0100
0010
1000
0002
0010
0000
0000
,
0203
0000
1000
0000
1300
0000
0100
0001
0010
0100
1000
0001
0020
0001
0000
0000
,
0230
0000
1300
0001
0010
0000
0100
0000
1000
0000
0001
0010
0100
0000
1000
0000
,
0001
0010
0100
0010
0001
0000
1000
0100
0020
0000
0030
0001
0020
0000
0031
0100
,
0010
0000
1000
0100
1000
0010
1000
0001
0200
0010
0000
0000
0302
0000
0100
0000
,
0013
0000
0100
1000
0010
0100
0001
0000
1020
0000
1000
0000
2030
0000
3001
0100
,
0001
0000
1000
0100
0010
0001
1000
0000
0001
0100
0010
0000
1000
0000
0010
0000
,
2010
0000
3001
0100
0001
0010
0001
0100
0010
1000
0100
0000
0020
0000
0031
1000
,
0001
0000
0100
0000
0020
0000
1000
0000
1030
0001
0010
0000
0200
0000
1000
0000
,
1300
0010
1000
0100
0010
0000
0001
0000
2000
0000
0100
0000
3100
0000
0010
0001
,
1000
0000
0010
0000
0100
0001
0010
0001
0100
0010
0100
0000
0010
0000
1010
0000
,
1001
0000
0001
0000
1000
0100
0010
0100
1000
0000
0001
0000
1000
0100
1000
0100
,
0010
0001
1000
0010
1000
0100
1000
0001
0010
0001
1000
0010
1000
0100
0010
0001
,
1000
0010
0100
0001
1000
0100
1000
0001
0100
0001
1000
0100
1000
0001
1000
0001
,
0100
0010
1000
0100
0010
0001
0010
0001
1000
0000
0001
0000
2000
0000
0001
0000
,
3100
0000
0002
0000
0000
0000
1003
0000
0001
0100
0040
0000
1030
0100
1000
0100
,
0010
0001
0100
0010
1000
0100
1000
0001
0010
0001
1000
0100
1000
0010
0100
0001
,
1000
0010
1000
0100
0010
0001
0010
0100
1000
0100
1000
0010
0100
0001
0100
0001
,
1000
0100
0010
0100
1000
0000
0001
0000
1001
0000
1000
0000
0001
0000
0010
0000
,
0110
0000
0100
0000
0100
0000
1000
0001
0010
0000
0001
0000
2002
0000
0000
0000
,
0000
0000
0000
0000
0000
0000
0000
0000
3000
0000
0000
0000
1003
0010
0100
0001
,
1000
0100
0010
0001
1000
0010
0100
0001
1000
0100
0010
0100
1000
0001
1000
0001
,
0100
0001
1000
0010
1000
0000
0001
0000
1001
0000
1000
0100
0010
0000
0000
0000
,
MMMM
0000
0000
0000
0100
0000
0010
0000
0001
1000
0001
0000
1001
0000
0000
0000
,
MMMM
0010
0100
0010
0001
0100
0020
1000
,
1030
0000
0100
0000
0010
0001
0010
0000
0200
0000
0001
0000
0301
0000
0010
0001
,
1000
0010
0100
0000
0001
0010
0001
0000
2000
0000
0001
0000
3001
0000
0000
0000
,
MMMM
0000
0000
0000
1000
0000
0100
0000
0010
0001
1000
0000
1100
0000
0000
0000
,
MMMM
0000
0100
0000
0010
0000
0010
0000
0002
0000
1000
0000
1003
0000
0100
0010
,
0200
0000
1000
0000
1300
0010
0100
0000
0001
1000
0100
0000
0010
0000
0001
0100
,
0001
1000
0100
0000
0010
0001
0100
0000
0101
0000
0001
0000
1000
0100
1000
0010
,
1000
0001
0100
0001
2000
0000
0100
0000
3100
0010
0100
0010
0100
0000
0010
0001
,
1000
0000
0001
0000
1000
0000
0001
0000
1001
0000
1000
0000
0100
0010
0100
1000
,
0100
0010
0100
1000
0100
0000
0010
0000
0001
0000
0001
0000
1001
0000
1000
0001
,
0100
0001
1000
0000
0010
0100
0001
0000
1001
0000
1000
0000
0001
0100
0001
0010
,
0100
1000
0010
1000
0200
0000
0010
0000
0310
0001
0010
0000
0001
0000
1000
0000
,
1001
0001
0010
0100
1100
1000
0002
0010
,
0013
0000
0001
1000
0100
0010
0001
0000
1000
0001
2000
0000
0100
0000
3100
0010
,
0100
1000
0001
0000
1000
0000
0000
0000
0001
0000
1000
0000
1001
0000
0000
0000
;

//--------------- dance-single - ----------------
#NOTES:
     dance-single:
     :
     Edit:
     10:
     0,0,0,0,0:
0000
0000
0000
0000
,
0002
0000
0000
0000
0000
0000
0000
0000
0000
0000
0000
0000
0003
1000
0010
0100
,
0002
0000
2003
0000
,
3020
0000
0230
0000
,
0302
0000
2003
0000
3002
0000
1003
0010
,
1000
1000
1000
1000
0001
0001
0001
0001
,
MMMM
0000
MMMM
0000
MMMM
0000
1000
0001
,
1000
0000
0000
0000
MMMM
0000
0001
0000
0200
0000
0010
0000
0300
0010
0000
0000
,
1000
0000
0000
0001
0000
0000
0100
0000
MMMM
0000
0000
0000
MMMM
0000
0010
0000
,
1000
0000
0000
0000
1001
0000
0001
0000
0100
0000
0010
0000
0000
1000
0000
0000
,
0001
0000
0000
0010
0000
0000
0010
0000
MMMM
0000
0000
0000
MMMM
0000
0000
0000
,
1000
0000
0001
0000
0100
0000
0000
0000
0010
1000
0010
1000
0000
0000
0010
0000
,
0200
0000
0001
0000
0301
0000
1000
0000
0100
0000
0010
0001
0000
1000
0000
0000
,
0001
0000
1000
0000
1001
0000
0001
0000
0100
0000
0010
1000
0000
0000
0001
0000
,
0100
0010
1000
0100
0010
0000
MMMM
0000
,
0001
1000
0010
0100
0001
0010
0100
1000
,
0002
0003
MMMM
2000
,
3001
0010
1000
0010
0001
0100
0010
1000
,
0200
0000
0300
0000
MMMM
1000
0002
0000
,
1003
0000
MMMM
0000
0001
0100
0000
0010
,
1000
0001
1000
0000
1100
1000
0001
0100
,
0010
0100
0001
0010
0100
1000
0001
0100
,
0010
0000
MMMM
0000
1000
0001
2000
0000
,
3001
0000
0010
0000
0100
0000
0000
1000
0000
0000
0001
0000
MMMM
0000
0000
0000
,
1000
0000
0001
0000
0100
0000
0000
0010
0000
0000
1000
0000
MMMM
0000
0000
0000
,
0101
0001
0100
0010
1000
0001
0100
0100
,
0010
1000
0100
0010
0001
0100
0020
0000
,
1030
0000
0001
0000
1000
0000
0000
0010
0000
0000
0100
0000
MMMM
0000
0001
0000
,
1000
0000
0010
0000
0100
0000
0000
0001
0000
0000
0010
0000
0001
0000
0000
0000
,
MMMM
0001
1000
0010
0100
0001
0100
0100
,
0010
0000
1000
0000
0100
0000
0010
0001
0010
0000
0100
0000
1000
0000
0000
0000
,
MMMM
0000
MMMM
0000
0000
0000
0001
1000
,
0010
0100
0001
0010
0100
1000
0001
0001
,
1000
1000
0001
0100
0010
1000
MMMM
0000
,
MMMM
0000
0001
0010
0100
1000
MMMM
0000
,
MMMM
0001
0100
0001
0100
0010
1000
0001
,
0010
0100
1000
0001
0100
0010
0000
1000
,
0100
0010
0001
0100
0010
1000
MMMM
0000
,
MMMM
0000
0001
0100
0001
0010
0001
0000
,
MMMM
0000
1000
0000
0100
0000
0010
0000
0001
0000
0100
0000
0010
0000
1000
0001
,
0000
1000
0100
0010
0001
0100
0000
0010
,
0000
2000
0000
0000
3001
1000
0001
MMMM
,
0001
MMMM
0001
0000
MMMM
1000
0000
0010
,
1000
0001
0100
0100
0010
1000
0100
MMMM
,
0010
MMMM
0100
0000
MMMM
0010
0000
0100
,
0001
0010
MMMM
0000
MMMM
0000
1000
MMMM
,
1000
MMMM
0001
0000
1001
1000
0000
0001
,
MMMM
1000
0001
0100
0010
1000
0001
0010
,
0100
1000
0010
0100
0001
0010
0000
0100
,
0000
1000
0001
0000
1000
0001
1001
0000
;

//--------------- dance-double - ----------------
#NOTES:
     dance-double:
     :
     Challenge:
     16:
     0,0,0,0,0:
00000000
00000000
00000000
00000000
,
00002000
00000000
00000000
00000000
00000000
00000000
00000000
00000000
00000000
00000000
00000000
00000000
00003000
00010000
00001000
00100000
,
00020000
00000000
01000000
01000000
00000000
00000000
10000000
10000000
20030000
00000000
00000000
00000000
00000000
00000000
30100000
01000000
,
00020000
00000000
00230000
00300000
,
00021000
00000000
00030020
00000000
00000230
00000000
00000301
00001000
,
00000010
00001000
00000100
00010000
00000010
00001000
00000100
00010000
00000100
00001000
00000100
00010000
00001000
00100000
00010000
00100000
,
00010000
10000000
01000000
10000000
00010000
10000000
00100000
10000000
00010000
00000000
01000000
00000000
00010000
00000000
01000000
00001000
,
00010000
00000000
00000000
00000000
MMMM1100
00000000
00000100
00000000
00002000
00000000
00003100
00000000
00001000
00000100
00001000
00000000
,
00000010
00000000
00000100
00000001
00000000
00010000
00001000
00000000
0011MMMM
00000000
00000000
00000000
MMMM1100
00000000
00000100
00000000
,
00010000
00000000
00001000
00100000
00010000
00000000
10000000
00000000
00010000
00000000
10000000
00000000
00110000
10000000
01000000
00000000
,
00100000
00000000
00001000
00010000
00000000
00010000
00001000
00000000
MMMM1000
00000000
00000000
00000000
0001MMMM
00000000
00100000
00010000
,
00100000
00000000
00001000
00000000
00010000
00000000
00001000
00000000
00100000
00010000
00100000
00001000
00010000
00000000
00000100
00000000
,
00002000
00000000
00000001
00000000
00003011
00000000
00001000
00000010
00000100
00000001
00001000
00000010
00001000
00000100
00000000
00000000
,
00001100
00000000
00000100
00010000
00001000
00000000
00010000
00000000
00001000
00000000
00010000
00001000
00110000
00000000
00001000
00000000
,
00010000
00001000
00000000
00100000
00010000
00100000
00001000
10000000
00400000
00000000
00000000
00000000
01300000
00000000
00000000
00000000
,
01001000
00000000
00001000
00010000
00001000
00100000
00010000
00100000
00001000
00010000
00001000
00000000
00020000
00000000
00000010
00000000
,
00031000
00000000
00010000
00001000
00010000
00000010
00000100
00000010
00010000
00001000
00000000
00000000
00010010
00000000
00000000
00000000
,
00000110
00000000
00000010
00000100
00000001
00000010
00000100
00001000
00000010
00000100
00000001
00001000
00000100
00000000
00000010
00000000
,
00000011
00000000
00000100
00001000
00000010
00010000
00001000
00010000
00000010
00000000
00001000
00000000
00000002
00000000
00000003
00000000
,
00001001
00000000
00001000
00000000
00000100
00000000
00010000
00000000
00001100
00010000
00001000
00000000
00010000
00000000
00010000
00001000
,
00110000
00000000
00001000
01000000
00100000
00000000
10000000
00010000
11000000
00000000
00010000
00000000
01000000
00000000
00100000
10000000
,
01000000
00000000
00100000
00000000
00010000
10000000
00100000
10000000
00010000
00000000
01000000
00000000
00001000
00000000
00010000
00001000
,
00010000
00000000
00001000
00000000
01000000
00100000
10000000
00010000
10000000
00000000
00010000
00000000
10000000
01000000
10000000
00100000
,
10000000
00010000
10000000
01000000
00100000
00010000
00100000
00001000
00010000
00001000
00010000
00000100
00001000
00000010
00000100
00000001
,
00000010
00000100
00001000
00000010
00000100
00000001
00000010
00000100
00001000
00000001
00000100
00000010
00010000
00001000
00010000
00000100
,
00001000
00000100
00010000
00001000
00100000
00010000
00100000
00001000
00020000
00000000
00001000
00000000
00031000
00000000
00100000
00000000
,
00110000
00000000
00020000
00000000
00000000
00000000
10030000
00000000
00010000
10000000
00400000
00000000
01300000
00010000
00100000
00001000
,
01000000
00010000
00100000
00001000
00010000
00000100
00001000
00000010
00010000
00000100
00001000
00000010
00010000
00000100
00001000
00000001
,
00000100
00000010
00001000
00000100
00000010
00000001
00000100
00000010
00001000
00000001
00000010
00000100
00001000
00000010
00000100
00000010
,
00010000
00001000
00010000
00001000
00010000
00000000
00001000
00000000
01001000
00000000
01000000
00000000
00100000
00000000
10000000
00000000
,
10100000
00000000
00100000
00000000
01000000
00000000
00010000
00100000
00001000
00000000
00010000
00000000
00022000
00000000
00000000
00000000
,
00000000
00000000
00000000
00000000
00000000
00000000
00000000
00000000
00033000
00000000
00000000
00000000
00010000
00000100
00001000
00000100
,
00010000
00000100
00001000
00000100
00010000
00001000
00100000
00010000
00100000
00010000
01000000
00100000
10000000
01000000
00100000
00010000
,
01000000
00100000
10000000
00010000
00100000
00000000
00001000
00000000
00010000
00000000
00000100
00001000
MMMM0100
00000000
00000000
00000000
,
0011MMMM
00000000
00000000
00000000
00100000
00000000
00001000
00000000
00010000
00000000
00000100
00001000
MMMM0100
00000000
00000000
00000000
,
00110000
00000000
00001000
00000000
00010000
00001000
00010000
00001000
00100000
00010000
01000000
00100000
10000000
01000000
00100000
00010000
,
01000000
00100000
10000000
00010000
01000000
00100000
10000000
01000000
00100000
00010000
01000000
00001000
00010000
00001000
00100000
00010000
,
00100000
00001000
00010000
00000010
00000100
00000010
MMMM1000
00000000
,
0011MMMM
00000000
00010000
00001000
00010000
00000100
MMMM1000
00000000
,
0011MMMM
00000000
00010000
00000000
01000000
00000000
00100000
00000000
10000000
00000000
00010000
00000000
10000000
00000000
00010000
01000000
,
00110000
00000000
01000000
00000000
00001000
00000000
00010000
00000000
00001100
00000000
00010000
00000000
00001000
00000000
00010000
00000100
,
00001000
00000100
00010000
00001000
00010000
00000000
00001000
00000000
00010000
00000000
00000010
00000000
00001000
00000010
00000100
00000001
,
00001000
00000100
00000010
00000001
00001000
00000010
00000100
00000001
00001000
00000000
00000100
00000000
00000000
00000000
00001000
00000000
,
00001100
00000100
00010000
00001000
00010000
00001000
01000000
00000100
,
01000000
00000100
01000000
00001000
00011000
00010000
00000000
00010000
,
00001000
00000000
00010000
00000000
MMMMMMMM
00000000
00000000
00000000
MMMMMMMM
00000000
00000000
00000000
00001000
00010000
00001000
00100000
,
00010000
00100000
00001000
00010000
00001000
00100000
00010000
00100000
00001000
01000000
00100000
01000000
00001000
00000000
00010000
00000000
,
00011000
00001000
00010000
00000100
00001000
00000001
00000100
00001000
,
00010000
00000000
00100000
00000000
10000000
00000000
00100000
00000000
00010000
00000000
00001000
00000000
00000010
00000000
00000001
00001000
,
00000100
00010000
00001000
00000000
00010000
00000000
00000000
00000000
00001000
00000000
00010000
00000000
00001100
00000000
00000000
00000000
;
