#TITLE:Right Now;
#SUBTITLE:;
#ARTIST:SR-71;
#TITLETRANSLIT:;
#SUBTITLETRANSLIT:;
#ARTISTTRANSLIT:;
#GENRE:;
#CREDIT:;
#MUSIC:Right Now.ogg;
#BANNER:;
#BACKGROUND:;
#CDTITLE:;
#SAMPLESTART:0.000;
#SAMPLELENGTH:0.000;
#SELECTABLE:YES;
#OFFSET:-0.426;
#BPMS:0.000=232.605
,292.000=116.303
,296.000=232.605
,424.000=116.303
,432.000=232.605
;
#STOPS:226.000=1.548
,424.000=1.548
,425.000=1.548
;
#BGCHANGES:;
#FGCHANGES:;

//--------------- dance-single - ----------------
#NOTES:
     dance-single:
     :
     Beginner:
     5:
     0,0,0,0,0:
0000
0000
0000
0000
,
0000
0000
1000
0000
,
0000
0000
0001
0000
,
0000
0000
0100
0000
,
0000
0000
0010
0000
,
0000
0000
1000
0000
,
0000
0000
0001
0000
,
1000
0000
0001
0000
,
1000
0000
1001
0000
,
0001
0000
0200
0000
,
0300
0000
0010
0000
,
1000
0000
0002
0000
,
0003
0000
0100
0000
,
0010
0000
2000
0000
,
3000
0000
0001
0000
,
1000
0000
0100
0000
,
0010
0000
1001
0000
,
0000
0000
0001
0000
,
0000
0000
1000
0000
,
0001
0000
1000
0000
,
0000
0000
1001
0000
,
0001
0000
0100
0000
,
0000
0000
0010
0000
,
1000
0000
0001
0000
,
0100
0000
1001
0000
,
0001
0000
0100
0000
,
0010
0000
1001
0000
,
1000
0000
0100
0000
,
0010
0000
1001
0000
,
0001
0000
0100
0000
,
0010
0000
1000
0000
,
0100
0000
0010
0000
,
0001
0000
1001
0000
,
1000
0000
0020
0000
,
0030
0000
1000
0000
,
0000
0000
0001
0000
,
1000
0000
0000
0000
,
0001
0000
0020
0000
,
0030
0000
0010
0000
,
0000
0000
0100
0000
,
0010
0000
1001
0000
,
0001
0000
0200
0000
,
0300
0000
0010
0000
,
0000
0000
1000
0000
,
0100
0000
0010
0000
,
0001
0000
0100
0000
,
0010
0000
1000
0000
,
0001
0000
1000
0000
,
0010
0000
1001
0000
,
1000
0000
0001
0000
,
0000
0000
0100
0000
,
0010
0000
1000
0000
,
0100
0000
0010
0000
,
0000
0000
0001
0000
,
0000
0000
0100
0000
,
0000
0000
0010
0000
,
0000
0000
1001
0000
,
1001
0000
0001
0000
,
0100
0000
0010
0000
,
1000
0000
0100
0000
,
0010
0000
0001
0000
,
0100
0000
0010
0000
,
1000
0000
0001
0000
,
1001
0000
1000
0000
,
0001
0000
0000
0000
,
1000
0000
0001
0000
,
0001
0000
0000
0000
,
0001
0000
1000
0000
,
0100
0000
0000
0000
,
0010
0000
0001
0000
,
1000
0000
0100
0000
,
1001
0000
0001
0000
,
0100
0000
0010
0000
,
1001
0000
0000
0000
,
1001
0000
0001
0000
,
0200
0000
0300
0000
,
0001
0000
0000
0000
,
1000
0000
0100
0000
,
0010
0000
0001
0000
,
2000
0000
3000
0000
,
0001
0000
0000
0000
,
1000
0000
0001
0000
,
1001
0000
0001
0000
,
0200
0000
0300
0000
,
0010
0000
0000
0000
,
1000
0000
1000
0000
,
0001
0000
0001
0000
,
0100
0000
0010
0000
,
1000
0000
0001
0000
,
1000
0000
0001
0000
,
0100
0000
0000
0000
,
0010
0000
0000
0000
,
1000
0000
0001
0000
,
1000
0000
0001
0000
,
0100
0000
0000
0000
,
0010
0000
0000
0000
,
1000
0000
0000
0000
,
0001
0000
0000
0000
,
1000
0000
0000
0000
,
0010
0000
0000
0000
,
1000
0000
0000
0000
,
0010
0000
0000
0000
,
1000
0000
0000
0000
,
0100
0000
0000
0000
,
1000
0000
0000
0000
,
0010
0000
0000
0000
,
1001
0110
1001
0000
,
0000
0000
1001
0000
,
0001
0000
1000
0000
,
0001
0000
0100
0000
,
0010
0000
1000
0000
,
1001
0000
0000
0000
;

//--------------- dance-single - ----------------
#NOTES:
     dance-single:
     :
     Easy:
     7:
     0,0,0,0,0:
0000
0000
0000
0000
,
0000
0000
2000
0000
,
0000
0001
3001
0000
,
0100
0000
0020
0000
,
0000
1000
1030
0000
,
0001
0000
2000
0000
,
0000
0001
3001
0010
,
0001
0010
0100
1000
,
0100
1000
1001
0000
,
0001
0000
0000
0000
0200
0000
0000
0300
,
0000
0010
0010
0000
,
1000
0000
0000
0000
0002
0000
0000
0003
,
0000
1000
1000
0000
,
0001
0000
0000
0000
0200
0000
0000
0300
,
0000
0010
0020
0000
,
0030
1000
2000
0000
,
3000
0001
1000
0001
,
0000
1000
0000
0010
,
0000
0100
0100
0001
,
0000
1000
0000
0001
,
0000
0100
0001
0100
,
0000
0010
0000
1000
,
0000
0001
2000
3000
,
0002
0003
0200
0300
,
0020
0030
2002
3003
,
0001
1000
0010
1000
,
0001
1000
1000
0000
,
0001
1000
0010
1000
,
0001
0100
0100
0000
,
0010
0000
1000
0000
,
0001
0000
2000
3000
,
0020
0030
0200
0300
,
0002
0003
1000
0000
,
0002
0000
2000
3003
,
0001
0000
1000
0000
,
0001
0000
1000
0010
,
1000
0000
0001
0000
,
2000
0000
0002
3003
,
1000
0000
0010
0000
,
0100
0000
0001
1000
,
0010
1000
0001
0000
,
2000
0000
0020
3030
,
0000
0000
0100
0000
,
0000
0000
0001
0000
,
1000
0001
2000
3000
,
0020
0030
0200
0300
,
0002
0003
1001
0000
,
2000
3000
0002
0003
,
0200
0300
2002
3003
,
0001
0100
0002
0000
,
0000
1000
1003
0000
,
0010
0000
2000
0000
,
0000
0001
3001
0000
,
0100
0000
0020
0000
,
0000
1000
1030
0000
,
0000
0001
0001
0000
,
1000
0000
1001
0001
,
1000
0000
0001
0000
,
1000
0000
0010
0100
,
0001
0000
1000
0000
,
0100
0000
0010
0001
,
0200
0300
0020
0030
,
0200
0300
0002
0003
,
1001
0000
1000
0010
,
1000
0000
0001
0000
,
1001
0000
0001
0100
,
0010
0000
1000
0000
,
1001
0000
1000
0010
,
1000
0000
0001
0000
,
1001
0000
0100
0000
,
0010
0000
1000
0000
,
1001
0000
0001
0000
,
0100
0000
0010
0000
,
1001
0001
1000
0001
,
1001
0000
2000
0000
,
0200
3300
0010
0000
,
0001
0000
1000
0000
,
0010
0100
0001
0000
,
1000
0000
0002
0000
,
2000
3003
0010
0000
,
1000
0000
0001
0000
,
1000
0100
0010
0000
,
1001
0000
0200
0300
,
0200
0300
0010
0000
,
1000
0000
0000
0001
,
0001
0000
1000
0010
,
0200
0300
0002
0003
,
0200
0300
0001
0000
,
1001
0000
1000
0000
,
0010
0000
1000
0000
,
0001
0000
0000
1000
0000
0000
0001
0000
,
0000
1000
0000
0000
0001
0000
0000
0000
,
0100
0010
0100
0001
,
1000
0010
1000
0000
,
0001
0100
0001
1000
,
0010
1000
0001
0100
,
0010
0000
0000
1000
,
1001
0000
0000
1000
0000
0000
0001
0000
,
1001
0000
1000
0000
,
0010
0000
0100
0001
,
1000
0010
1000
0001
,
0100
0001
1000
0010
,
1000
0000
0000
0000
,
1001
0000
0000
0000
,
0001
0000
0000
0000
,
1000
0001
1000
0001
,
1001
1001
1001
1000
,
0000
0001
1001
1000
,
0001
1000
0010
0100
,
0001
1000
0100
0010
,
0001
1000
0001
1000
,
1001
0000
0000
0000
;

//--------------- dance-single - ----------------
#NOTES:
     dance-single:
     :
     Medium:
     10:
     0,0,0,0,0:
0000
0000
1000
0004
,
0000
0000
0000
0000
2003
0000
0000
3020
,
0000
0130
0001
4000
,
0000
0000
0000
0000
3002
0000
0000
0203
,
0000
0310
1000
0004
,
0000
0000
0000
0000
2003
0000
0000
3020
,
0000
0130
0001
0001
,
0100
0010
1000
0001
,
1000
0000
0001
0000
1000
0000
0040
4000
,
0000
0000
0030
3000
0002
0000
0000
0203
,
0000
0000
0301
0000
1000
0000
0004
0400
,
0000
0000
0003
0300
0002
0000
0000
2003
,
0000
0000
3001
0000
1000
0000
0400
4000
,
0000
0000
0300
3000
0002
0000
0000
0203
,
0000
0000
0310
0000
2000
0000
0000
3020
,
0000
0000
1030
0000
0200
0000
0000
2300
,
0000
3001
1001
1000
,
0010
0100
0001
1000
,
0100
0010
0011
0001
,
0100
0010
1000
0001
,
0010
0100
1100
1000
,
0001
0100
0010
1000
,
0001
1000
0010
1000
,
0100
1000
0001
0100
,
0010
1001
1001
1000
,
0010
0100
0001
0010
,
0100
1000
1001
0001
,
0100
0010
1000
0100
,
0010
0001
1001
0001
,
0100
0010
1000
0001
,
0010
0100
2000
0000
,
3002
0000
1003
0010
,
0100
0001
1001
0001
,
0100
0010
2000
0000
,
3001
0000
0000
0000
0100
0000
0010
1000
,
0000
0001
0100
0010
,
1000
0010
0000
0000
1000
0000
0001
0000
,
2000
0000
3002
0000
,
1003
0000
0010
0000
0100
0000
0010
1000
,
0000
0010
0100
0001
,
1000
0000
0001
1000
0001
0000
0000
0000
,
2000
0000
3002
0000
,
0103
0000
0010
0000
1000
0000
0000
0001
,
0000
0100
0010
1000
,
0001
0010
0200
0300
,
2000
3000
0020
0030
,
0200
0300
2002
3003
,
0100
0000
0010
0000
,
1000
0000
0001
0000
1001
0000
4000
0040
,
0000
0000
3000
0030
0100
0000
0000
0001
,
0000
0000
1001
0000
0010
0000
4000
0004
,
0000
0000
3000
0003
0200
0000
0310
0000
,
1000
0000
0001
0000
1001
0000
0040
0400
,
0000
0000
0030
0300
0010
0000
0000
1000
,
0000
0100
0010
0001
,
1000
0010
0100
0001
,
1000
0010
1001
1000
,
1001
0001
0100
0010
,
1000
0100
0010
0001
,
1001
0001
0100
0010
,
1000
0001
0010
0100
,
1100
1000
0001
0100
,
0010
1000
0001
1001
,
1001
0100
0010
1000
,
0100
0010
0001
1001
,
1001
1000
0010
0100
,
0001
0010
0100
1000
,
1100
0001
0100
0010
,
1000
0001
0010
0100
,
1001
0000
1010
0000
,
2002
0000
3003
0000
0101
0000
0100
0010
,
0100
0010
1000
0001
,
1000
0010
1000
0001
,
1001
1000
0010
0100
,
0001
1000
0001
0100
,
0001
1000
0010
1000
,
0001
0000
0100
0001
0000
0000
1000
0000
,
0010
0000
0100
0000
0001
0100
0000
0000
,
0010
1000
0200
0310
,
0002
0103
0100
0010
,
0100
0000
0010
1000
0000
0000
0001
0000
,
0100
0000
0010
0000
1000
0000
0001
1000
,
0001
0100
0020
0000
,
2030
0000
3001
0100
,
0010
1000
0001
0100
,
0010
1000
0100
0010
,
1001
0000
0002
0003
,
0002
0003
2000
3000
,
2002
3003
0001
0000
,
0100
0000
0010
0000
,
1000
0000
0001
1000
0000
0001
1000
0000
,
0001
0100
0000
0000
0010
1000
0010
0000
,
0100
0001
0100
0001
2000
0000
3001
0000
,
0100
0010
1000
0001
,
1000
0100
1000
0100
1000
0000
0001
0010
,
0001
0010
0001
0010
0001
0000
2000
0000
,
3002
0000
0000
0103
0000
0000
0010
0000
,
1010
0000
0000
1001
0000
0000
0101
0000
,
1000
0100
0010
0001
,
1000
0010
0100
0001
,
1000
0010
1000
0001
,
0100
0001
1000
0100
,
0010
0000
0001
1000
0000
0001
1000
0000
,
0010
0100
0001
1000
,
0100
0000
0010
0001
0000
1000
0010
0000
,
1000
0001
1000
0010
,
1010
0011
0101
1000
,
0000
1000
1001
0001
,
1000
0010
0100
0001
,
0010
0100
1000
0001
,
0010
0100
1000
0001
,
1001
0000
0000
0000
;

//--------------- dance-single - ----------------
#NOTES:
     dance-single:
     :
     Hard:
     13:
     0,0,0,0,0:
0000
0000
0001
1000
,
0001
0000
1000
0000
0002
0000
0000
0023
,
0000
0130
2000
3001
,
0100
0000
0001
0000
2000
0000
0000
3200
,
0000
0310
0001
1000
,
0001
0000
1000
0000
0020
0000
0000
0230
,
0000
0000
0310
0000
1000
0010
1000
0010
,
0100
0001
0100
0001
0010
0100
0010
0100
,
1000
0001
1000
0001
1000
0000
0001
0000
,
1000
0100
1000
0000
0001
0000
0000
0100
,
0000
0010
1010
1000
,
0001
0100
0001
0000
1000
0000
0000
0010
,
0000
1000
1001
0001
,
0100
0010
0100
0000
0002
0000
0000
2003
,
0000
0000
3010
0000
0200
0000
0000
0320
,
0000
0000
1030
0000
0020
0000
0000
0230
,
0000
0000
0301
0000
1001
0000
0001
0100
,
0010
0000
1000
0000
1000
0001
0000
1000
,
0010
0100
0101
0001
,
0100
0010
1000
0001
,
0010
0000
0001
0000
1001
0000
0001
0100
,
0010
0000
1000
0000
0100
1000
0001
0100
,
0010
1000
2002
3003
,
0202
0303
2020
3030
,
2002
3003
0001
1000
,
0010
0100
0010
0000
1000
0000
0001
0000
,
0100
0000
0001
0000
1010
0000
1000
0001
,
0100
0010
1000
0000
0001
0000
0100
0000
,
0010
0000
1000
0000
1001
0000
0001
0100
,
0010
1000
0000
0000
0010
0000
0100
0001
,
0100
0010
2000
3000
,
2002
0000
3003
0000
0100
0001
0100
0010
,
1000
0100
0010
0001
2000
0000
0001
0000
,
0010
3100
1100
0001
,
0100
0000
0010
0000
0200
0000
0301
0100
,
0010
0100
0001
0000
1000
0000
0010
0000
,
1000
0001
1000
0010
1000
0000
0001
0000
,
0100
0010
0100
0010
0100
0000
0001
0000
,
1000
0010
1000
0001
0100
0000
0010
1000
,
0010
0100
0001
1000
,
1000
0000
0001
1000
0100
0000
1100
0000
,
1000
0001
1000
0000
0010
0000
0100
0000
,
0001
1000
0001
0000
1000
0000
0100
0010
,
0000
0001
0100
0000
0100
0000
0010
0000
,
1000
0001
2000
3100
,
0020
0031
0200
0310
,
2000
3001
0200
0310
,
1000
0001
0010
0100
,
1000
0001
1000
0010
1000
0000
0001
0100
,
0001
0100
0001
0000
0200
0000
0000
0320
,
0000
0130
0001
1000
,
0010
1000
0010
1000
0002
0000
0000
2003
,
0000
3100
1000
0001
,
0010
0100
0010
0100
0020
0000
0000
0032
,
0000
0000
1003
0000
0002
0000
0000
2003
,
0000
0000
3001
0000
1000
0001
0010
0001
,
0010
0001
1000
0001
0010
0000
0001
0000
,
1001
1000
0001
0100
,
0010
1000
0000
0001
0000
0000
0010
0000
,
1001
0000
1000
0000
0100
0010
0001
0000
,
1000
0000
0001
0010
0100
0010
0001
0000
,
2002
3003
2200
3300
,
0022
0000
0033
0000
0001
0010
0100
0000
,
1001
0000
1000
0100
0010
0000
0001
0000
,
0100
0010
1000
0100
0010
0000
0001
0000
,
0001
0000
1000
0010
1000
0000
0010
0000
,
1000
0100
1000
0001
1000
0000
0010
0000
,
1001
0000
0001
0100
0010
0000
1000
0000
,
0100
0010
0000
0001
0000
0000
1000
0000
,
2002
3003
2020
3030
,
0202
0000
0303
0000
0001
0000
1000
1000
,
0001
0100
0010
1000
,
0001
0000
1000
0000
0010
1000
0001
0000
,
1001
1000
0001
0100
,
1000
0000
0001
0000
1000
0100
0010
0000
,
0100
0000
1000
0000
0010
0100
0010
0000
,
1000
0000
0100
0010
0000
0001
0100
0000
,
0010
0000
1000
0000
0100
0010
0001
1000
,
0001
0000
1000
0000
0001
0010
0001
0000
,
1000
0000
0100
0000
0010
0100
1000
0000
,
0001
0000
0100
0010
0000
1000
0100
0000
,
0010
0001
0010
0000
0001
1000
0001
1000
,
0001
0000
0010
0000
0001
1000
0100
0000
,
0010
0001
1000
0000
0001
0000
0100
0000
,
0010
0000
1000
0001
0000
1000
0001
0000
,
0010
0100
1000
1000
,
1001
0000
0100
1000
0100
0000
1000
0100
,
1000
0000
0001
0010
0100
0000
1000
0000
,
0010
0000
1000
0100
0010
0000
0001
0010
,
0100
0000
1000
0010
1000
0000
0001
0000
,
1000
0100
1000
0001
1000
0010
1000
0100
,
1000
0001
0100
0010
0100
0001
0100
0000
,
0010
1000
0010
0100
0001
1000
0010
1000
,
0001
1000
0001
1000
0020
0000
0130
0000
,
0001
0010
0001
1000
0010
0000
0100
0001
,
0010
0001
1000
0010
1000
0000
0001
0000
,
1000
0000
1000
0010
0000
0100
0001
0000
,
1001
0000
0000
1010
0000
0000
1001
0000
,
1000
0000
0000
0001
0000
0000
1000
0000
,
0000
0010
0000
0000
1000
0000
0001
0000
,
1000
0010
0100
0001
,
1000
0100
0010
0001
,
1000
0000
0001
1000
0000
0001
1000
0000
,
0010
0100
0001
0000
0100
0010
1000
0000
,
0001
0010
0100
1000
0000
0001
0100
0000
,
0010
1000
0100
1000
0001
0100
0010
1000
,
0001
1001
1001
0100
,
0000
0100
0010
1000
,
0001
1000
0010
0100
,
0001
1000
0100
1000
,
0001
1000
0001
0001
,
1001
0000
0000
0000
;

//--------------- dance-single - ----------------
#NOTES:
     dance-single:
     :
     Challenge:
     16:
     0,0,0,0,0:
0000
0000
0000
0000
1001
0000
0001
0100
,
0001
0100
0001
0100
0020
0000
0000
0230
,
0000
0000
0310
0000
0101
0000
0010
1000
,
0010
1000
0010
1000
0200
0000
0000
0320
,
0000
0000
0130
0000
0010
0000
0001
1000
,
0001
1000
0001
1000
0020
0000
0000
0230
,
0000
0000
0301
0000
1000
0010
0001
0010
,
0100
0001
1000
0100
0001
0100
0010
0001
,
1000
0010
0001
0010
1000
0000
1000
0100
,
0010
0001
1000
0010
1000
0000
0001
0100
,
0000
0100
0001
0100
0020
0000
1030
0100
,
1000
0010
0100
0001
0020
0000
0001
0031
,
0000
0100
0010
0000
2010
0000
3010
1000
,
0010
1000
0001
0100
0002
0000
0100
0203
,
0000
0300
1010
0000
2000
0000
3001
0100
,
0000
0010
0100
0000
0101
0000
0010
2000
,
0000
3001
1000
0000
1001
0000
0001
1000
,
0001
0100
0010
1000
0100
1000
0001
0100
,
0001
0010
0100
1000
1100
0000
0010
0001
,
0010
0001
1000
0010
1000
0100
1000
0001
,
0010
0001
1000
0001
1001
0000
1000
0010
,
1000
0001
0100
0010
1000
0100
0010
0100
,
1000
0001
1000
0010
0200
0000
0301
1000
,
0001
0100
0001
1000
0001
1000
0100
1000
,
0010
1000
0001
0000
0110
0000
0100
0001
,
0100
0001
0010
0100
1000
0010
0100
0010
,
1000
0001
1000
0000
1001
0000
0001
1000
,
0010
1000
0001
0100
0010
0100
0001
1000
,
0010
0100
0001
0000
0101
0000
0100
0010
,
1000
0100
1000
0100
0010
0100
0010
0001
,
0100
0010
0100
0000
0101
0000
0010
1000
,
0100
1000
0001
0100
0010
1000
0100
0010
,
0001
1000
0010
0100
0101
0000
0001
1000
,
0010
1000
0001
0000
1001
0000
1000
0010
,
0100
0001
1000
0000
0011
0000
0001
0100
,
0000
0100
0010
0000
1001
0000
1001
0000
,
0010
0100
0001
0000
1001
0000
1000
0010
,
0100
0001
1000
0100
0010
0000
0001
1000
,
0010
1000
0001
0100
0002
0000
1003
0001
,
0100
0000
0010
1000
0010
0000
0101
0000
,
0010
1000
0010
1000
0001
0000
1000
0100
,
0010
0001
1000
0100
0020
0000
0031
0100
,
0001
0100
0010
1000
0200
0000
0310
0001
,
0000
0100
0010
0000
1000
0000
1001
0000
,
0010
0100
0001
0000
2100
0000
3001
0000
,
0001
0100
0001
0000
1000
0000
0010
1000
,
0100
1001
0010
0110
,
0100
0001
1000
0000
0001
0100
0010
0000
,
1000
0100
0010
0000
0001
0000
1000
0100
,
0001
0100
0010
0100
2000
0000
3001
0100
,
0000
0100
0010
0000
1010
0000
1000
0100
,
0001
0100
1000
0010
0100
0000
0001
0100
,
0000
0010
1000
0000
1001
0000
0001
0100
,
0010
1000
0100
0010
0002
0000
1003
0200
,
0000
1300
1000
0000
0010
0000
0100
0001
,
0000
0100
0010
0000
1000
0001
1000
0001
,
1000
0001
1000
0001
1000
0000
1001
0000
,
0110
0000
0100
0010
0100
0001
1000
0010
,
0100
0001
1000
0100
0010
0001
0100
0001
,
0200
0000
0310
1000
0010
1000
0100
1000
,
0010
0100
0001
1000
0010
0100
0010
1000
,
0020
0000
1030
0100
1000
0001
0100
0010
,
1000
0100
0010
0001
0100
0010
0100
0000
,
0101
0000
0010
1000
0100
1000
0001
0100
,
0010
1000
0100
0010
0001
0100
0010
0000
,
1010
0000
0100
0001
0010
0001
0100
0010
,
0100
0001
0010
0100
0010
0001
0100
0000
,
0110
0000
0010
0100
0010
1000
0100
0010
,
0100
1000
0010
0100
0001
1000
0100
0000
,
0011
0000
0001
0100
0010
1000
0100
0010
,
0001
0100
0010
1000
0001
0010
0100
1000
,
0001
0000
1000
0010
1000
0100
0001
0100
,
1000
0000
0010
0000
0100
0001
1000
0000
,
1001
0100
0010
1000
,
1001
0000
0001
0010
1000
0010
0001
0000
,
1001
0000
1000
0100
0010
0100
1000
0000
,
1001
0000
0001
0100
0000
0010
1000
0000
,
0001
0000
1001
0000
1000
0010
0100
0001
,
2000
0000
3001
0100
0010
1000
0100
0000
,
0011
0000
0001
0100
0010
1000
0100
0010
,
0001
0000
0010
0100
0000
1000
0010
0000
,
0100
0000
0110
0000
0100
0001
1000
0010
,
1000
0000
0001
0010
1000
0010
0100
0000
,
1010
0000
1000
0100
0001
0100
1000
0000
,
0110
0000
0100
0001
0000
0100
0010
0000
,
1010
0000
1000
0000
0001
1000
0001
0000
,
1001
0000
0100
0010
1000
0100
0010
0000
,
0200
0000
1300
0010
0100
0010
1000
0000
,
1001
0000
0010
0100
0001
1000
0100
0000
,
0011
0000
0001
0100
0010
1000
0001
0000
,
1000
0010
0001
1000
0100
0001
1000
0010
,
0001
1000
0100
0001
1000
0010
0002
0000
,
0013
1000
0010
0100
0001
1000
0010
0100
,
0001
1000
0001
1000
0001
0000
1001
0000
,
1000
0010
0100
0001
1000
0000
0010
0100
,
0001
1000
0100
0010
0001
0000
1000
0000
,
1010
0000
0010
0100
0000
0100
0001
0000
,
0101
0000
0000
0110
0000
0000
1010
0000
,
1000
0001
1000
0001
1000
0001
0100
0001
,
1000
0000
0000
0100
0000
0000
1000
0000
0000
0100
0000
0000
1000
0000
0000
0100
0000
0000
0010
0000
0001
0000
0100
0000
,
0010
1000
0010
0100
0001
0010
0100
1000
0010
0100
0001
0010
,
0001
0100
0010
1000
0000
0001
1000
0010
0100
0001
1000
0100
,
0010
0100
1000
0010
0000
0100
0001
0000
,
1000
1010
0010
0110
,
0100
0010
1000
0200
0000
0310
0002
0000
,
1003
0010
1000
0010
1000
0010
1000
0010
,
1010
1001
1010
0010
,
0000
0010
1010
1000
,
0001
0100
0001
1000
0100
0010
0001
0100
,
0010
1000
0001
0010
0100
1000
0010
0100
,
0001
0010
0100
1000
0100
0010
0001
1000
,
0011
0000
0000
0000
;
