#TITLE:Ride;
#SUBTITLE:;
#ARTIST:Captain Ahab;
#TITLETRANSLIT:;
#SUBTITLETRANSLIT:;
#ARTISTTRANSLIT:;
#GENRE:;
#CREDIT:;
#MUSIC:ride.ogg;
#BANNER:;
#BACKGROUND:;
#CDTITLE:;
#SAMPLESTART:31.230;
#SAMPLELENGTH:12.000;
#SELECTABLE:YES;
#OFFSET:0.009;
#BPMS:0.000=240.000
,64.000=120.000
,96.000=240.000
;
#STOPS:144.000=1.500
,146.000=0.750
,343.000=1.500
,345.000=0.750
,348.000=0.250
,349.000=0.750
;
#BGCHANGES:;
#FGCHANGES:;

//--------------- dance-single - ----------------
#NOTES:
     dance-single:
     :
     Beginner:
     7:
     0.301,0.405,0.106,0.135,0:
0000
0000
0000
0000
,
0000
0000
0000
0000
,
0000
0000
0000
0000
,
0000
0000
0000
0000
,
0000
0000
0000
0000
,
1001
0000
0000
0001
,
0002
0000
0003
0000
,
2000
0000
3000
0000
,
0001
0001
0001
0010
,
0010
0010
0100
0100
,
0100
0100
0010
0010
,
0010
0001
0001
0001
,
1000
1000
1000
0001
,
0001
0001
0100
0100
,
0200
0000
0320
0000
,
2030
0000
3000
0000
,
0002
0000
0003
0000
,
2000
0000
3000
0000
,
0020
0000
0030
0000
,
0200
0000
0300
0000
,
0002
0000
0003
0000
,
0200
0000
0300
0000
,
0020
0000
0030
0000
,
2000
0000
0000
0000
3000
0001
0000
0000
,
1000
0000
0001
0000
,
0100
0000
0010
0000
,
1001
0000
0100
0000
,
0110
0000
0100
0000
,
1001
0000
0001
0000
,
0100
0000
0010
0000
,
1001
0000
0100
0000
,
1001
0000
0100
0000
,
1001
0000
0100
0000
,
0001
0000
1000
0000
,
1001
0000
0100
0000
,
1001
0000
0100
0000
,
1001
0010
0010
0000
,
0100
0100
0000
1001
,
0000
0001
0000
1000
,
0000
0001
0000
0100
,
0100
0100
0000
0010
,
0000
1000
0000
0001
,
0000
1000
0000
0001
,
0000
1001
0000
0000
0000
0000
1000
0000
,
0000
0001
0000
1000
,
0000
1001
0000
0000
0100
0000
0100
0000
,
0000
1001
0000
1001
,
0000
0000
0000
0110
,
0000
1000
0000
0001
,
0000
1000
0001
1000
,
0000
0010
0100
0001
,
0000
0000
1000
0001
,
0000
1000
0000
0000
0001
0000
1000
0000
,
0000
0010
0100
0001
,
0000
0000
0000
1000
,
0000
1000
0000
0000
0010
0000
0200
0000
,
0000
0000
0300
0000
,
0000
0001
0001
0001
,
0000
1000
0000
0000
0010
0000
0000
0000
,
0000
0100
0010
1000
,
0000
0001
0000
0000
0200
0000
0000
0000
,
0300
0010
1000
0001
,
0000
1000
1000
0000
,
0001
0000
1000
2000
,
0000
3000
0000
0001
,
0000
1000
0000
0001
,
0100
0001
0100
0010
,
1000
0010
1000
0001
,
0100
0001
0100
0010
,
0100
0010
0100
0010
,
1000
0010
1000
0001
,
1000
0010
1000
0001
,
0100
0001
0010
0001
,
1000
0010
1000
0001
,
0100
0010
0100
0001
,
0010
0001
0100
0010
,
1000
0001
0010
0100
,
1000
0010
0100
0001
,
0010
0001
0100
0010
,
1000
0100
0010
0100
,
1000
0001
0100
0010
,
1000
0001
1000
0001
,
0000
1000
0000
0010
,
0000
0100
0000
0001
,
0000
1000
0000
0001
,
0000
1000
0000
1001
,
0000
1001
0000
0001
,
0001
1001
0000
1000
,
0000
0000
1001
0000
;

//--------------- dance-single - ----------------
#NOTES:
     dance-single:
     :
     Easy:
     11:
     0.686,1,0.115,0.385,0.125:
0000
0000
0000
0000
,
0000
0000
0000
0000
,
0000
0000
0000
0000
,
0000
0000
0000
0000
,
0000
0000
0000
0000
,
1000
0000
0000
0001
0000
0000
1000
0000
,
2002
0000
0000
3003
,
0002
0000
0003
0000
,
1000
0001
1000
0010
,
0100
0010
1000
0100
,
1000
0100
0010
0001
,
0010
0001
1000
0001
,
1000
0010
1000
0001
,
0100
0001
1000
0010
,
2000
0000
3002
0000
,
0203
0000
0300
0000
,
0002
0000
2003
0000
,
3002
0000
0000
0000
2003
0000
3000
0001
,
0200
0000
0320
0000
,
2030
0000
0000
0000
3000
0000
0001
1000
,
0020
0000
0230
0000
,
0320
0000
2030
0000
,
3020
0000
2030
0000
,
3001
0000
0000
0000
0000
1000
0000
0001
,
1002
0000
0000
1000
0000
0000
1000
0000
,
0103
0000
0000
0010
0000
0000
1000
0000
,
2001
0000
0000
0010
0000
0000
3010
0000
,
0201
0000
0301
1000
,
1020
0000
0000
0001
0000
0000
1030
0000
,
0020
0030
1000
0001
,
1002
0000
0103
0010
,
1020
0000
1030
0001
,
1002
0000
0000
0023
0000
0000
0130
0000
,
0010
0000
0000
0001
0000
0000
1000
0000
,
1001
0000
0000
0001
0000
0000
0100
0000
,
0110
0000
0010
1000
,
1001
0010
1001
0000
,
0101
0000
0101
0000
0000
0000
0001
0100
,
0001
0000
0100
0000
0010
0000
1000
0010
,
1000
0001
0100
0001
,
1000
0001
1000
1001
,
0000
0001
0000
0000
1000
0000
1001
0000
,
0001
0100
0001
0101
,
0000
1010
0000
0000
0000
0000
1001
0000
,
0001
0102
0003
1001
,
0000
0000
0000
1010
0000
0000
0000
0000
0000
0000
0000
0000
0100
0000
0000
0000
0000
0000
0100
0000
0000
0000
0010
0000
,
0000
0100
0000
0001
0000
1000
0000
0010
0000
0100
0000
0000
,
0000
0001
0000
0000
0100
0000
0101
0000
,
0000
0110
0000
1010
,
0000
1000
0001
1000
,
0100
1000
0001
0010
,
0001
0100
0010
1000
,
0001
0010
0100
1000
,
0010
0100
0001
1100
,
0001
1000
0100
0010
,
0001
0100
0010
1000
,
0001
0010
0100
1000
,
0001
1000
0001
1001
,
1000
0010
0100
0001
,
0100
0001
0010
0001
,
0100
0010
1000
0001
,
0010
0100
1000
1010
,
0100
0010
1000
0100
,
1000
0001
0010
0100
,
1000
0001
0100
0010
,
0010
0000
1000
0000
1000
0000
0001
1000
,
0001
0000
0100
0000
0010
0000
1000
0010
,
1000
0000
0001
0000
0100
0000
0010
0100
,
0010
0000
1000
0000
0001
0000
1000
0001
,
1000
0000
0010
0000
0100
0000
0001
0010
,
0001
0000
1000
0000
0010
0000
1000
0010
,
1000
0000
0001
0000
0100
0000
0010
0100
,
0010
0000
1000
0000
0001
0000
1000
0001
,
1000
0000
0010
0000
0100
0000
0001
0010
,
0001
0000
0100
0000
0010
0000
1000
0001
,
1000
0000
0010
0000
0100
0000
0001
0010
,
0001
0000
1000
0000
0010
0000
0100
0001
,
0100
0000
0010
0000
1000
0000
0100
1000
,
0100
0000
0010
0000
0001
0000
1000
0001
,
1000
0000
0010
0000
0100
0000
0001
0100
,
0001
0010
1000
1010
,
0010
0100
0001
1001
,
1000
0010
0100
0001
,
0100
0010
1000
0100
,
0010
0100
1000
0001
,
0100
0010
1000
1001
,
0000
0011
0000
1100
,
1100
1001
0000
1001
,
0000
0110
0000
0000
1010
0000
0000
0000
;

//--------------- dance-single - ----------------
#NOTES:
     dance-single:
     :
     Medium:
     15:
     0.385,0.405,0.087,0.106,0:
0000
0000
0000
0000
,
0000
0000
0000
0000
,
0000
0000
0000
0000
,
0000
0000
0000
0000
,
0000
0000
0000
0000
,
1001
0000
0000
0100
0000
0000
0010
0000
,
1010
0000
0000
1000
0000
0000
0001
0000
,
0101
0000
0000
0100
0000
0000
0010
0000
,
1000
0100
1000
0100
1000
0000
0001
0010
,
0001
0010
0001
0000
1000
0100
1000
0100
,
1000
0100
1000
0000
0001
0100
0001
0100
,
0001
0000
1000
0010
1000
0010
1000
0000
,
0001
0100
0001
0100
0001
0000
1000
0100
,
1000
0100
1000
0000
0001
0100
0001
0010
,
0200
0000
2300
0000
,
3002
0000
0003
0000
,
0200
0000
0302
0000
,
0203
0000
0000
0000
0301
0000
0000
1000
,
0020
0000
0230
0000
,
0302
0000
0000
0000
0003
0000
1000
0001
,
2000
0000
3020
0000
,
2030
0000
3002
0000
,
1003
0000
0001
0000
1000
0000
0010
0000
0100
0000
0001
0000
,
0200
0000
0000
0000
0300
0100
0000
0100
,
0001
0010
0001
0010
0100
1000
0100
1000
,
0010
0000
0000
0100
0000
0000
0001
0000
,
1000
0100
1000
0100
0010
0001
0010
0001
,
1000
0000
0000
0010
0000
0000
0100
0000
,
0001
0010
0001
1000
0010
1000
0100
0010
,
0100
0000
0000
0010
0000
0000
0001
0000
,
1000
0001
1000
0010
1000
0001
0010
0001
,
0100
0010
1000
0001
,
1001
1000
0010
0100
,
0001
0000
0000
0100
0000
0000
0010
0000
,
1010
1000
0001
0100
,
0110
0010
1000
0001
,
1001
0100
1001
0000
,
1010
0000
0110
0000
0000
0000
0001
0100
,
0001
0000
1000
0100
1000
0000
0001
0000
,
0000
1000
0000
0000
0001
0000
0100
0010
,
0100
0000
0001
0100
0001
0000
0110
0000
,
0000
1000
0000
0000
0001
0000
1000
0000
,
0100
1000
0100
1000
,
0000
1001
0000
0000
0001
0000
1001
0000
,
1000
0110
0100
0010
,
0000
0000
0000
1000
0000
0000
0000
0000
0000
0000
0000
0000
1001
0000
0000
0000
0000
0000
0001
0000
0000
0000
0001
0000
,
0000
0001
0000
1000
0000
1000
0000
1000
0000
0001
0000
0001
,
0000
0001
0000
0100
0000
0000
0010
0000
0000
1010
0000
0000
,
1000
0001
0100
0010
,
0000
0000
1000
0000
0001
0000
1000
0100
,
1000
0000
0001
0000
0100
0000
0010
1000
,
0010
0000
0100
0010
0100
0000
0001
0000
,
0000
1000
0000
0000
0010
0000
0100
0001
,
0100
0000
0010
0000
1000
0000
0100
0010
,
0001
0000
0100
0000
0010
0000
1000
0100
,
1000
0000
0001
0000
0100
0000
0010
1000
,
0010
0000
0100
0000
0001
0000
0010
0100
,
1000
0001
0100
0101
,
0001
1000
0010
0000
0100
0000
0001
0100
,
0010
0000
1000
0000
0100
0000
0010
0001
,
0100
0000
0010
0000
1000
0100
1000
0000
,
0001
1000
0010
1010
,
0100
0000
0001
0100
0010
0000
1000
0000
,
0001
0010
0100
0000
1000
0000
0001
0100
,
0001
0100
0001
0000
1000
0000
0100
0000
,
1000
0000
0001
0000
1000
0000
0001
0100
,
0001
0100
0010
1000
0010
1000
0001
0010
,
0100
1000
0001
0100
0010
0100
0001
0010
,
0001
0010
0100
1000
0100
1000
0001
0100
,
0001
0100
0010
1000
0010
1000
0001
0010
,
0100
1000
0010
0100
0001
0010
0001
1000
,
0100
0010
0001
0100
0001
1000
0100
1000
,
0001
1000
0010
0100
0001
0010
0100
1000
,
0001
0100
0001
0010
0001
1000
0100
0010
,
0001
0100
0010
1000
0001
0010
0100
1000
,
0010
0100
0001
0010
0001
1000
0010
1000
,
0001
0010
0001
0100
0010
1000
0001
0100
,
0001
0010
0001
0100
0010
1000
0100
0010
,
0001
0100
0010
1000
0001
0010
0100
1000
,
0010
0100
0001
0010
0001
1000
0100
0010
,
0001
0100
0010
1000
0001
0010
0100
1000
,
0001
0100
0010
1000
0001
0000
0011
0000
,
0001
0100
0010
1000
,
0001
0010
0100
1000
,
0000
0001
0000
0000
1000
0000
0001
0000
,
1000
0010
0100
1001
,
0000
1001
0000
0110
,
1010
1001
0000
0101
,
0000
1001
0000
0000
1111
0000
0000
0000
;

//--------------- dance-single - ----------------
#NOTES:
     dance-single:
     :
     Hard:
     19:
     0,0,0,0,0:
0000
0000
0000
0000
,
0000
0000
0000
0000
,
0000
0000
0000
0000
,
0000
0000
0000
0000
,
0000
0000
0000
0000
,
1001
0000
0000
0101
0000
0000
0110
0000
,
2010
0000
0000
0001
0000
0000
3100
0000
,
2100
0000
0000
0010
0000
0000
3100
0000
,
1000
0100
0001
0100
1000
0000
0001
0010
,
1000
0010
0001
0000
1000
0100
0001
0100
,
0010
0001
1000
0000
0001
0010
1000
0010
,
0001
0000
1000
0100
0001
0100
1000
0000
,
0001
0010
1000
0010
0001
0000
1000
0100
,
0001
0100
1000
0000
0001
0010
1000
0010
,
0002
0000
0203
0000
,
0320
0000
0030
0000
,
2000
0000
3002
0000
,
2003
0000
0000
0000
3001
0000
0000
1000
,
0020
0000
0230
0000
,
0320
0000
0000
0000
0030
0000
1000
1000
,
2000
0000
3002
0000
,
0203
0000
0302
0000
,
1003
0000
0001
0000
0100
0000
0010
0000
1000
0000
0100
0000
,
0020
0000
0000
0000
0030
0010
0000
0010
,
1001
0001
0010
1000
0010
0001
0100
0010
,
1010
0000
0000
1000
0000
0000
0001
0000
,
1001
1000
0100
1000
0001
0100
0001
0010
,
0011
0000
0000
0001
0000
0000
0110
0000
,
1000
0010
1000
0100
1000
0001
1000
0010
,
2000
0000
0000
0100
0000
0000
3100
0000
,
1001
0001
1000
0100
1000
0001
0100
0010
,
2000
3000
0100
1010
,
0001
0010
1000
0010
0001
0100
0010
1000
,
0100
1000
0001
0010
0100
1000
0010
0100
,
0101
0001
1000
0010
,
2010
0000
0000
0100
0000
0000
3001
0000
,
1001
0000
1010
0000
,
0011
0000
1001
0000
0000
0000
1000
0100
,
0001
0100
1000
0010
0100
0001
1000
0100
,
1000
0001
0010
0001
1000
0100
1100
0000
,
0010
0001
0100
0010
1000
0001
0100
0010
,
0100
0010
1000
0001
1000
0001
1001
0000
,
1000
0001
M010
0010
1000
0001
0010
001M
,
1000
0020
0000
0000
0030
0000
1000
0001
,
1000
1000
0002
0000
0103
0001
0100
010M
,
1000
0000
0000
0010
0000
0000
001M
0000
0000
0100
0000
0000
1000
0000
0000
0000
0000
0000
0101
0000
0000
0000
0010
0000
,
0000
0010
0000
1001
0000
0100
0000
0010
0000
1001
0000
0000
,
0000
0001
0000
0000
1000
0000
0001
1000
,
0001
1000
0010
0100
0010
0100
0001
0000
,
0000
0000
0000
0000
0000
0000
0000
0000
0000
0000
0000
0000
0100
1000
0100
0000
,
0010
0001
0100
0010
1000
0001
1000
0010
,
0001
0000
0010
0000
1000
0000
0100
0000
0010
0000
0001
0000
1000
0001
1000
0000
,
0001
0000
0100
0010
0100
0000
0010
0000
1000
0001
1000
0000
0001
0100
0001
0000
,
1000
0000
0001
0000
0100
0010
0100
0001
1000
0000
0010
0000
1010
0000
1000
0000
,
0001
0000
1000
0000
0010
0000
0100
0000
0001
0000
0100
0000
0010
1000
0010
0000
,
0100
0000
0001
1000
0001
0000
0100
0000
0010
0000
0100
0000
0001
1000
0100
0010
,
0001
0100
0010
1000
0100
0010
0001
1000
0010
0000
0100
0000
0101
0000
0001
0000
,
0001
0000
1000
0001
1000
0001
1001
1000
,
0001
0100
0010
1000
0100
0010
0001
0100
,
0010
0000
1000
0000
0001
0100
0001
0000
0100
0000
0010
0000
1000
0001
1000
0000
,
0001
0000
0100
0000
0010
0000
1000
0000
0001
1000
0001
0000
0100
0000
0010
0000
,
1000
0000
0001
0000
1000
0010
1000
0000
0001
0100
0001
0000
1000
0010
1000
0010
,
1000
0001
0010
0100
1000
0001
0100
0010
,
1000
0001
0100
0010
1000
0001
1000
0010
,
1000
0100
1000
0010
1010
1000
0001
0100
,
0010
0000
1000
0000
1001
0000
0000
0000
1000
0000
0000
0000
0001
0010
0100
1000
,
0010
0100
0001
1000
0100
0010
0001
1000
0010
0100
0001
0010
0001
0100
0010
1000
,
0001
0010
0100
1000
0010
0100
0001
0010
0001
0100
0010
1000
0001
0100
0001
1000
,
0100
1000
0001
0010
0100
1000
0001
0100
0001
0010
0100
1000
0001
0100
0010
1000
,
0100
0010
0001
0100
0010
1000
0100
0010
0001
0000
1000
0000
1001
0000
0001
0000
,
0100
0010
1000
0100
0010
0001
0100
0010
,
0100
0000
0001
0000
0010
0000
0001
0000
0100
0000
0010
0000
0100
0001
0100
0000
,
0010
0000
1000
0000
0001
0100
0001
0000
1000
0010
1000
0000
1001
0000
0001
0000
,
0100
0000
0010
0000
1000
0000
0001
0000
1000
0000
0100
0000
0010
0001
0010
0100
,
1000
0001
0100
0010
1000
0001
0010
0100
0010
0001
1000
0010
0100
0001
1000
0100
,
0010
0100
1000
0001
0100
0010
1000
0100
0010
0100
1000
0001
0010
0001
0100
0010
,
1000
0100
0010
0001
1000
0010
0100
0001
0010
0100
1000
0010
0100
0001
0010
0001
,
1000
0100
0010
0001
1000
0010
1000
0001
0010
0001
0100
0010
1000
0001
0010
0100
,
1000
0010
0100
0001
1000
0100
0010
0100
1000
0001
0100
0010
1000
0001
0010
0001
,
1000
0100
0010
0100
1000
0001
0100
0010
1000
0001
0010
0100
1000
0010
0100
0001
,
1000
0100
0010
0100
1000
0001
0100
0001
0010
0001
1000
0010
1000
0000
0100
0000
,
0010
0100
1000
0001
0010
0001
0100
0010
,
0100
0001
1000
0100
0010
0001
1000
0010
,
1000
0001
0010
0001
0100
0010
1000
0001
,
0010
0100
1000
0010
0100
0001
0010
0001
,
1000
0100
0010
0001
0100
0010
1001
0000
,
0000
0101
0000
1100
,
0101
1001
0000
1100
,
0000
0101
0000
0000
1001
0000
0000
0000
;

//--------------- dance-single - ----------------
#NOTES:
     dance-single:
     :
     Challenge:
     20:
     0.804,1,0.115,0.385,0.125:
0000
0000
0000
0000
,
0000
0000
0000
0000
,
0000
0000
0000
0000
,
0000
0000
0000
0000
,
1001
0000
0001
0100
0010
1000
0001
1000
,
1010
0000
0000
0110
0000
0000
0101
0000
,
1001
0000
1000
0100
0010
0100
0010
0100
,
1100
0000
0000
1001
0000
0000
0001
0000
,
0001
0100
1000
0100
0001
0010
0001
0100
,
1000
0100
0001
1000
0001
0010
0100
0010
,
1000
0010
0001
1000
0001
0100
1000
0100
,
0001
1000
0001
0010
1000
0010
0001
1000
,
0001
0100
1000
0100
0010
1000
0001
1000
,
0010
0001
0010
1000
0001
0100
1000
0100
,
0002
0000
0003
0001
1000
0000
0010
0000
,
2000
0000
3001
1000
,
0101
0000
0000
0000
0100
0000
0000
0000
0010
0000
0000
0000
1000
0000
0000
0000
0000
0000
0001
0000
0000
1000
0000
0000
,
0020
0000
0000
0000
1030
0000
0000
0001
,
1000
0000
1000
0000
1000
0000
0001
0000
0001
0000
0001
0000
,
0200
0000
0000
0000
0300
0000
0010
1000
,
0001
0000
0001
0000
0001
0000
1000
0000
1000
0000
1000
0000
,
0001
0000
0000
0000
0001
0000
0000
0000
0001
0000
0000
0000
0200
0000
0000
0000
0000
0000
0300
0000
0000
0010
0000
0000
,
1000
0000
0001
0000
0100
0000
0001
0000
1000
0000
0010
0000
,
0200
0000
0000
0000
0300
0001
0000
1000
,
1001
0001
0100
0010
1000
0100
0001
0100
,
1000
0010
1000
0000
0100
0000
0010
0000
0001
1000
0001
0000
1000
0000
0100
0000
,
1100
1000
0001
0100
0010
1000
0100
0010
,
0001
1000
0001
0000
0100
0000
0010
0000
1000
0000
0000
0000
1010
0000
0000
0000
,
0110
0100
0001
0010
0100
1000
0010
0100
,
0001
1000
0001
0000
0100
0000
0010
0000
1000
0100
1000
0000
0001
0000
0100
0000
,
0010
1000
0001
0000
0100
0000
0010
0000
1000
0000
0100
0000
1000
0000
0001
0000
,
1000
0010
0100
0000
0001
0000
0100
0000
0010
0000
0000
0000
1010
0000
0000
0000
,
1001
0001
1000
0100
0010
0001
1000
0010
,
0100
0010
0100
0000
0010
0000
0001
0000
0100
0000
0010
0000
1000
0000
0001
0000
,
1001
0000
1000
0000
0100
0000
0010
0000
0001
1000
0001
0000
0100
0000
0010
0000
,
1000
0001
1000
0000
0010
0000
0100
0000
0001
0100
0010
1000
0100
0010
0001
1000
,
0001
0000
1001
0000
,
0101
0000
0000
0000
1001
0000
0000
0000
0000
0000
0000
0000
1000
0001
1000
0000
,
0010
0000
0100
0000
0001
1000
0001
0000
0010
0000
0100
0000
1000
0001
1000
0000
,
0010
0000
0100
0001
0010
0000
0100
0000
1000
0000
0001
0000
0101
0000
0100
0000
,
0010
0000
1000
0000
0001
0100
0010
0000
1000
0000
0001
0000
1000
0100
1000
0001
,
0100
0010
1000
0001
0100
0000
0010
0000
0100
0000
0001
0000
0101
0000
0100
0000
,
0010
1000
1010
0010
0100
0001
0101
0100
,
0000
1010
0200
0000
0300
0000
1001
0001
,
0100
0010
2010
0000
3001
0100
0101
0001
,
1000
0000
0000
1010
0000
0000
0000
0000
0000
0010
0000
0000
0100
0000
0000
0000
0000
0000
0101
0000
0000
0000
0001
0000
,
0000
0000
0100
0000
0000
0000
1010
0000
0000
0000
1000
0000
0000
0000
0100
0000
0000
0000
0011
0000
0000
0001
0000
0000
,
0000
0000
1000
0000
0001
0000
0100
0010
0100
0000
0010
0000
1010
0000
1000
0000
,
0001
1000
0010
0100
0001
0010
0001
1000
,
0000
0000
0000
0000
0000
0000
0000
0000
0000
0000
0000
0000
0001
0010
0100
1000
,
0010
0100
0001
0010
0100
1000
0100
1000
0001
0100
0001
0100
0010
1000
0100
0010
,
0001
0100
0010
1000
0100
1000
0001
0100
0010
1000
0010
1000
0001
0100
0001
0010
,
0001
1000
0010
0100
0001
0010
0100
1000
0001
0100
0010
1000
0001
0010
0100
1000
,
0010
0100
0001
1000
0001
0010
0100
1000
0001
0100
0010
0100
0001
1000
0100
0010
,
0001
1000
0001
0100
0010
0100
0001
0010
0001
1000
0100
0010
0001
0100
0010
1000
,
0001
0010
0001
0100
0010
1000
0100
1000
0001
0010
0100
1000
0001
0010
0001
1000
,
0010
1000
0001
0100
0010
1000
0100
0010
0100
1000
0001
0100
0010
1000
0001
0010
,
0100
1000
0010
0100
0010
1000
0001
0010
0001
0010
0100
1000
0010
0100
0001
1000
,
0100
0010
0001
0100
0010
1000
0001
0010
0001
1000
0010
1000
0001
0010
0100
1000
,
0010
0100
0001
0010
0001
0100
0010
1000
0001
0010
0100
1000
0001
0010
0001
0100
,
0010
1000
0001
0010
0001
0100
0010
1000
0001
0010
0100
1000
0010
0100
0001
1000
,
0100
0010
0001
0100
0001
1000
0100
1000
0001
0010
0100
1000
0001
0100
0010
1000
,
0010
0100
0010
1000
0001
0010
0100
1000
0001
0010
0001
0100
0010
1000
0001
0010
,
0001
0100
0010
1000
0100
0010
0001
0100
0010
1000
0100
1000
0001
0010
0100
1000
,
0010
0100
0001
1000
0100
0010
0001
0100
0010
1000
0001
0010
0100
1000
0010
0100
,
0001
0010
0001
1000
0100
0010
0001
1000
0001
0010
0100
1000
0001
0100
0010
0100
,
0001
1000
0100
0010
0001
0100
0010
0100
0001
1000
0100
0010
0100
1000
0001
0100
,
0010
1000
0001
0010
0100
1000
0010
0100
0001
0010
0001
0100
0010
1000
0100
1000
,
0001
0010
0100
1000
0010
0100
0001
0010
0001
0100
0010
1000
0001
0010
0100
1000
,
0010
0100
0001
1000
0001
0010
0100
1000
0001
0100
0010
0100
0001
1000
0100
0010
,
0001
0100
0010
1000
0001
0010
0100
1000
0001
0100
0001
0010
0100
1000
0010
1000
,
0100
0010
0001
0100
0010
1000
0001
0010
0100
1000
0010
0100
0001
1000
0100
0010
,
0001
1000
0010
1000
0001
0010
0001
0100
0010
1000
0001
0010
0100
1000
0010
0100
,
0001
1000
0100
0010
0001
1000
0010
1000
0100
0010
0100
1000
0010
0100
0001
0010
,
0001
1000
0100
0010
0100
1000
0001
0100
0010
1000
0100
0010
0001
0100
0010
1000
,
0001
0010
0100
1000
0010
0100
0001
1000
0010
1000
0001
0100
0001
0010
0100
1000
,
0010
0100
0001
1000
0100
0010
0001
1000
0001
0100
0010
1000
0001
0010
0100
1000
,
0010
0100
0001
1000
0100
0010
0001
1000
0001
0010
0100
0010
0001
0100
0010
1000
,
0001
0010
0100
1000
0010
0100
0001
1000
0100
0010
0001
1000
0001
1000
0100
0010
,
0100
1000
0001
0100
0010
1000
0001
0010
0100
1000
0010
0100
0001
0010
0100
1000
,
0010
0100
0001
0010
0001
1000
0100
0010
0001
1000
0010
1000
0001
0010
0100
1000
,
0010
0100
0001
1000
0001
0000
0100
0000
0001
0000
0100
0000
0001
0000
0010
0000
,
0100
1000
0010
0100
0001
0010
0100
1000
,
0010
0100
0001
0010
0001
0100
0001
0010
,
0100
1000
0010
0100
0001
0010
0001
0100
,
0010
1000
0001
0100
0010
0010
1001
0000
,
0000
0101
0000
0110
,
0101
0110
0000
1001
,
0000
0110
0000
0000
1001
0000
0000
0000
;

//--------------- dance-double - ----------------
#NOTES:
     dance-double:
     :
     Hard:
     20:
     0,0,0,0,0:
00000000
00000000
00000000
00000000
,
00000000
00000000
00000000
00000000
,
00000000
00000000
00000000
00000000
,
00000000
00000000
00000000
00000000
,
00000000
00000000
00000000
00000000
,
00011000
00000000
00000000
00101000
00000000
00000000
10010000
00000000
,
02100000
00000000
00000000
00001000
00000000
00000000
03100000
00000000
,
01002000
00000000
00000000
01000000
00000000
00000000
00103000
00000000
,
00001000
01000000
10000000
01000000
00001000
00010000
00000100
00000001
,
00000100
00001000
00000001
00000010
00000001
00000100
00001000
00010000
,
00100000
10000000
00010000
10000000
00010000
00100000
10000000
00100000
,
00010000
01000000
00001000
00000100
00000001
00000100
00001000
00000100
,
00010000
01000000
10000000
01000000
00010000
00100000
00001000
00000010
,
00000001
00000010
00001000
00000100
00010000
01000000
10000000
01000000
,
00200000
00000000
20300000
00000000
,
30002000
00000000
00003000
00000000
,
00010000
00000000
00001000
00000000
00010000
00000000
00000200
00000000
00000000
00010300
00000000
00000000
,
00000200
00000000
00100300
00001000
00100000
00000000
00000000
00001000
,
01000000
00000000
00100000
00000000
10000000
00000000
00100000
00000000
01000000
00000000
00010000
00000000
,
02000000
00000000
00000000
00000000
03000000
00000000
00010000
10000000
,
00010000
00000000
00100000
00000000
00000100
00000000
00001000
00000000
00000010
00000000
00000100
00000000
,
00000001
00000000
00000000
00000000
00001000
00000000
00000000
00000000
00000010
00000000
00000000
00000000
00002000
00000000
00000000
00000000
00000000
00000000
00003000
00000000
00000000
00000100
00000000
00000000
,
00001000
00000000
00000100
00000000
00010000
00000000
00001000
00000000
00100000
00000000
00010000
00000000
,
20000000
00000000
00000000
00000000
30000000
00010000
00000000
00100000
,
00101000
00001000
01000000
00100000
10000000
00010000
01000000
00001000
,
00010000
00001000
00010000
00000100
00000010
00000100
00010000
00001000
,
00011000
00010000
00000100
00010000
00001000
01000000
00100000
01000000
,
02002000
03003000
00001000
01001000
,
10010000
10000000
01000000
00010000
00001000
00000010
00000001
00000010
,
00001000
00000010
00000001
00000100
00000010
00001000
00000100
00010000
,
00010100
00000100
00100000
00010000
01000000
00100000
10000000
00010000
,
20020000
00000000
30030000
00000000
01000000
00010000
01000000
00001000
,
00011000
00010000
00001000
00000001
00000100
00000010
00001000
00000100
,
00010000
00001000
00010000
00000100
00000010
00000100
00010000
00001000
,
00101000
00100000
00010000
01000000
00100000
01000000
00001000
00010000
,
00000010
00000100
00000001
00000100
00000010
00001000
00000100
00010000
,
00011000
00000000
10010000
00000000
,
00011000
00000000
00001001
00000000
00000000
00000000
00000001
00000010
,
00001000
00010000
01000000
10000000
01000000
00010000
00001000
00000010
,
00000001
00000100
00000010
00010000
00000001
00000100
00000110
00000010
,
00010000
00001000
01000000
00100000
10000000
00010000
01000000
00001000
,
00010000
00000100
00000010
00000100
00010000
00000000
00011000
00001000
,
00100000
00010000
10000000
01000000
00100000
00010000
10000000
00100000
,
00010000
10000000
01000000
00010000
00100000
00000000
00110000
00100000
,
00001000
00010000
00000020
00000000
00000030
00001000
00000110
00000100
,
00000001
00000000
00000000
00001000
00000000
00000000
00000100
00000000
00000000
00010000
00000000
00000000
00010100
00000000
00000000
00000000
00000000
00000000
00011000
00000000
00000000
00000000
00001000
00000000
,
00000000
00000000
01000000
00000000
00000000
00000000
01100000
00000000
00000000
00000000
00100000
00000000
00000000
00000000
10000000
00000000
00000000
00000000
00110000
00000000
00000000
00010000
00000000
00000000
,
00000000
00100000
00010000
00000000
00100000
00000000
00101000
00001000
,
00010000
00000100
01000000
00001000
00010000
00000100
00010000
00001000
,
00000000
00000000
00000000
00000000
00000000
00000000
00000000
00000000
00000000
00000000
00000000
00000000
10000000
00010000
10000000
00000000
,
00100000
00000000
01000000
00000000
00001000
00000000
00010000
00000000
00000100
00000000
00001000
00000000
00000001
00000100
00000001
00000000
,
00000010
00000000
00000100
00000000
00001000
00000000
00000010
00000000
00010000
00000000
00001000
00000000
00100000
00010000
00100000
00000000
,
00001000
00000000
01000000
00000000
00100000
00000000
10000000
00000000
00010000
00000000
01000000
00000000
00001000
00010000
00001000
00000000
,
00010000
00000000
00000010
00000000
00000100
00000000
00000001
00000000
00000010
00000000
00000100
00000000
00001000
00000010
00001000
00000000
,
00000010
00000000
00010000
00000000
00001000
00000000
01000000
00000000
00100000
00000000
01000000
00000000
00001000
00010000
00001000
00000000
,
00010000
00000000
00000100
00000000
00100000
00000000
00010000
00000000
10000000
00000000
00100000
00000000
10000000
00100000
10000000
00000000
,
00010000
01000000
00001000
00010000
00000100
00010000
00001000
00010000
,
00000100
00000000
00001000
00000000
00000001
00000000
00000100
00000000
00000010
00000000
00001000
00000000
00000100
00010000
00000100
00000000
,
00010000
00000000
00001000
00000000
01000000
00010000
01000000
00000000
00010000
00000000
10000000
00000000
00010000
01000000
00010000
00000000
,
10000000
00000000
00010000
00000000
01000000
00100000
01000000
00000000
00001000
00000000
00010000
00000000
00001000
00010000
00001000
00000000
,
00010000
00000000
00000010
00000000
00010000
00000100
00010000
00000000
00000010
00000000
00001000
00000000
00000001
00000010
00000001
00000000
,
00000100
00000000
00000010
00000000
00010000
00001000
00010000
00000000
00000010
00000000
00000100
00000000
00000001
00001000
00000001
00000000
,
00000100
00000000
00000010
00000000
00010000
00001000
00010000
00000000
00000010
00000000
00010000
00000000
00001000
00010000
00001000
00000000
,
00100000
00000000
00010000
00000000
01000000
00100000
01000000
00000000
00010000
00000000
10000000
00000000
00010000
01000000
00010000
00000000
,
10000000
00000000
00010000
00000000
01000000
00001000
01000000
00000000
00010000
00000000
00100000
00000000
00001000
00010000
00001000
00000000
,
00010000
00000000
00000100
00000000
00001000
00000000
00000001
00000000
00001000
00000000
00000000
00000000
00000001
00000100
00000010
00001000
,
00000001
00000010
00000100
00001000
00000010
00000100
00000001
00001000
00000100
00000010
00000001
00000100
00000010
00010000
00000100
00001000
,
00000100
00010000
00001000
00100000
00010000
01000000
00100000
10000000
00010000
00100000
01000000
10000000
00010000
01000000
00100000
01000000
,
00001000
00010000
00001000
01000000
00010000
00100000
00001000
00010000
00000100
00010000
00001000
00010000
00000010
00000100
00000001
00000100
,
00000010
00001000
00000100
00010000
00000010
00001000
00000001
00001000
00000100
00010000
00001000
00100000
00001000
00000000
00010000
00000000
,
00001000
01000000
00100000
10000000
00100000
10000000
01000000
00010000
,
01000000
10000000
00010000
01000000
00001000
00010000
00000100
00001000
,
00000001
00000010
00000001
00000100
00000010
00001000
00001100
00000100
,
00010000
00000000
00000100
00000000
00010100
00000000
00010000
00000000
00001000
00000000
00000000
00000000
01000000
00100000
10000000
00010000
,
00100000
01000000
10000000
00100000
01000000
00010000
10000000
01000000
00100000
00010000
01000000
00100000
10000000
00010000
01000000
00001000
,
00010000
00001000
00100000
00001000
00010000
00000100
00001000
00000010
00000100
00000001
00001000
00000100
00000010
00000001
00000100
00000010
,
00001000
00000001
00000010
00000100
00001000
00000001
00000100
00000010
00010000
00001000
00010000
00000100
00010000
00001000
00100000
00010000
,
01000000
00100000
10000000
00100000
01000000
00010000
00100000
00010000
01000000
00001000
00100000
00001000
00010000
00000100
00001000
00000100
,
00010000
00000010
00001000
00000100
00001000
00000010
00000100
00000001
00000100
00000010
00001000
00000100
00010000
00001000
00100000
00010000
,
01000000
00100000
10000000
00010000
01000000
00001000
00010000
00001000
01000000
00100000
10000000
01000000
10000000
00000000
00100000
00000000
,
10000000
00100000
01000000
00010000
01000000
00010000
00110000
00100000
,
00001000
00100000
00101000
00000000
00011000
00000000
00001000
00100000
,
00001000
01000000
00100000
10000000
01000000
00100000
00001000
00010000
,
00001000
00100000
00001000
00010000
00000010
00000100
00000001
00000010
,
00000100
00000010
00000100
00010000
00000100
00010000
00001000
01000000
,
00100000
10000000
01000000
00100000
00010000
00100000
00011000
00000000
,
00000000
00001001
00000000
00011000
,
01001000
10010000
00000000
00011000
,
00000000
10001000
00000000
00000000
00100001
00000000
00000000
00000000
;
