#TITLE:Pure Evil (Kobaryo FTN-Remix);
#SUBTITLE:SOUND VOLTEX III GRAVITY WARS (2015);
#ARTIST:Kobaryo;
#TITLETRANSLIT:;
#SUBTITLETRANSLIT:;
#ARTISTTRANSLIT:;
#GENRE:;
#CREDIT:;
#MUSIC:[Week 6] - Pure Evil.ogg;
#BANNER:;
#BACKGROUND:;
#CDTITLE:;
#SAMPLESTART:80.210;
#SAMPLELENGTH:21.470;
#SELECTABLE:YES;
#OFFSET:0.000;
#BPMS:0.000=190.000
,66.000=380.000
,128.000=190.000
,129.000=380.000
,256.000=95.000
,272.000=190.000
,333.000=380.000
,455.000=190.000
,459.000=380.000
,523.000=95.000
;
#STOPS:80.000=0.158
,332.000=0.632
;
#BGCHANGES:;
#FGCHANGES:;

//--------------- dance-single - ----------------
#NOTES:
     dance-single:
     :
     Beginner:
     9:
     0,0,0,0,0:
0000
0000
1000
0000
,
0001
0000
0100
0000
,
0010
0000
1000
0000
,
0100
0000
0010
0000
,
0001
0000
1000
0000
,
0010
0000
0100
0000
,
0001
0000
1000
0000
,
0100
0000
0010
0000
,
0001
0000
1001
0000
,
1000
0000
0001
0000
,
0100
0000
0110
0000
,
0010
0000
1000
0000
,
0001
0000
1000
0000
,
0010
0000
0100
0000
,
0001
0000
1000
0000
,
0100
0000
0010
0000
,
0000
0000
1001
0000
,
0001
0000
1000
0000
,
0010
0000
0100
0000
,
0001
0000
1000
0000
,
1001
0001
0000
0100
,
0000
0010
0000
1000
,
0000
0100
0000
0010
,
0000
0002
0003
2000
,
3000
1001
0000
0001
,
0000
0100
0000
0010
,
0000
1000
0000
0001
,
0000
1000
0000
1001
,
0000
0001
0000
0100
,
0000
0010
0000
1000
,
0000
0100
0000
0010
,
0000
0001
0000
1000
,
1000
0001
0000
1000
,
0010
1000
0000
0001
,
0000
0100
0000
0010
,
1000
0001
0000
0100
,
0000
0010
0000
0010
,
0100
0010
0000
0100
,
0000
0001
0000
1000
,
0000
0001
0000
0100
,
0000
0001
0000
1000
,
0000
0001
0000
0100
,
0010
0100
0000
0001
,
0000
1000
0000
0100
,
0010
0001
0000
0100
,
0000
0010
0000
1000
,
0001
1000
0000
0001
,
0000
0100
0000
0010
,
0010
0000
0000
0000
,
1000
0000
0001
0000
,
1000
0000
0000
0000
,
0010
0000
0100
0000
,
0001
0000
0000
0000
,
1000
0000
0100
0000
,
0010
0000
0000
0000
,
0001
0000
1000
0000
,
0010
0000
0000
0010
,
0010
0000
0000
0000
,
1000
0000
0000
0001
,
0001
0000
0000
0000
,
1000
0000
0000
0000
,
0010
0000
1000
0000
,
1000
0000
0000
0000
,
0001
0000
1000
0000
,
1001
0000
0000
0000
,
0000
0000
1000
0000
,
0001
0100
1010
0100
,
0001
1000
1100
0001
,
1001
0000
0000
1000
0000
0000
0001
0000
,
1000
0000
0000
0010
0000
0000
0100
0000
,
0101
0000
0000
0001
0000
0000
1000
0000
,
0100
0000
0000
1000
0000
0000
0001
0000
,
1001
0000
0000
1000
0000
0000
0001
0000
,
1001
0000
0000
1000
0000
0000
0001
0000
,
0011
0000
0000
0100
0000
0000
0010
0000
,
1001
0000
0000
0100
0000
0000
0010
0000
,
1001
1001
1001
1001
,
0110
0110
0110
0110
,
0011
0011
0011
0011
,
1000
1000
1000
1000
,
1001
0000
0110
0000
,
1001
0000
0110
0000
,
0001
1000
0001
1000
,
0000
0001
0000
1001
,
0000
0001
0000
1000
,
0000
0010
0100
0001
,
0000
1000
0000
0100
,
0000
0010
0001
0100
,
0000
0010
0000
1000
,
0000
0001
1000
0010
,
0000
0100
0000
0001
,
0000
0100
0000
1001
,
0000
1000
0000
0010
,
0000
0100
0001
0100
,
0000
0010
0000
1000
,
0000
0100
0010
0001
,
0000
0100
0000
0010
,
0000
1000
0001
1000
,
0000
0010
0000
0100
,
0000
0001
0000
1001
,
0000
0100
0000
0010
,
0000
1000
0000
1000
,
0000
0001
0000
0100
,
0000
0010
0000
1000
,
0000
0100
0000
0010
,
0000
1000
0000
0001
,
0000
0001
0000
0100
,
0000
0001
0000
1001
,
0000
1000
0000
0001
,
0000
0100
0000
0010
,
0000
1000
0000
0001
,
0000
0010
0000
0100
,
0000
1000
0000
0010
,
0000
0100
0000
0001
,
0000
1000
0000
1001
,
0000
0000
0001
0000
,
0000
1001
0000
1001
,
0000
0000
0100
0000
,
0000
0001
0000
1001
,
0000
0000
1000
0000
,
0000
0010
0000
0110
,
0000
0000
0100
0000
,
0000
0001
0000
1001
,
0000
0000
1000
0000
,
0000
0001
0000
0100
,
0000
0000
0010
0000
,
0000
1000
0000
0001
,
0000
0000
1000
0000
,
0000
0010
0000
0100
,
0000
0000
0001
0000
,
0000
1000
0000
0220
,
0330
0000
0000
0000
;

//--------------- dance-single - ----------------
#NOTES:
     dance-single:
     :
     Easy:
     11:
     0,0,0,0,0:
0000
0000
0020
0000
,
0000
0000
0000
0000
,
0000
0000
0230
0000
,
0000
0000
0302
0000
,
0000
0000
2003
0000
,
0000
0000
0000
0000
,
0000
0000
3020
0000
,
0000
0000
2030
0000
,
0000
3000
1001
0001
,
0100
0010
1000
0100
,
0010
0001
1001
1000
,
0100
0010
0001
0100
,
0010
1000
0001
0000
1001
0000
0001
0000
,
0100
0010
1000
0100
,
0010
0000
0001
0000
0100
0010
0100
0000
,
0001
1000
0001
0000
1000
0000
0000
0000
,
0000
0000
0000
0000
1000
0000
0000
0001
,
0000
1000
0100
1000
,
0100
0010
0001
0010
,
0001
0100
0010
0100
,
0001
0000
1000
0000
0000
0010
0000
0000
,
0100
0001
0010
0001
,
0100
0010
1000
0100
,
1000
0020
0030
2000
,
3000
0000
1010
0000
0000
0010
0000
0000
,
0100
0001
0100
0001
,
1000
0010
1000
0010
,
0100
0001
0100
0001
,
0000
0000
1000
0000
0000
0010
0000
0000
,
0100
0001
0100
0001
,
0000
1000
0010
1000
,
0000
0001
0100
0010
,
0000
2000
3000
0001
,
0100
0020
0030
1000
,
0100
0020
0030
0001
,
0100
0020
2030
3001
,
1000
0000
0001
0100
,
0010
2000
3000
1010
,
0000
1000
0001
0000
,
0020
0030
2000
3000
,
0001
0100
0001
1000
,
0010
1000
0010
1000
,
0100
0010
0001
0100
,
0010
1000
0001
0000
,
1000
0100
0010
0001
,
0100
0010
1000
0100
,
1000
0001
0010
0100
,
2000
3000
0002
0003
,
0100
0000
0000
0010
0000
0000
0100
0000
,
0001
0200
0310
2000
,
3100
0000
0000
0010
0000
0000
0001
0000
,
0100
0010
1000
0002
,
1003
0000
0000
0010
0000
0000
0100
0000
,
0001
0200
0310
0200
,
0310
0000
0000
0100
0000
0000
0001
0000
,
1000
0100
0010
0002
,
2003
0000
0000
3002
0000
0000
0203
0000
,
0310
1000
0002
0103
,
0020
0000
0000
2030
0000
0000
3001
0000
,
0100
0010
2000
3002
,
2003
0000
0000
3002
0000
0000
1003
0000
,
0010
1000
0002
2003
,
3002
0000
0000
0103
0000
0000
0010
0000
,
1000
0100
0010
0000
,
1001
0000
0000
0000
,
0000
0000
0000
0000
,
0001
0100
1010
0100
,
0001
0100
1010
0100
,
0001
0000
0000
1000
0000
0000
0001
0000
0000
1000
0000
0000
0001
0000
0000
0000
,
0100
0000
0000
0010
0000
0000
0100
0000
0000
0010
0000
0000
0100
0000
0000
0000
,
1001
0000
0000
0000
0000
0000
0001
0000
0000
0100
0000
0000
0010
0000
0000
0000
,
1000
0000
0000
0100
0000
0000
1000
0000
0000
0001
0000
0000
0100
0000
0000
0000
,
1010
0000
0000
0000
0000
0000
0100
0000
0000
0001
0000
0000
0100
0000
0000
0000
,
1010
0000
0000
0000
0000
0000
0100
0000
0000
0001
0000
0000
0100
0000
0000
0000
,
1010
0000
0000
0000
0000
0000
1000
0000
0000
0001
0000
0000
0100
0000
0000
0000
,
1010
0000
1000
0001
,
1001
1001
1001
1001
,
0110
0110
0110
0110
,
0011
1100
0011
1100
,
1000
1000
1000
1000
,
1001
0010
1001
0100
,
1001
0010
1001
0100
,
0001
0100
0001
0100
0001
0100
0001
0100
,
0000
0002
0000
1003
,
0100
1000
0001
0100
,
0010
1000
0100
0010
,
0001
0100
0010
1000
,
0100
1000
0001
0010
,
0100
1000
0010
0100
,
0001
1000
0100
0010
,
0001
0100
0010
1000
,
0001
0010
0100
1000
,
0010
1000
0100
1000
,
0100
0010
0001
0100
,
0010
1000
0001
0100
,
0010
1000
0100
0010
,
0001
0100
0010
1000
,
0001
0010
0100
1000
,
0010
0100
0001
1000
,
0100
0010
0002
1003
,
0000
0010
0000
0000
1000
0000
0000
0100
,
0000
1000
0001
0100
,
0000
0010
0000
0000
1000
0000
0000
0001
,
0000
0100
0010
1000
,
0000
0100
0000
0000
0010
0000
0000
0001
,
0000
0100
0010
1000
,
0100
1000
0010
0100
,
0000
0010
0100
0101
,
0000
0000
0000
0001
,
0100
0010
1000
0100
,
0000
0000
0000
0010
,
0001
0100
0010
1000
,
0001
0010
0100
1000
,
0010
0100
0001
1000
,
1000
0100
0100
1000
,
0000
1010
0000
0000
1001
0000
0000
0000
,
2000
3001
0100
0101
,
0000
1010
0000
0000
1001
0000
0000
0000
,
0001
0100
0010
1010
,
0000
1001
0000
0000
0101
0000
0000
0000
,
0100
0010
1000
1001
,
0000
0101
0000
0000
1001
0000
0000
0000
,
0100
0010
0001
1000
,
0000
0010
0000
0000
1000
0000
0000
0000
,
0000
0001
0100
0010
,
0000
1000
0000
0000
0010
0000
0000
0000
,
0000
0100
0001
0100
,
0000
0010
0000
0000
1000
0000
0000
0000
,
0000
0001
0100
0010
,
0000
1000
0000
0000
0001
0000
0000
0000
,
0000
1000
0001
1001
;

//--------------- dance-single - ----------------
#NOTES:
     dance-single:
     :
     Medium:
     15:
     0,0,0,0,0:
0000
0000
2000
0000
,
0000
0000
0000
0000
,
0000
0000
3002
0000
,
0000
0000
0000
0000
,
0000
0000
0000
0000
0000
0000
0000
0000
0103
0000
0000
0010
0000
0000
1000
0000
,
0000
0001
0000
0000
0100
0000
0000
0010
0000
0000
1000
0000
0000
0001
0000
0000
,
0100
0000
0000
0010
0000
0000
1000
0000
0001
0000
0000
0010
0000
0000
0001
0000
,
0000
0010
0000
0000
0001
0000
0000
0010
0000
0000
0001
0000
0000
0100
0000
0000
,
0010
0000
0000
0100
0000
0000
0001
0000
0101
0000
0000
0000
0100
0000
0010
0000
,
1000
0100
1000
0000
0001
0100
0010
1000
,
0100
1000
0100
0000
1001
0000
0001
0100
,
0010
1000
0100
0000
0010
0010
0010
0001
,
0100
0000
0010
0000
1000
0001
1000
0001
1000
0000
0010
0000
0100
0000
0001
0000
,
1000
0100
1000
0001
0010
0100
1000
0010
,
0100
0001
1000
0100
0010
0001
0100
0010
,
1000
0001
0010
0100
1000
0000
0000
0000
,
0000
0000
0000
0000
1001
0000
0001
1000
,
0000
0001
0100
0010
,
1000
0100
0010
0001
,
0100
0010
1000
0001
,
1000
0000
1001
0000
0001
0100
0000
0000
,
0010
1000
0100
0010
,
0001
0100
0010
0010
,
1000
0000
0001
1000
0000
0000
1000
0001
,
1000
0000
1001
0000
0001
0100
0010
0000
,
1000
0100
0010
0001
,
0100
0010
1000
0100
,
0010
0001
0100
0101
,
1001
0000
1000
0000
0001
0100
0010
0000
,
1000
0100
0010
0001
,
0100
0010
1000
0001
,
0100
0000
0010
0000
1000
0001
1000
0000
,
1001
0000
1000
0010
0000
0100
0001
0010
,
0001
0000
1000
0010
0000
0100
0001
0010
,
0001
0000
1000
0100
0000
1000
0010
0100
,
0001
0000
1000
0000
0001
0100
0001
0000
,
0100
0000
0010
1000
0000
0010
0100
0010
,
1000
0000
0001
0100
0000
0010
1000
0010
,
0100
0000
0001
0100
0000
0010
1000
0100
,
2000
3010
0200
0301
,
1001
0000
1000
0001
0000
0100
0010
0000
,
0100
0000
0010
1000
0000
1000
0100
0000
,
0010
0000
0001
0100
0000
0010
1000
0000
,
0001
0000
1000
0000
0001
0100
0010
0000
,
1000
0000
0001
0100
0000
0010
1000
0000
,
0001
0000
1000
0100
0000
0010
0100
0000
,
1000
0001
1000
0001
1000
0000
0001
0000
,
1000
0100
1000
0000
0001
0100
0001
0000
,
1001
0000
0000
0010
0000
0000
0100
0000
,
0001
0000
1000
0100
1000
0000
0001
0100
,
0010
0000
0000
0010
0000
0000
0100
0000
,
0001
1000
0001
0100
,
1010
0000
0000
0010
0000
0000
0100
0000
,
0100
0000
0010
1000
0001
0000
0100
0001
,
1000
0000
0000
1001
0000
0000
0101
0000
,
0001
0100
0002
1003
,
1000
0010
0000
0010
0100
0000
0100
0000
,
0001
1000
0001
1000
0001
0000
1000
0000
,
0001
0000
1000
0010
0000
0100
0001
0000
,
1000
0100
1000
0000
0020
0000
0130
0000
,
0100
0000
0001
1000
0000
0010
0100
0000
,
0001
0001
0001
0100
,
0010
0000
1000
0001
0000
0100
0010
0000
,
1000
0000
0001
0000
0100
0010
1000
0000
,
1001
0000
0000
0000
,
0000
0000
0000
0000
,
0001
1000
0010
0100
1001
0000
0010
0100
,
0001
1000
0100
1000
0001
0100
0010
0000
,
1001
0000
0000
0001
0000
0000
0100
0000
0000
0010
0000
0000
1000
0000
0001
0000
,
1000
0000
0000
0010
0000
0000
0100
0000
0000
0001
0000
0000
1000
0000
0001
0000
,
1001
0000
0000
0001
0000
0000
0100
0000
0000
0010
0000
0000
1000
0000
0100
0000
,
1000
0000
0000
0001
0000
0000
0100
0000
0000
0010
0000
0000
1000
0000
0001
0000
,
1001
0000
0000
1000
0000
0000
0010
0000
0000
0100
0000
0000
0001
0000
1000
0000
,
1001
0000
0000
0001
0000
0000
0100
0000
0000
0001
0000
0000
1000
0000
0010
0000
,
1010
0000
0000
0100
0000
0000
0001
0000
0000
0100
0000
0000
0010
0000
1000
0000
,
1001
0000
0000
0001
0000
0000
0100
0000
0000
0010
0000
0000
1000
0000
0001
0000
,
1100
0110
1100
0110
,
1010
0101
1010
0101
,
1001
0101
1010
1001
,
0110
0010
0100
0001
,
2002
3003
0220
0330
,
0202
0303
2020
3030
,
0001
0100
0010
1000
,
0000
2000
3000
1001
,
0001
0100
0000
0010
1000
0000
0001
0100
,
0000
0010
1000
0000
0001
0000
1000
0000
,
0001
0100
0000
0010
1000
0000
0100
0010
,
0000
0001
0100
0000
0010
0000
1000
0000
,
0001
0100
0000
0010
1000
0000
0001
0000
,
1000
0100
0010
0001
,
0100
0010
0000
1000
0001
0000
0100
0000
,
0010
0000
1000
0100
1000
0100
1000
0000
,
0001
0100
0000
0001
0010
0000
0001
0100
,
0000
0001
0010
0000
0100
0000
1000
0000
,
0010
1000
0000
0100
1000
0000
0010
0000
,
0100
0001
1000
0001
,
0100
0010
0000
0100
0001
0000
1000
0010
,
0000
0010
0100
0000
0100
0000
0010
1000
,
0010
0000
0100
0001
0100
0000
0001
1000
,
0001
1000
0001
1000
0001
0000
0100
0000
,
1000
0100
0001
0010
,
1000
0010
0001
1000
,
0100
0001
0100
1000
,
0010
0100
0001
0010
,
0001
0100
0010
1000
,
0100
0000
0010
0000
0001
0000
0100
0001
,
0100
0000
0010
1000
0010
0000
0100
0000
,
0000
0000
0001
1000
0001
1000
0001
0000
,
0010
0001
0100
0010
,
1000
0001
0100
0010
,
1000
0100
0010
0100
,
1000
0001
0100
0010
,
1000
0001
0010
0100
,
1000
0000
0010
0000
0100
0000
0001
1000
,
0001
1000
0001
1000
0001
1000
0001
0000
,
0000
0101
0000
0000
1001
0000
0000
1000
,
0000
0000
0001
0100
0001
0000
1001
0000
,
0000
1010
0000
0000
0101
0000
0000
0010
,
0000
0000
1000
0001
1000
0000
1001
0000
,
0000
0101
0000
0000
1010
0000
0000
0000
,
0020
0130
0001
1100
,
0000
1100
0000
0000
1100
0000
0000
0000
,
0010
0010
0001
1000
,
0010
0100
0001
0100
0010
0000
1000
0100
,
0010
0001
1000
0000
1000
0000
0001
0000
,
1000
0100
0010
0001
0100
0000
0010
1000
,
0100
1000
0001
0100
0001
0000
1000
0000
,
0010
0100
0001
0100
0010
0000
1000
0100
,
0010
0001
0100
0000
0010
0000
1000
0000
,
0000
1000
0000
0000
0001
0000
0000
0100
,
0000
0010
1000
0000
0001
0000
2000
0000
,
0000
3000
0000
0000
;

//--------------- dance-single - ----------------
#NOTES:
     dance-single:
     :
     Hard:
     19:
     0,0,0,0,0:
0000
0000
0000
0000
0000
0000
0000
0000
1000
0000
0000
0001
0000
0000
1000
0000
,
0000
0100
0000
0000
0010
0000
0000
0001
0000
0000
1000
0000
0000
0001
0000
0000
,
0010
0000
0000
0100
0000
0000
1000
0000
0001
0000
0000
0010
0000
0000
0100
0000
,
0000
0010
0000
0000
0001
0000
0000
0100
0000
0000
0010
0000
0000
0100
0000
0000
,
0001
0000
0000
0010
0000
0000
0001
0000
1000
0010
0100
0010
1000
0100
0010
0001
,
1000
0010
0100
0001
1000
0100
0010
0001
1000
0010
0100
0001
1000
0100
0010
0100
,
1000
0010
0100
0001
1000
0100
0010
0001
1000
0010
0100
0001
0010
0100
1000
0010
,
0100
0001
0010
0100
1000
0100
0010
0001
0100
0010
1000
0100
0010
0001
1000
0010
,
0100
0001
0010
0100
1000
0000
0100
0000
1001
0000
0010
0000
0100
0000
1000
0001
,
0100
0001
1000
0100
0010
0000
0001
0100
0010
1000
0001
0000
1001
0000
1000
0100
,
0010
0001
0100
0001
1000
0000
0001
0000
0101
0000
0010
0000
1000
0000
0001
0100
,
0001
0100
0010
1000
0100
0000
1000
0001
1000
0000
0100
0000
0010
0000
0001
1000
,
0001
0000
0100
0000
0010
1000
0100
0010
0001
0000
1000
0000
0001
0000
0010
0100
,
1000
0001
0100
0010
1000
0000
0100
0010
0001
0000
1000
0000
0001
0100
0010
1000
,
0100
0010
0001
0000
0010
0000
0100
0000
1000
0000
0010
0000
1000
0000
0001
0000
,
0100
0001
1000
0100
0000
0000
MMMM
0000
,
0000
0000
0000
0000
1001
0000
0001
1000
,
0100
0000
0010
0001
0100
0010
1000
0000
,
1001
0000
0001
0010
0100
1000
0001
0000
,
0100
0010
0100
0010
1000
0000
0100
0000
,
1100
0000
1001
0000
1000
0100
0010
0001
,
0100
0010
1000
0100
0010
0001
1000
0000
,
0001
1000
0100
0000
0010
0000
0001
0000
,
1000
0000
0010
1000
0000
0001
0100
0010
,
1000
0100
2000
0000
3010
0100
0001
0100
,
0010
1000
0100
1000
0001
0010
0100
1000
,
0001
0100
0010
1000
0010
1000
0001
0100
,
0010
1000
0010
1000
0001
0000
1001
0000
,
1100
0000
0001
0000
0010
0100
1000
0010
,
0100
0010
1000
0100
0010
0001
1000
0100
,
0010
0001
0010
0001
0100
0010
1000
0000
,
0001
0000
1000
0100
0010
0001
1000
0001
,
1000
0000
0001
1000
0001
0100
0010
1000
,
0100
0010
0001
0100
0001
0010
0100
1000
,
0010
0100
0001
0010
0100
1000
0001
0100
,
0010
1000
0100
0010
0100
0010
0001
1000
,
0001
0000
0010
0100
0000
1000
0100
0010
,
0001
0000
1000
0100
1000
0000
0000
0001
,
0100
0000
0010
0000
0100
0001
1000
0100
,
0010
0100
1000
0010
0100
0001
0010
0100
,
1000
0000
0001
0100
0000
0010
1000
0100
,
0010
0000
0001
0100
0000
0010
1000
0100
,
0010
0000
0001
0010
0000
0100
1000
0010
,
0100
0000
0001
1000
0001
0100
0001
0100
,
0010
0000
1000
0100
0000
0010
0001
0100
,
0010
0000
1000
0100
0000
0010
0100
1000
,
0001
0100
0001
0100
0010
1000
0100
1000
,
0001
0000
1000
0001
0010
0100
1000
0010
,
2000
0000
3000
0202
0000
0303
1001
0000
,
0101
0000
0100
0010
1000
0100
0010
0001
,
0010
0000
0000
0110
0000
0000
1001
0000
,
1000
0010
0100
0010
1000
0001
0100
0010
,
0100
0000
0000
0101
0000
0000
1010
0000
,
0100
0000
0010
0100
1000
0001
0010
0100
,
1000
0000
0000
1010
0000
0000
0101
0000
,
0001
1000
0010
0100
0001
0010
0100
0010
,
0001
1000
0001
1000
0010
1000
0001
1000
,
0001
0100
0010
1000
0100
0010
0100
1000
,
0100
0010
0001
1000
0010
0100
0001
1000
,
0001
0100
0001
0100
0010
1000
0100
0010
,
0001
1000
0100
1000
0010
1000
0001
1000
,
0100
0010
0001
1000
0100
0010
0100
0010
,
0001
1000
0000
1001
0000
0001
0100
0010
,
1000
0100
0010
0001
0100
0010
0100
0010
,
0200
0000
0000
0300
,
0000
0000
0000
0000
,
0001
0100
0010
1000
0100
0000
0000
0000
1001
0000
0010
0000
0100
0000
0001
1000
,
0001
0100
0010
1000
0100
0000
0010
0001
0100
0000
0010
1000
0010
0000
0100
0000
,
0101
0000
0001
0100
0000
0010
1000
0000
0001
0100
0000
0010
1000
0100
1000
0001
,
1000
0000
0010
0100
0000
0001
0010
0000
0100
0010
0000
0001
0100
0010
1000
0000
,
1010
0000
0000
0010
0000
0100
0001
0000
0100
0010
0000
1000
0100
0010
0100
1000
,
0100
0000
0010
0100
0000
0010
0001
0000
1000
0010
0000
0100
0001
0010
0001
0000
,
1001
0000
0000
0100
0000
0000
0010
0000
0000
1000
0000
0000
0001
0000
0100
0000
,
0110
0000
0000
0010
0000
0000
1000
0000
0000
0001
0000
0000
0100
0000
0010
0000
,
1010
0000
0000
0100
0000
0000
0010
0000
0000
1000
0000
0000
0001
0000
0100
0000
,
0110
0000
0000
0010
0000
0000
1000
0000
0000
0010
0000
1000
0100
1000
0001
0000
,
1001
0000
1000
0100
0000
0010
0001
0000
1000
0100
0000
0010
0001
0000
1000
0000
,
1001
0000
0001
0010
0000
0100
1000
0000
0001
0010
0000
0001
0100
0000
0100
0000
,
0110
0000
0010
1000
0001
0100
0010
0000
1000
0100
1000
0001
1000
0000
0001
0000
,
1001
0000
0000
0000
1010
0000
0000
0000
0010
0000
0000
0000
0100
0010
0100
0010
,
1000
0000
0001
0000
0100
0000
0010
1000
0010
0000
0000
0000
1000
0001
0100
0010
,
0100
0000
0000
0000
0001
0000
1000
0001
1000
0000
0000
0000
1000
0000
0001
0010
,
0001
0000
0100
0000
0010
0000
1000
0000
0001
0100
0010
0100
0001
0100
0010
0100
,
0000
0000
0001
0100
0001
0100
0001
0010
,
0100
1000
0100
0010
0001
0100
0001
0100
,
0010
1000
0010
0100
0001
0000
1000
0100
,
0010
0001
0100
0010
1000
0010
0100
0001
,
0010
0100
1000
0010
0100
0000
0001
0010
,
0100
1000
0010
0100
0001
0010
0100
1000
,
0010
0100
0001
1000
0001
0000
1000
0100
,
0010
0001
1000
0100
0010
0001
1000
0010
,
0100
0001
1000
0100
1000
0010
0100
0001
,
0010
0001
0100
0010
1000
0100
0010
0001
,
0100
0010
1000
0001
0010
0100
1000
0010
,
0100
0001
1000
0100
0010
0100
1000
0010
,
0100
0001
1000
0100
1000
0010
0100
0010
,
1000
0100
1000
0010
0100
0001
0010
0100
,
1000
0010
0100
0001
0010
0001
1000
0100
,
1000
0100
1000
0100
1000
0010
0100
0001
,
0100
0001
0100
0001
0100
0010
0100
0001
,
0100
0010
1000
0100
0010
0001
0100
0001
,
0010
0100
1000
0001
1000
0001
0100
0001
,
0100
0010
0100
0001
1000
0100
0010
0001
,
0100
0010
1000
0001
1000
0010
0100
0001
,
1000
0100
0010
0001
0100
0010
0100
0001
,
1000
0001
0010
0100
1000
0010
1000
0010
,
1000
0100
0010
0001
1000
0010
1000
0001
,
0100
0010
1000
0010
0100
0001
1000
0100
,
0010
0001
0100
0010
1000
0010
0100
0001
,
1000
0100
0010
0100
1000
0001
0100
0010
,
1000
0001
0010
0100
1000
0010
0100
0001
,
1000
0100
0010
0001
0100
0010
1000
0100
,
0010
0001
0100
0010
1000
0100
0010
0001
,
0100
0000
0010
0000
1000
0000
0100
0000
1000
0000
0001
0000
1M00
0001
1000
0001
,
0100
0010
0100
0010
1000
0100
0010
0100
0010
0000
0010
0000
0022
0000
0033
0000
,
0000
2002
3003
0000
1010
0000
0010
1000
,
0001
0100
0010
1000
0100
0010
0100
0000
,
0000
0011
0000
0000
1001
0000
0001
0100
,
0010
1000
0010
0100
0001
1000
0001
0000
,
0000
0101
0000
0000
1010
0000
0010
1000
,
0010
0100
0001
0010
0100
1000
0010
0000
,
0000
1010
0000
0000
0101
0000
0010
1000
,
0100
0010
0002
0000
0000
0000
1003
0001
,
0010
0100
1000
0001
0100
0010
1000
0100
,
0010
0100
1000
0010
0100
0001
1000
0001
,
1000
0010
0100
0001
1000
0100
0010
0100
,
1000
0001
0100
0010
1000
0001
1000
0001
,
1000
0100
0010
0001
0100
0010
0100
0001
,
1000
0100
0010
0001
1000
0100
1000
0010
,
0100
1000
0100
0010
0001
0010
0001
1000
,
0100
0010
0001
0100
0001
0010
0002
0000
,
0000
0003
0000
0000
;

//--------------- dance-single - ----------------
#NOTES:
     dance-single:
     :
     Challenge:
     20:
     1,1,1,0.457,1,943,454,53,22,49,0:
0000
0000
0000
0000
0000
0000
0000
0000
0001
0010
0001
1000
0100
1000
0001
0100
,
0001
1000
0100
1000
0001
0100
0001
1000
0100
0010
0001
0100
0010
1000
0100
0010
,
0001
0100
0010
1000
0100
1000
0001
0100
0001
1000
0100
0010
0001
0100
0010
1000
,
0100
0010
0100
1000
0001
0100
0010
0100
0001
0010
0100
1000
0010
0100
0001
0010
,
0100
1000
0010
0100
0001
1000
0001
1000
0001
0010
0100
0010
0001
0100
0010
1000
,
0001
0010
0100
1000
0001
0100
0010
1000
0001
0010
0100
1000
0001
0100
0010
0100
,
0001
0010
0100
1000
0001
0100
0010
1000
0001
0010
0100
1000
0010
0100
0001
0010
,
0100
1000
0010
0100
0001
0100
0010
1000
0100
0010
0001
0100
0010
1000
0001
0010
,
0100
1000
0010
0100
0001
0000
0100
0000
1001
0000
0010
0000
0100
0000
0001
1000
,
0100
1000
0001
0100
0010
0000
1000
0100
0010
0001
1000
0000
1001
0000
0001
0100
,
0010
1000
0100
1000
0001
0000
1000
0100
1100
0000
0010
0000
0001
0000
1000
0100
,
1000
0100
1000
0010
0100
0000
0001
1000
0001
0000
0100
0000
0010
0000
1000
0001
,
1000
0000
0100
0000
0010
0001
0100
0010
1000
0000
0001
0000
1000
0000
0010
0100
,
0001
1000
0100
0010
0001
0000
0100
0010
1000
0000
0001
0000
1000
0100
0010
0001
,
0100
0010
1000
0000
0010
0000
0100
0000
0001
0000
0010
0000
0001
0000
1000
0000
,
0100
1000
0001
0100
0000
0000
MMMM
0000
,
0000
0000
0000
0000
1001
0000
1000
0001
,
0100
0000
0010
1000
0100
0010
0001
0000
,
1001
0000
1000
0010
0100
0001
1000
0000
,
0100
0010
0100
0010
0001
0000
0100
0000
,
0101
0000
1001
0000
0001
0100
0010
1000
,
0100
0010
0001
0100
0010
1000
0001
0000
,
1000
0001
0100
0000
0010
0000
1000
0000
,
0001
0000
0000
0000
0000
0000
0000
0000
0000
0000
0000
0000
0010
0000
0000
0001
0000
0000
0010
0000
0000
0000
0000
0000
0000
0000
0000
0000
0000
0000
0100
0000
0000
0000
0000
0000
1000
0000
0000
0000
0001
0000
0000
0000
1000
0000
0000
0000
,
0001
0000
1000
0000
0001
0000
1000
0000
0000
0000
0000
0000
0010
0000
0000
0100
0000
0000
0001
0000
0000
0100
0000
0000
,
0010
1000
0100
1000
0001
0010
0100
1000
,
0001
0100
0010
1000
0010
1000
0001
0100
,
0010
1000
0010
1000
0001
0000
1001
0000
,
0101
0000
1010
0000
0010
0100
0001
0010
,
0100
0010
0001
0100
0010
1000
0001
0100
,
0010
1000
0010
0100
0010
0100
0001
0000
,
1000
0000
0000
0000
0000
0000
0001
0000
0000
0100
0000
0000
0010
0000
1000
0000
0010
0000
0100
0000
0000
0001
0000
0000
,
1000
0000
1000
0001
1000
0100
0010
0001
,
0100
0010
1000
0100
1000
0010
0100
0001
,
0010
0100
1000
0010
0100
0001
1000
0100
,
0010
0001
0100
0010
0100
0010
1000
0001
,
1000
0000
0010
0100
0000
0001
0100
0010
,
1000
0000
0000
0000
0000
0000
0001
0000
0100
0000
0001
0000
0100
0000
0000
0000
0000
0000
0001
0000
0000
1000
0000
0000
,
0001
0000
1000
0000
0100
1000
0001
0100
,
0010
0000
1000
0000
0010
0000
1000
0000
0000
0001
0000
0000
1000
0000
0100
0000
0010
0000
0001
0000
0100
0000
0010
0000
,
1000
0000
0001
0100
0000
0010
1000
0100
,
0010
0000
0001
0100
0000
0010
1000
0100
,
0010
0000
0001
0010
0000
0100
1000
0010
,
0100
0000
0001
1000
0001
0100
0001
0100
,
0010
0000
1000
0100
0000
0010
0001
0100
,
0010
0000
1000
0100
0000
0010
0100
1000
,
0001
0100
0001
0100
0010
1000
0100
1000
,
0001
0000
0000
0000
0000
0000
1000
0000
0010
0000
1000
0000
0001
0000
0000
0100
0000
0000
0001
0000
1000
0000
0010
0000
,
2000
0000
3000
0202
0000
0303
1001
0000
,
0101
0000
0000
0000
0000
0000
0100
0000
0010
0000
1000
0000
0001
0000
0000
0100
0000
0000
0010
0000
1000
0000
0001
0000
,
0010
0000
0000
0110
0000
0000
1001
0000
,
0100
0000
0000
0010
0000
0000
1000
0000
0000
0010
0000
0000
1000
0000
0000
0001
0000
0000
0100
0000
0010
0000
1000
0000
,
0001
0000
0000
0101
0000
0000
1010
0000
,
0100
0000
0000
0000
0000
0000
0010
0000
0100
0000
0010
0000
0100
0000
0000
0010
0000
0000
1000
0000
0001
0000
0100
0000
,
0010
0000
0000
1010
0000
0000
0101
0000
,
0001
1000
0010
0100
0001
0010
0100
0010
,
0001
1000
0001
0000
0000
0000
1000
0010
1000
0000
0000
0000
0001
1000
0001
0000
,
1000
0100
0010
0001
1000
0100
0010
0100
,
1000
0010
1000
0000
0000
0000
0001
0100
0001
0000
0000
0000
1000
0001
1000
0000
,
0001
0100
0001
0100
0010
1000
0100
0010
,
0001
1000
0001
0000
0000
0000
1000
0010
1000
0000
0000
0000
0001
0100
0001
0000
,
1000
0100
0010
0001
0100
0010
0100
0010
,
1000
0001
1000
0000
0000
0000
1001
0000
0000
0000
0001
0000
0100
0000
0010
0000
,
1000
0000
0000
0100
0000
0000
0010
0000
0000
0001
0000
0000
0100
0000
0010
0000
1000
0000
0100
0000
1000
0000
0001
0000
,
0200
0000
0000
0300
,
0000
0000
0000
0000
,
0001
0100
0010
1000
0100
0000
0000
0000
1001
0000
0010
0000
0100
0000
0001
1000
,
0001
0100
0010
1000
0100
0000
0010
0001
0101
0000
0010
1000
0010
0000
0100
0000
,
0101
0000
0001
0100
0000
0010
1000
0000
0001
0100
0000
0010
1000
0100
1000
0001
,
1000
0000
0010
0100
0000
0001
0010
0000
0100
0010
0000
0001
0100
0010
1000
0000
,
1010
0000
0000
0010
0000
0100
0001
0000
0100
0010
0000
1000
0100
0010
0100
1000
,
0100
0000
0010
0100
0000
0010
0001
0000
1000
0010
0000
0100
0001
0010
0001
0000
,
1001
0000
0000
0100
0000
0000
0010
0000
0000
1000
0000
0000
0001
0000
0100
0000
,
0110
0000
0000
0010
0000
0000
1000
0000
0000
0001
0000
0000
0100
0000
0010
0000
,
1010
0000
0000
0100
0000
0000
0010
0000
0000
1000
0000
0000
0001
0000
0100
0000
,
0110
0000
0000
0010
0000
0000
1000
0000
0000
0010
0000
1000
0100
1000
0001
0000
,
1001
1000
1010
0010
0110
0100
0101
0001
,
1001
1000
1010
0010
0110
0100
0101
0001
,
1001
0000
1000
0010
0100
0001
0100
0000
0010
1000
0100
1000
0001
0000
1000
0000
,
1001
0000
0000
0000
1010
0000
0000
0000
0010
0000
0000
0000
0100
0010
0100
0010
,
1000
0000
0001
0000
0100
0000
0010
1000
1010
0000
0000
0000
1000
0001
0100
0010
,
0110
0000
0000
0000
0000
0000
0000
0000
0010
0000
0000
0000
1000
0000
0001
1000
0001
0000
0000
0000
0000
0000
0000
0000
1000
0000
0000
0000
0001
0100
0001
0100
,
0001
0000
0100
0000
0010
0000
1000
0000
0001
0100
0010
0100
0001
0100
0010
0100
,
0000
0000
0000
0000
0000
0000
0001
0000
1000
0000
0001
0000
1000
0000
0001
0000
1000
0000
0001
0000
0000
0010
0000
0000
,
0100
1000
0100
0010
0001
0100
0001
0100
,
0010
1000
0010
0100
0001
0000
1000
0100
,
0010
0001
0100
0010
1000
0010
0100
0001
,
0010
0100
1000
0010
0100
0000
0001
0010
,
0100
1000
0010
0100
0001
0010
0100
1000
,
0010
0100
0001
1000
0001
0000
1000
0100
,
0010
0001
1000
0100
0010
0001
1000
0010
,
0100
0001
1000
0100
1000
0010
0100
0001
,
0010
0001
0100
0010
1000
0100
0010
0001
,
0100
0010
1000
0001
0010
0100
1000
0010
,
0100
0001
1000
0100
0010
0100
1000
0010
,
0100
0001
1000
0100
1000
0010
0100
0010
,
1000
0100
1000
0010
0100
0001
0010
0100
,
1000
0010
0100
0001
0010
0001
1000
0100
,
1000
0100
1000
0100
1000
0010
0100
0001
,
0100
0000
0000
0001
0000
0000
0100
0000
0000
0001
0000
0000
0100
0000
0010
0000
1000
0000
0001
0000
0000
0010
0000
0000
,
0100
1000
0010
0100
0001
0010
0100
1000
,
0010
0000
0000
0100
0000
0000
0001
0000
0000
1000
0000
0000
0001
0000
0100
0000
0010
0000
1000
0000
0000
0001
0000
0000
,
0100
0010
0100
0001
1000
0100
0010
0001
,
0100
0000
0000
0010
0000
0000
1000
0000
0000
0001
0000
0000
1000
0000
0010
0000
0100
0000
0010
0000
0000
1000
0000
0000
,
0001
0100
0010
1000
0100
0010
0100
1000
,
0001
0000
0000
1000
0000
0000
0010
0000
0000
0100
0000
0000
0001
0000
0100
0000
0010
0000
1000
0000
0000
0010
0000
0000
,
1000
0000
0001
0000
0100
0000
0010
0000
0000
1000
0000
0000
0001
0000
1000
0000
0100
0000
1000
0000
0000
0001
0000
0000
,
0100
0010
1000
0010
0100
0001
1000
0100
,
0010
0001
0100
0010
1000
0010
0100
0001
,
1000
0100
0010
0100
1000
0001
0100
0010
,
1000
0001
0010
0100
1000
0010
0100
0001
,
1000
0100
0010
0001
0100
0010
1000
0100
,
0010
0001
0100
0010
1000
0100
0010
0001
,
0100
0000
0010
0000
1000
0000
0100
0000
1000
0000
0001
0000
1M00
0001
1000
0001
,
0100
0010
0100
0010
1000
0100
0010
0100
0010
0000
0010
0000
0022
0000
0033
0000
,
0000
2002
3003
0000
1010
0000
0010
1000
,
0001
0000
0100
0000
0010
0000
1000
0000
0000
0001
0000
0000
0100
0000
0010
0000
1000
0000
0010
0000
0000
0000
0000
0000
,
0000
0101
0000
0000
1001
0000
0001
0100
,
0010
1000
0010
0100
0001
1000
1001
0000
,
0000
0101
0000
0000
1010
0000
0010
1000
,
0010
0000
0100
0000
0001
0000
1000
0000
0000
0010
0000
0000
1000
0000
0001
0000
0100
0000
0010
0000
0000
0000
0000
0000
,
0000
1010
0000
0000
0101
0000
0010
1000
,
0100
0000
0010
0000
0002
0000
0000
0000
0000
0000
0000
0000
1003
0100
1000
0000
,
0010
0100
0001
1000
0100
0010
0001
0100
,
0010
0000
0100
0000
0001
0000
0010
0000
0100
0000
1000
0000
0001
0100
0001
0000
,
1000
0010
0100
0001
1000
0100
0010
0100
,
1000
0000
0001
0000
0100
0000
0010
0000
1000
0000
0001
0000
1000
0010
1000
0000
,
0001
0100
0010
1000
0100
0010
0100
1000
,
0001
0000
0100
0000
0010
0000
1000
0000
0001
0000
0100
0000
0010
1000
0001
0000
,
0000
0000
1000
0010
0100
0000
0000
0000
0001
0100
0010
0000
0000
0000
1000
0001
,
0100
0000
0000
0010
0000
0000
1000
0000
0001
0000
1000
0000
0001
0000
1000
0000
0001
0000
2000
0000
0000
0000
0000
0000
,
0000
3000
0000
0000
;
