#TITLE:Press Play Walk Away;
#SUBTITLE:;
#ARTIST:S3rl & SynthWulf;
#TITLETRANSLIT:;
#SUBTITLETRANSLIT:;
#ARTISTTRANSLIT:;
#GENRE:Happy Hardcore;
#CREDIT:;
#MUSIC:Press Play Walk Away.ogg;
#BANNER:ban.png;
#BACKGROUND:Press Play Walk Away-bg.png;
#CDTITLE:;
#SAMPLESTART:104.903;
#SAMPLELENGTH:13.714;
#SELECTABLE:YES;
#OFFSET:0.009;
#BPMS:0.000=175.000
,226.000=87.500
,242.000=175.000
;
#STOPS:20.000=-5.486
,38.500=-5.486
,55.250=-5.486
,72.250=-5.486
,89.000=-0.343
,90.250=-0.343
,91.500=-0.343
,92.750=-0.343
,94.000=-0.343
,95.250=-0.343
,96.500=-0.343
,97.750=-0.343
,100.000=8.914
,129.000=1.029
,157.000=0.343
,309.000=-2.743
;
#DISPLAYBPM:175.000;
#BGCHANGES:;
#FGCHANGES:;

//--------------- dance-single - ----------------
#NOTES:
     dance-single:
     :
     Beginner:
     4:
     0.101158,0.171475,0.030004,0,0.024004,118,113,5,0,5,0,0.101158,0.171475,0.030004,0,0.024004,118,113,5,0,5,0:
0000
0000
0000
0000
,
0000
0000
0000
0001
,
0001
0000
0000
0000
,
1000
0000
0000
0000
,
0010
0000
0000
0000
,
0000
1000
0000
0000
0000
0000
0000
0000
0000
0000
0000
0000
0000
0000
0000
0000
0000
0000
0000
0000
0000
0000
0000
0000
0000
0000
0000
0000
0000
0000
0000
0000
,
0000
0000
0000
0000
,
0000
0000
0000
0000
,
0000
0000
0000
0000
,
M000
0000
0000
0000
0000
0000
0000
0000
0000
0000
0000
0000
0000
0000
0000
0000
0000
0000
0000
0000
0000
0100
0000
0000
0000
0000
0000
0000
0000
0000
0000
0000
,
0000
0000
0000
0000
,
0000
0000
0000
0000
,
0000
0000
0000
0000
,
0000
0000
0000
0000
0000
0000
0000
0000
0000
0000
0000
0000
0000
0000
0000
0000
0000
0000
0000
0000
0000
0M00
0000
0000
0000
0000
0000
0010
0000
0000
0000
0000
,
0000
0000
0000
0000
,
0000
0000
0000
0000
,
0000
0000
0000
0000
,
0000
0000
0000
0000
0000
0000
0000
0000
0000
0000
0000
0000
0000
00M0
0000
0000
,
0000
0000
0000
1000
0000
0000
0000
0000
0000
0000
0000
0000
0000
0000
0000
0000
0000
0000
0000
0000
0000
0000
0000
0000
0000
0000
0000
0000
0000
0000
0000
0000
,
0000
0000
0000
0000
,
0000
0000
0000
0000
,
0000
0000
0000
0000
,
0000
0000
0000
M000
0000
0000
0000
0000
0000
0000
0000
0000
0000
0000
0000
0000
0000
0000
0000
0000
0000
0000
0000
0000
0000
0000
0000
0000
0000
0000
0000
0000
,
0000
0000
0000
0000
,
0000
0000
0000
0000
,
0000
0000
0000
0000
,
0000
0000
0010
0000
,
0010
0000
0100
0000
,
0100
0000
0001
0000
,
0000
0000
1000
0000
,
1000
0000
1000
0000
,
0010
0000
0100
0000
,
0001
0000
0000
1000
,
0000
1000
0000
0010
,
0000
0010
0000
0100
,
0000
0001
0000
1000
,
0000
0000
0000
0010
,
0000
0100
0000
0100
,
0000
0010
0000
1000
,
0000
0001
0000
0000
,
0000
0000
1001
0000
,
1000
0000
0010
0000
,
0100
0000
0001
0000
,
0000
0000
1000
0000
,
0000
0000
0010
0000
,
0010
0000
0100
0000
,
0100
0000
0001
0000
,
0001
0000
1000
0000
,
0000
0000
1001
0000
,
0000
0000
0010
0000
,
0000
0000
0100
0000
,
0000
0000
0001
0000
,
0000
1000
1000
0000
,
0000
0000
0010
0000
,
0000
0000
0100
0000
,
0000
0000
0001
0000
,
0000
0000
1001
0000
,
1000
0000
0001
0000
,
1000
0000
0001
0000
,
1000
0000
0001
0000
,
1000
1000
1000
0000
,
0000
0000
0010
0000
,
0000
0000
0100
0000
,
0100
0000
0010
0000
,
1000
0000
0001
0000
,
0100
0000
1000
0000
,
0100
0000
0010
0000
,
1000
0000
0001
0000
,
0100
0000
0010
0000
,
1000
0000
0001
0000
,
0000
0000
1001
0000
,
0001
0000
0100
0000
,
0010
0000
1000
0000
,
0100
0000
0001
0000
,
0100
0000
0010
0000
,
1000
0000
0001
0000
,
1000
0000
0001
0000
,
0001
0000
0000
0000
0000
0000
0000
0000
0000
0000
0000
0000
0000
0000
0000
0000
0000
1000
0000
0000
0000
0000
0000
0000
0000
0000
0000
0000
0000
0000
0000
0000
0000
0000
0000
0000
0000
0000
0000
0000
0000
0000
0000
0000
0000
0000
0000
0000
0000
0000
0000
0000
0000
0000
0000
0000
0000
0000
0000
0000
0000
0000
0000
0000
,
0000
0000
0000
0000
,
0000
M000
0000
0000
,
0000
0000
0000
0000
,
0001
0000
0001
0000
,
0100
0000
0010
0000
,
1000
0000
0001
0000
,
0100
0000
0100
0000
,
0010
0000
1000
0000
,
0001
0000
1000
0000
,
0010
0000
0100
0000
,
0000
0000
1001
0000
,
0000
0000
0001
0000
,
0000
0000
1000
0000
,
0000
0000
0010
0000
,
0000
0100
0100
0000
,
0000
0000
0001
0000
,
0000
0000
1000
0000
,
0000
0001
0000
0000
;

//--------------- dance-single - ----------------
#NOTES:
     dance-single:
     :
     Easy:
     5:
     0.186028,0.285792,0.030004,0.060009,0.024004,217,212,5,10,5,0,0.186028,0.285792,0.030004,0.060009,0.024004,217,212,5,10,5,0:
0000
0000
0000
0000
,
0000
0000
0000
0001
,
0001
0000
0000
0000
,
1000
0000
0000
0001
0000
0000
0000
0000
,
0010
0000
0000
0000
,
0000
1000
0000
0000
0000
0000
0000
0000
0000
0000
0000
0000
0000
0000
0000
0000
0000
0000
0000
0000
0000
0000
0000
0000
0000
0000
0000
0000
0000
0000
0000
0000
,
0000
0000
0000
0000
,
0000
0000
0000
0000
,
0000
0000
0000
0000
,
M000
0000
0000
0000
0000
0000
0000
0000
0000
0000
0000
0000
0000
0000
0000
0000
0000
0000
0000
0000
0000
0100
0000
0000
0000
0000
0000
0000
0000
0000
0000
0000
,
0000
0000
0000
0000
,
0000
0000
0000
0000
,
0000
0000
0000
0000
,
0000
0000
0000
0000
0000
0000
0000
0000
0000
0000
0000
0000
0000
0000
0000
0000
0000
0000
0000
0000
0000
0M00
0000
0000
0000
0000
0000
0010
0000
0000
0000
0000
,
0000
0000
0000
0000
,
0000
0000
0000
0000
,
0000
0000
0000
0000
,
0000
0000
0000
0000
0000
0000
0000
0000
0000
0000
0000
0000
0000
00M0
0000
0000
,
0000
0000
0000
1000
0000
0000
0000
0000
0000
0000
0000
0000
0000
0000
0000
0000
0000
0000
0000
0000
0000
0000
0000
0000
0000
0000
0000
0000
0000
0000
0000
0000
,
0000
0000
0000
0000
,
0000
0000
0000
0000
,
0000
0000
0000
0000
,
0000
0000
0000
M000
0000
0000
0000
0000
0000
0000
0000
0000
0000
0000
0000
0000
0000
0000
0000
0000
0000
0000
0000
0000
0000
0000
0000
0000
0000
0000
0000
0000
,
0000
0000
0000
0000
,
0000
0000
0000
0000
,
0000
0000
1000
0001
,
1000
0100
0010
0001
,
0020
0000
0130
1000
,
0100
0010
0001
0100
,
0010
1000
0100
0010
,
0001
0100
0010
1000
,
0100
0010
0001
0100
,
0010
1000
0000
1001
,
0001
1000
0100
0010
,
0001
0010
0100
1000
,
0010
0100
0001
1000
,
0100
0010
0000
0001
,
0000
0001
1000
0100
,
0010
0001
0100
0010
,
1000
0001
1000
0001
,
0100
0000
1001
1000
,
0001
0100
0010
0001
,
0200
0000
0301
0010
,
0100
1000
0010
0100
,
0001
0000
1000
0000
,
0001
0010
0100
1000
,
0100
0010
0001
1000
,
0001
0000
1000
0010
,
0010
0000
0020
0000
,
0030
0000
0000
0000
0010
0000
0000
1000
,
0000
0000
0002
0000
,
0003
0000
2000
0000
,
3000
1000
0002
0000
,
0003
0000
0000
0000
1000
0000
0000
1000
,
0000
0000
0020
0000
,
0030
0000
0100
0001
,
0100
0010
1001
0000
,
1000
0000
0001
0000
,
1000
0000
0000
0001
0001
0000
0000
0000
,
1000
0000
0001
0000
,
1000
1000
1000
1000
1000
0000
0000
0000
,
0001
0000
0010
0000
,
1000
0000
0002
0000
,
0100
0000
0010
0003
,
1000
0010
0200
0000
,
0010
0000
1000
0300
,
0100
0001
2000
0000
,
0000
0000
0000
3000
,
0100
0001
0010
0100
,
1000
0010
0100
0000
,
0000
0000
0000
1000
,
0001
0010
0100
1000
,
0010
0100
1000
0010
,
0100
0010
0001
0010
,
1000
0001
0010
0100
,
1000
0100
0001
0100
,
1000
0010
0001
0100
,
0001
0000
0000
0000
0000
0000
0000
0000
0000
0000
0000
0000
0000
0000
0000
0000
0000
1000
0000
0000
0000
0000
0000
0000
0000
0000
0000
0000
0000
0000
0000
0000
0000
0000
0000
0000
0000
0000
0000
0000
0000
0000
0000
0000
0000
0000
0000
0000
0000
0000
0000
0000
0000
0000
0000
0000
0000
0000
0000
0000
0000
0000
0000
0000
,
0000
0000
0000
0000
,
0000
M000
0000
0000
,
0000
0000
1001
0000
,
0001
0000
0001
0010
,
0100
1000
0010
0000
,
1000
0000
0001
0000
,
0001
0010
0100
1000
,
0010
0000
1000
0000
,
0001
0000
1000
0100
,
0010
0001
0100
0000
,
0001
1000
1001
0001
,
0100
0010
1000
0010
,
0100
0001
0010
0100
,
1000
0010
0100
0001
,
0010
0100
0100
0010
,
0001
0100
0001
0010
,
0100
1000
0010
0100
,
0001
0001
0000
0000
;

//--------------- dance-single - ----------------
#NOTES:
     dance-single:
     :
     Medium:
     11:
     0.348052,0.485847,0.126019,0.144021,0.057008,406,385,21,24,6,0,0.348052,0.485847,0.126019,0.144021,0.057008,406,385,21,24,6,0:
0000
0000
0000
0000
,
0000
0000
0000
0001
,
2002
0000
0000
3003
,
2000
0000
0000
0002
0000
3003
0000
0000
,
1001
0000
0000
0000
,
0000
0001
0000
0000
0000
0000
0000
0000
0000
0000
0000
0000
0000
0000
0000
0000
0000
0000
0000
0000
0000
0000
0000
0000
0000
0000
0000
0000
0000
0000
0000
0000
0000
0000
0000
0000
0000
0000
0000
0000
0000
0000
0000
0000
0000
0000
0000
0000
0000
0000
0000
0000
0000
0000
0000
0000
0000
0000
0000
0000
0000
0000
0000
0000
,
0000
0000
0000
0000
,
0000
0000
0000
0000
,
0000
0000
0000
0000
,
000M
0000
0000
0000
0000
0000
0000
0000
0000
0000
0000
0000
0000
0000
0000
0000
0000
0000
0000
0000
0000
0000
0000
0000
0000
0000
0000
0000
0000
0000
0000
0000
0000
0000
0000
0000
0000
0000
0000
0000
0000
0100
0000
0000
0000
0000
0000
0000
0000
0000
0000
0000
0000
0000
0000
0000
0000
0000
0000
0000
0000
0000
0000
0000
,
0000
0000
0000
0000
,
0000
0000
0000
0000
,
0000
0000
0000
0000
,
0000
0000
0000
0000
0000
0000
0000
0000
0000
0000
0000
0000
0000
0000
0000
0000
0000
0000
0000
0000
0000
0000
0000
0000
0000
0000
0000
0000
0000
0000
0000
0000
0000
0000
0000
0000
0000
0000
0000
0000
0M00
0000
0000
0000
0000
0000
0000
0000
0000
0000
0000
0000
0000
1000
0000
0000
0000
0000
0000
0000
0000
0000
0000
0000
,
0000
0000
0000
0000
,
0000
0000
0000
0000
,
0000
0000
0000
0000
,
0000
0000
0000
0000
0000
0000
0000
0000
0000
0000
0000
0000
0000
0000
0000
0000
0000
0000
0000
0000
0000
0000
0000
0000
0000
0000
0000
0000
0000
0000
0000
0000
0000
0000
0000
0000
0000
0000
0000
0000
0000
0000
0000
0000
0000
0000
0000
0000
0000
0000
0000
0000
0000
M000
0000
0000
0000
0000
0000
0000
0000
0000
0000
0000
,
0000
0000
0000
0000
0000
1000
0000
0000
0000
0000
0000
0000
0000
0000
0000
0000
0000
0000
0000
0000
0000
0000
0000
0000
0000
0000
0000
0000
0000
0000
0000
0000
0000
0000
0000
0000
0000
0000
0000
0000
0000
0000
0000
0000
0000
0000
0000
0000
0000
0000
0000
0000
0000
0000
0000
0000
0000
0000
0000
0000
0000
0000
0000
0000
,
0000
0000
0000
0000
,
0000
0000
0000
0000
,
0000
0000
0000
0000
,
0000
M000
0000
0000
000M
0000
0000
0000
0000
M000
0000
0000
0000
0000
000M
0000
,
0000
0000
0000
M000
0000
0000
0000
0000
000M
0000
0000
0000
0000
M000
0000
0000
,
0000
0000
000M
0000
0000
0000
0000
M000
0000
0000
0000
0000
0000
0000
0000
0000
,
0000
0000
0001
1000
,
0001
0000
1000
0010
1000
0010
0100
0000
,
0001
0000
0100
0010
1000
0100
1000
0001
,
1000
0000
0001
0000
0100
0010
0100
0010
,
1000
0000
0001
0000
1001
0000
1000
0010
,
0100
0001
0100
0010
1000
0100
0010
0100
,
1000
0000
0001
1000
0010
0100
0001
1000
,
0010
0000
0100
1001
,
1000
0010
0100
0000
0001
1000
0010
1000
,
0002
0000
0203
0000
0310
1000
0100
1000
,
0010
0100
0001
0000
1001
0000
0100
0010
,
0100
0001
1000
0000
0010
0000
1010
0000
,
1000
0001
0100
0010
0100
0001
1000
0100
,
1000
0001
0100
0000
0010
1000
0100
1000
,
0001
0100
0010
0000
1000
0000
0002
0000
,
0103
0000
0001
0000
1001
0000
1000
0100
,
0001
0000
0100
1000
0001
0100
0010
0000
,
0101
0000
0001
1000
0010
0100
0001
1000
,
0100
0000
0011
0000
0001
0100
0010
0100
,
0001
0000
0100
0000
0011
0000
1000
0010
,
0100
0001
1000
0100
0010
0001
0100
0010
,
1000
0000
0001
0100
0010
0010
1000
0100
,
0010
0000
0001
0100
0010
0010
1000
0100
,
0010
0001
1001
1000
,
0001
0100
0010
0100
0001
0000
0000
0101
,
0000
0000
0010
0000
1010
0000
1000
0001
,
0100
0010
1000
0001
1001
0000
0100
0000
,
0010
1000
1010
0000
1001
0000
0001
0100
,
0010
0100
0001
0000
1010
0000
0000
0101
,
0000
0000
1000
0001
0100
0000
0010
1000
,
0001
0000
1000
0100
0010
0001
0100
0010
,
1000
0000
0010
1000
1010
0000
0000
0000
,
0010
0000
0000
0020
0000
0000
0000
0000
1030
0000
0000
0000
0000
0000
0000
0000
,
0001
0000
0000
0100
0010
0000
0000
0000
,
1000
0000
0000
0002
0000
0000
0000
0000
0103
0000
0000
0000
0000
0000
0000
0000
,
0010
0010
0010
0010
1000
0000
0001
0000
,
0100
0010
1000
0001
,
0100
0000
0010
0000
1000
0000
0001
1000
,
0000
0010
0000
0100
0000
0001
0000
1000
,
0020
0000
0130
0001
2000
0000
3001
0100
,
0000
0010
0000
1000
0000
0100
0000
0010
,
0200
0000
1300
0000
0010
0000
0100
0001
,
0000
0100
0000
0010
0000
1000
0000
0001
,
0200
0301
1000
0020
,
0230
0000
0302
0000
2003
0000
3010
0100
,
0001
0000
1000
0000
1001
0000
0001
0100
,
0000
0010
0000
1000
0000
0000
0100
0010
,
0002
0000
0103
0010
1000
0000
0001
0100
,
0000
0010
0000
1000
0000
0001
0000
0100
,
0020
0000
1030
0001
0010
0100
1000
0001
,
0100
0010
0100
0001
0010
0001
1000
0100
,
0010
0100
1000
0001
1000
0000
0001
0000
,
1000
0000
0000
0000
0000
0000
0000
0000
0000
0000
0000
0000
0000
0000
0000
0000
0000
1100
0000
0000
0000
0000
0000
0000
0000
0000
0000
0000
0000
0000
0000
0000
0000
0000
0000
0000
0000
0000
0000
0000
0000
0000
0000
0000
0000
0000
0000
0000
0000
0000
0000
0000
0000
0000
0000
0000
0000
0000
0000
0000
0000
0000
0000
0000
,
0000
0000
0000
0000
,
0000
MM00
0000
0000
,
0000
0000
0000
0000
1001
0000
0100
0010
,
0000
0100
0000
1000
0000
0001
0000
0010
,
0020
0000
0031
0100
0020
0000
1030
0001
,
0000
0000
0100
0000
0000
0000
0010
0000
0000
0000
1000
0000
0000
0000
0001
0100
,
0001
0000
0100
0010
2000
0000
3001
0100
,
0000
0000
0010
0000
0000
0000
1000
0000
0000
0000
0100
0000
0000
0000
0010
0001
,
0010
0000
0001
0100
0020
0000
1030
0001
,
0000
0000
0100
0000
0000
0000
0010
0000
0000
0000
1000
0000
0000
0000
0001
1000
,
0001
0000
1000
0000
0001
0100
0001
0100
,
0010
0000
1000
0000
0010
0000
1000
0000
0001
0000
0010
0000
0100
0000
1000
0001
,
2000
0000
3001
0100
0010
0100
0001
1000
,
0100
0000
0010
0000
0001
0000
0100
0000
0010
0000
1000
0000
0001
0000
0100
0010
,
1000
0000
0001
1000
0001
0010
0100
0010
,
0001
0000
1000
0000
0010
0000
0100
0000
0001
0000
0010
0000
0001
0000
1000
0001
,
1000
0000
0001
0100
0010
1000
0100
0010
,
0001
0100
1000
0000
0000
0000
0000
0000
;

//--------------- dance-single - ----------------
#NOTES:
     dance-single:
     :
     Hard:
     15:
     0.443208,0.628743,0.102015,0.300044,0.240036,517,500,17,50,6,0,0.443208,0.628743,0.102015,0.300044,0.240036,517,500,17,50,6,0:
0000
0000
0000
0000
,
0000
0000
0000
0001
,
2002
0000
3003
0000
,
0020
0000
0000
2030
0000
0000
3000
0000
,
0020
0000
0030
0000
,
0000
1000
0000
0000
0000
0000
0000
0000
0000
0000
0000
0000
0000
0000
0000
0000
0000
0000
0000
0000
0000
0000
0000
0000
0000
0000
0000
0000
0000
0000
0000
0000
0000
0000
0000
0000
0000
0000
0000
0000
0000
0000
0000
0000
0000
0000
0000
0000
0000
0000
0000
0000
0000
0000
0000
0000
0000
0000
0000
0000
0000
0000
0000
0000
,
0000
0000
0000
0000
,
0000
0000
0000
0000
,
0000
0000
0000
0000
,
M000
0000
0000
0000
0000
0000
0000
0000
0000
0000
0000
0000
0000
0000
0000
0000
0000
0000
0000
0000
0000
0000
0000
0000
0000
0000
0000
0000
0000
0000
0000
0000
0000
0000
0000
0000
0000
0000
0000
0000
0000
0001
0000
0000
0000
0000
0000
0000
0000
0000
0000
0000
0000
0000
0000
0000
0000
0000
0000
0000
0000
0000
0000
0000
,
0000
0000
0000
0000
,
0000
0000
0000
0000
,
0000
0000
0000
0000
,
0000
0000
0000
0000
0000
0000
0000
0000
0000
0000
0000
0000
0000
0000
0000
0000
0000
0000
0000
0000
0000
0000
0000
0000
0000
0000
0000
0000
0000
0000
0000
0000
0000
0000
0000
0000
0000
0000
0000
0000
000M
0000
0000
0000
0000
0000
0000
0000
0000
0000
0000
0000
0000
1000
0000
0000
0000
0000
0000
0000
0000
0000
0000
0000
,
0000
0000
0000
0000
,
0000
0000
0000
0000
,
0000
0000
0000
0000
,
0000
0000
0000
0000
0000
0000
0000
0000
0000
0000
0000
0000
0000
M000
0000
0000
,
0000
0000
0000
0000
0000
0000
0000
0000
0000
0000
0000
0000
0000
0010
0000
0000
0000
0000
0000
0000
0000
0000
0000
0000
0000
0000
0000
0000
0000
0000
0000
0000
0000
0000
0000
0000
0000
0000
0000
0000
0000
0000
0000
0000
0000
0000
0000
0000
0000
0000
0000
0000
0000
0000
0000
0000
0000
0000
0000
0000
0000
0000
0000
0000
0000
0000
0000
0000
0000
0000
0000
0000
0000
0000
0000
0000
0000
0000
0000
0000
0000
0000
0000
0000
0000
0000
0000
0000
0000
0000
0000
0000
0000
0000
0000
0000
0000
0000
0000
0000
0000
0000
0000
0000
0000
0000
0000
0000
0000
0000
0000
0000
0000
0000
0000
0000
0000
0000
0000
0000
0000
0000
0000
0000
0000
0000
0000
0000
0000
0000
0000
0000
0000
0000
0000
0000
0000
0000
0000
0000
0000
0000
0000
0000
0000
0000
0000
0000
0000
0000
0000
0000
0000
0000
0000
0000
0000
0000
0000
0000
0000
0000
0000
0000
0000
0000
0000
0000
0000
0000
0000
0000
0000
0000
0000
0000
0000
0000
0000
0000
0000
0000
0000
0000
0000
0000
0000
0000
0000
0000
0000
0000
,
0000
0000
0000
0000
,
0000
0000
0000
0000
,
0000
0000
0000
0000
,
0000
00M0
0000
0000
000M
0000
0000
0000
0000
M000
0000
0000
0000
0000
00M0
0000
,
0000
0000
0000
0M00
0000
0000
0000
0000
000M
0000
0000
0000
0000
0M00
0000
0000
,
0000
0000
00M0
0000
0000
0000
0000
M000
0000
0000
0000
0000
0000
0000
0000
0000
,
0000
0000
0000
0000
0001
0000
1000
0100
,
0020
0000
0031
0100
0010
1000
0200
0000
,
2300
0000
3001
0100
0010
0100
0001
1000
,
0200
0000
2300
0000
3001
0100
0010
1000
,
0002
0000
0103
0000
0110
0000
0010
1000
,
0100
0010
0001
0100
0010
1000
0100
0001
,
0200
0000
0310
0001
0100
0010
1000
0100
,
0010
0000
0001
0000
1000
0000
0000
0000
0010
0000
0000
0000
1000
0000
0001
0100
,
0001
0000
1000
0010
1000
0000
0001
0000
0100
0000
0010
0000
1000
0000
0100
0000
,
0011
0000
0001
0000
1001
1000
0010
0010
,
0100
0000
0001
0000
1000
0100
1000
0100
0010
0001
0010
0001
1000
0000
0010
0000
,
0100
0001
1000
0000
1001
0000
0002
0000
,
1003
0001
0100
1000
0100
0001
0010
1000
,
0010
0001
0100
0000
0010
1000
0100
0010
,
0001
1000
0010
0000
1000
0001
0100
0010
,
1000
0000
0000
0000
0010
0000
0000
0000
1010
0000
1000
0001
1000
0000
0010
0000
,
0100
0000
0001
1000
0001
0000
0100
0000
0010
0000
1000
0000
1001
0000
0000
0000
,
0011
0000
0000
0000
0001
0000
1000
0000
0010
0100
0010
0000
1000
0001
1000
0000
,
0001
0000
0000
0000
1001
0000
0000
0000
0001
0100
0010
0000
1000
0100
0010
0000
,
0100
0000
1000
0000
1002
0000
1003
0100
,
0001
0100
0010
0001
0100
1000
0100
0001
,
1000
0000
1001
0001
0100
0010
1000
0100
,
0010
0000
0011
0001
0100
0010
1000
0100
,
0010
0000
0000
0000
0001
0000
0000
0000
1000
0010
1000
0000
0001
0010
0001
0000
,
1000
0010
1000
0000
0001
0100
0010
0000
1000
0000
0000
0000
0101
0000
0001
0000
,
0000
0000
0010
0000
0110
0000
0000
0000
0100
0001
0100
0000
0001
0010
0001
0000
,
1000
0100
1000
0000
0001
1000
0001
0000
1000
0000
0100
0000
0010
0000
0001
0000
,
1000
0000
0010
0000
0100
0000
0001
0000
1000
0100
1000
0000
0001
0010
0001
0000
,
1000
0010
1000
0000
0001
0100
0001
0000
0200
0000
0010
0000
0010
0000
0310
0000
,
0000
0000
1000
0000
1001
0000
0001
0000
1000
0100
0010
0000
0001
0000
0100
0000
,
0010
1000
0100
0000
0010
0000
0001
0000
1000
0010
1000
0000
0001
0000
0100
0000
,
0010
1000
0001
0000
1000
0000
0001
0000
0011
0000
0000
0000
0000
0000
0000
0000
,
0100
0000
0000
1000
0000
0000
0000
0000
0010
0000
0000
0000
0000
0000
0000
0000
,
0100
0000
0000
0100
0100
0000
0000
0000
,
0001
0000
0000
0010
0000
0000
0000
0000
0001
0000
0000
0000
0000
0000
0000
0000
,
0100
0010
1000
0001
1000
0100
0010
0000
,
0001
0010
0100
0000
1000
0100
1000
0000
,
0001
0100
0010
0000
1000
0000
0100
2000
,
0000
0000
3020
0000
0000
0000
2030
0000
0000
0000
3001
0000
0000
1000
0001
0100
,
0020
0000
1030
0001
0200
0000
0310
2000
,
0000
0000
3002
0000
0000
0000
0203
0000
0000
0000
0310
0000
0000
0100
0001
0010
,
0200
0000
1300
0010
0100
0000
0010
0020
,
0000
0000
0230
0000
0000
0000
0302
0000
0000
0000
0103
0000
0000
0100
0010
1000
,
0002
0000
1003
0010
2000
0000
3001
0200
,
0000
0000
0302
0000
0000
0000
2003
0000
0000
0000
3001
0000
0000
1000
0001
0100
,
0020
0000
0130
0001
0101
0000
0010
2000
,
0000
0000
3020
0000
0000
0000
0230
0000
0000
0000
0301
0000
1000
0010
1000
0100
,
0020
0000
0130
1000
0020
0000
0130
0002
,
0000
0000
2003
0000
0000
0000
3020
0000
0000
0000
1030
0000
0001
0100
0010
0100
,
0001
0000
1000
0010
0200
0000
0301
2000
,
0000
0000
3020
0000
0000
0000
2030
0000
0000
0000
3001
0000
1000
0010
1000
0010
,
1000
0002
0203
0302
,
0103
0000
0000
0000
0000
0000
0000
0000
0000
0000
0000
0000
0000
0000
0000
0000
0000
1010
0000
0000
0000
0000
0000
0000
0000
0000
0000
0000
0000
0000
0000
0000
0000
0000
0000
0000
0000
0000
0000
0000
0000
0000
0000
0000
0000
0000
0000
0000
0000
0000
0000
0000
0000
0000
0000
0000
0000
0000
0000
0000
0000
0000
0000
0000
,
0000
0000
0000
0000
,
0000
M0M0
0000
0000
,
0000
0000
0000
0000
0001
0010
0100
0100
,
1000
0000
0010
0000
0001
0000
0010
0000
1000
0000
0010
0000
1000
0001
0100
0010
,
1000
0100
0010
0001
1000
0100
0010
0010
,
0001
0000
0010
0000
1000
0000
0010
0000
0001
0000
0100
0000
0010
1000
0001
1000
,
0020
0000
1030
0100
0010
0001
1000
1000
,
0010
0000
0100
0000
1000
0000
0100
0000
0010
0000
1000
0000
0001
0100
0001
0100
,
0002
0000
0103
0010
0100
0001
1000
1000
,
0010
0000
0100
0000
1000
0000
0100
0000
0010
0000
1000
0000
0001
0100
0010
1000
,
0100
0000
0000
0000
0010
0000
0000
0000
0001
1000
0001
0000
0010
0000
0100
0000
,
0010
0001
0010
0000
0100
0000
1000
0000
0001
1000
0001
0000
0100
0010
0100
0010
,
0100
0000
0001
0000
1000
0000
1000
0000
0001
0100
0001
0000
1000
0000
0010
0000
,
0100
0001
0100
0000
0010
0000
1000
0000
0001
0100
0001
0000
1000
0100
1000
0001
,
1000
0000
0010
0000
1000
0000
1000
0000
0001
0100
0001
0000
1000
0000
0010
0000
,
1000
0001
0010
0000
0100
0000
1000
0000
0001
0100
0010
0000
1000
0001
1000
0010
,
0100
0000
0001
0000
1000
0000
0100
0000
0010
0001
0010
0000
0100
0000
1000
0000
,
0001
0100
0010
0000
1000
0000
0000
0000
0000
0000
0000
0000
0000
0000
0000
0000
;

//--------------- dance-single - ----------------
#NOTES:
     dance-single:
     :
     Challenge:
     18:
     0.744967,0.943115,0.030004,0.162024,1.155171,869,864,5,27,7,0,0.744967,0.943115,0.030004,0.162024,1.155171,869,864,5,27,7,0:
0000
0000
0000
0000
,
0000
0000
0000
1000
,
2002
0000
0000
3003
,
0020
0000
0000
0230
0000
0000
0300
0000
,
0002
0000
0003
0000
,
0000
0110
0000
0000
0000
0000
0000
0000
0000
0000
0000
0000
0000
0000
0000
0000
0000
0000
0000
0000
0000
0000
0000
0000
0000
0000
0000
0000
0000
0000
0000
0000
0000
0000
0000
0000
0000
0000
0000
0000
0000
0000
0000
0000
0000
0000
0000
0000
0000
0000
0000
0000
0000
0000
0000
0000
0000
0000
0000
0000
0000
0000
0000
0000
0000
0000
0000
0000
0000
0000
0000
0000
0000
0000
0000
0000
0000
0000
0000
0000
0000
0000
0000
0000
0000
0000
0000
0000
0000
0000
0000
0000
0000
0000
0000
0000
0000
0000
0000
0000
0000
0000
0000
0000
0000
0000
0000
0000
0000
0000
0000
0000
0000
0000
0000
0000
0000
0000
0000
0000
0000
0000
0000
0000
0000
0000
0000
0000
0000
0000
0000
0000
0000
0000
0000
0000
0000
0000
0000
0000
0000
0000
0000
0000
0000
0000
0000
0000
0000
0000
0000
0000
0000
0000
0000
0000
0000
0000
0000
0000
0000
0000
0000
0000
0000
0000
0000
0000
0000
0000
0000
0000
0000
0000
0000
0000
0000
0000
0000
0000
0000
0000
0000
0000
0000
0000
0000
0000
0000
0000
0000
0000
,
0000
0000
0000
0000
,
0000
0000
0000
0000
,
0000
0000
0000
0000
,
0MM0
0000
0000
0000
0000
0000
0000
0000
0000
0000
0000
0000
0000
0000
0000
0000
0000
0000
0000
0000
0000
0000
0000
0000
0000
0000
0000
0000
0000
0000
0000
0000
0000
0000
0000
0000
0000
0000
0000
0000
0000
1000
0000
0000
0000
0000
0000
0000
0000
0000
0000
0000
0000
0000
0000
0000
0000
0000
0000
0000
0000
0000
0000
0000
,
0000
0000
0000
0000
,
0000
0000
0000
0000
,
0000
0000
0000
0000
,
0000
0000
0000
0000
0000
0000
0000
0000
0000
0000
0000
0000
0000
0000
0000
0000
0000
0000
0000
0000
0000
0000
0000
0000
0000
0000
0000
0000
0000
0000
0000
0000
0000
0000
0000
0000
0000
0000
0000
0000
M000
0000
0000
0000
0000
0000
0000
0000
0000
0000
0000
0000
0000
0001
0000
0000
0000
0000
0000
0000
0000
0000
0000
0000
,
0000
0000
0000
0000
,
0000
0000
0000
0000
,
0000
0000
0000
0000
,
0000
0000
0000
0000
0000
0000
0000
0000
0000
0000
0000
0000
0000
000M
0000
0000
,
0000
0000
0000
0000
0000
1000
0000
0000
0000
0000
0000
0000
0000
0000
0000
0000
0000
0000
0000
0000
0000
0000
0000
0000
0000
0000
0000
0000
0000
0000
0000
0000
0000
0000
0000
0000
0000
0000
0000
0000
0000
0000
0000
0000
0000
0000
0000
0000
0000
0000
0000
0000
0000
0000
0000
0000
0000
0000
0000
0000
0000
0000
0000
0000
,
0000
0000
0000
0000
,
0000
0000
0000
0000
,
0000
0000
0000
0000
,
0000
M000
0000
0000
000M
0000
0000
0000
0000
00M0
0000
0000
0000
0000
0M00
0000
,
0000
0000
0000
M000
0000
0000
0000
0000
000M
0000
0000
0000
0000
M000
0000
0000
,
0000
0000
00M0
0000
0000
0000
0000
M000
0000
0000
0000
0000
000M
0000
0000
0000
,
0000
0000
0000
0000
1000
0000
0001
0100
,
0010
0000
1000
0100
0010
0100
0020
0000
,
0032
0000
1003
0010
0100
0001
0100
0010
,
2000
0000
3020
0000
0130
0001
0010
0001
,
0100
0000
0010
0000
1010
0000
1000
0001
,
0100
0100
0010
1000
1000
0100
0010
0010
,
0001
0000
1000
0010
0100
0001
0010
0100
,
1000
0000
0010
0000
0100
0000
0000
0000
0001
0000
0000
0000
1000
0100
0010
0001
,
1000
0100
1000
0010
1000
0100
0010
0001
1000
0010
0100
0001
1000
0100
1000
0100
,
0010
0001
0100
0010
1000
0100
0010
0001
1000
0010
0100
0001
0010
0100
1000
0010
,
0100
0001
0010
0100
1000
0010
0100
0001
1000
0100
0010
0001
1000
0100
1000
0100
,
0010
0001
0010
0001
1000
0100
0010
0001
1000
0010
0100
0001
1000
0100
0010
0001
,
1000
0100
1000
0010
1000
0001
0010
0001
0100
0001
0010
0100
1000
0001
1000
0100
,
0010
0001
0010
0100
1000
0010
0100
0001
1000
0100
0010
0001
1000
0000
0010
0000
,
0100
0001
0010
0001
0100
0010
2000
0000
,
3010
0000
0000
0000
0100
0000
0000
0000
0001
0010
0100
1000
0001
0100
0010
0100
,
0001
0010
0100
1000
0001
0100
0010
0100
0001
0010
0001
1000
0010
0100
0001
0010
,
0100
1000
0010
0100
0001
0010
0100
1000
0010
0100
0001
1000
0100
0010
0001
1000
,
0010
0100
0010
0100
0001
0010
0100
1000
0001
0100
0010
0100
0001
1000
0100
1000
,
0010
0100
0001
1000
0001
0010
0100
1000
0001
0100
0010
1000
0001
0010
0100
0010
,
0100
1000
0010
1000
0001
0010
0001
0100
0010
1000
0100
0010
0001
0100
0010
1000
,
0100
0010
0100
1000
0001
0100
0001
0010
0100
1000
0010
0100
0001
1000
0100
0010
,
0100
1000
0001
1000
0010
1000
0001
0010
0001
0000
0100
0000
0010
0000
1000
0000
,
0001
0000
0000
0000
1000
0000
0000
0000
0001
0010
0100
1000
0001
0010
0100
1000
,
0001
0100
0010
1000
0010
0100
0001
1000
0001
0010
0100
1000
0001
0010
0100
0010
,
0001
1000
0100
0010
0001
0100
0010
1000
0001
0010
0100
1000
0100
0010
0001
0100
,
0010
1000
0100
0010
0001
1000
0010
1000
0001
0100
0010
1000
0001
0010
0100
1000
,
0001
0100
0010
1000
0001
0010
0100
1000
0001
0100
0010
1000
0001
0010
0001
1000
,
0100
0010
0001
0100
0010
1000
0001
0010
0100
1000
0010
0100
0001
1000
0001
0010
,
0100
0010
0001
1000
0010
0100
0001
1000
0100
0010
0100
1000
0001
0010
0001
0100
,
0010
1000
0001
0010
0100
0010
0001
1000
0010
1000
0001
0010
0100
0010
0001
1000
,
0100
0010
0001
0100
0010
1000
0010
1000
0200
0310
0100
1000
0100
0010
0001
0100
,
0020
0000
0000
1030
0100
0010
0001
0100
0002
0013
0100
1000
0010
0100
0001
1000
,
0002
0000
0000
0000
0003
0000
0011
0000
1100
0000
0010
0001
0100
0010
1000
0001
,
2000
0000
0000
3010
0000
0000
0000
0000
0200
0000
0000
0000
0300
0000
0000
0000
,
0001
0000
1000
0000
1000
0000
1000
0000
1001
0000
0001
0000
0100
0010
0000
0000
,
1000
0000
0001
0000
1000
0010
0000
0000
1000
0000
0001
0000
0100
0010
0000
0000
,
1000
0000
0001
0000
1000
0010
1000
0010
0100
0001
0010
0100
1000
0010
0100
0001
,
1000
0100
0010
0001
1000
0010
0100
0001
1000
0100
0010
0001
1000
0001
1000
0100
,
2000
0000
0000
0000
3020
0000
0000
0000
0130
0001
0010
0100
1000
0001
1000
0001
,
0100
0010
1000
0010
0100
0001
1000
0100
0010
0100
1000
0001
0100
0001
0100
0010
,
2000
0000
0000
0000
3001
0000
0000
0000
1000
0010
0100
0001
1000
0100
1000
0100
,
0010
0001
0100
0010
1000
0100
0010
0001
0100
0010
1000
0100
0010
0001
1000
0010
,
0200
0000
0000
0000
0301
0000
1000
0000
0001
0000
1000
0100
1000
0000
0001
0010
,
0001
0000
1000
0000
0000
0000
0010
0000
0000
0000
0100
0000
0000
0001
1000
0010
,
2000
0000
0000
0000
3001
0000
0000
0000
0100
0010
1000
0100
0010
0001
0010
0001
,
0100
0010
1000
0100
0010
0001
0100
0010
1000
0100
0010
0001
0100
0010
0100
0010
,
2000
0000
0000
0000
3001
0000
0100
0000
0010
1000
0010
1000
0001
0100
0010
1000
,
0001
0010
0100
1000
0010
0100
0001
1000
0100
0010
0001
0100
0010
1000
0100
0010
,
0200
0000
0000
0000
1300
0000
0010
0000
0100
0001
0100
0010
1000
0100
0010
0100
,
1000
0010
0100
0001
0010
0100
1000
0010
0100
0001
1000
0100
0010
0001
0100
0010
,
1000
0100
0010
0001
0100
0010
1000
0100
0010
0100
1000
0001
0100
0010
0100
0001
,
1000
0000
0000
0000
0000
0000
0000
0000
0000
0000
0000
0000
0000
0000
0000
0000
0000
0000
0000
0000
0000
0000
0000
0000
0000
0000
0000
0000
0000
0000
0000
0000
0000
0000
0000
0000
0000
0000
0000
0000
0000
0000
0000
0000
0000
0000
0000
0000
0000
1000
0000
0000
0000
0000
0000
0000
0000
0000
0000
0000
0000
0000
0000
0000
0000
0000
0000
0000
0000
0000
0000
0000
0000
0000
0000
0000
0000
0000
0000
0000
0000
0000
0000
0000
0000
0000
0000
0000
0000
0000
0000
0000
0000
0000
0000
0000
0000
0000
0000
0000
0000
0000
0000
0000
0000
0000
0000
0000
0000
0000
0000
0000
0000
0000
0000
0000
0000
0000
0000
0000
0000
0000
0000
0000
0000
0000
0000
0000
0000
0000
0000
0000
0000
0000
0000
0000
0000
0000
0000
0000
0000
0000
0000
0000
0000
0000
0000
0000
0000
0000
0000
0000
0000
0000
0000
0000
0000
0000
0000
0000
0000
0000
0000
0000
0000
0000
0000
0000
0000
0000
0000
0000
0000
0000
0000
0000
0000
0000
0000
0000
0000
0000
0000
0000
0000
0000
0000
0000
0000
0000
0000
0000
,
0000
0000
0000
0000
,
0000
M000
0000
0000
,
0000
0000
0000
0000
0000
0000
0000
0000
0001
0010
0100
1000
0001
0100
0001
0010
,
0100
1000
0001
0100
0010
1000
0001
0010
0100
1000
0010
0100
0001
1000
0100
0010
,
0002
0000
0000
0000
1003
0000
0010
0000
0100
0001
0100
0010
0100
0001
0010
0100
,
1000
0010
0100
0001
1000
0100
0010
0100
1000
0010
0100
0001
1000
0100
0010
0100
,
2000
0000
0000
0000
3010
0000
0100
0000
0001
0010
0100
1000
0001
0010
0001
0100
,
0010
1000
0100
0010
0100
1000
0001
0100
0010
1000
0001
0010
0100
1000
0010
0100
,
0002
0000
0000
0000
1003
0000
0000
0000
0010
1000
0010
0100
0001
0010
0001
0010
,
0100
1000
0001
0100
0010
0100
0001
0010
0100
0010
0001
1000
0010
0100
0001
1000
,
0200
0000
0000
0000
0310
0000
0000
0000
0001
0010
0100
1000
0001
0100
0001
1000
,
0010
0100
0001
0010
0100
1000
0010
0100
0001
1000
0100
0010
0001
0100
0010
1000
,
0100
0010
0100
1000
0001
0100
0010
1000
0001
0010
0100
1000
0001
0100
0001
1000
,
0010
1000
0001
0010
0100
1000
0001
0100
0010
1000
0100
0010
0001
0100
0001
0100
,
0010
1000
0100
0010
0001
0100
0010
1000
0001
0010
0100
0010
0001
1000
0010
0100
,
0001
1000
0100
0010
0100
1000
0001
0100
0010
1000
0001
0010
0100
1000
0100
1000
,
0010
0100
0001
0010
0001
1000
0100
0010
0001
0100
0010
1000
0001
0010
0100
0010
,
0001
1000
0010
0100
0001
0000
0000
0000
0000
0000
0000
0000
0000
0000
0000
0000
;

//--------------- dance-double - ----------------
#NOTES:
     dance-double:
     :
     Challenge:
     16:
     0.407203,0.659048,0.198029,0.150022,0.108016,475,442,33,25,16,0,0.407203,0.659048,0.198029,0.150022,0.108016,475,442,33,25,16,0:
00000000
00000000
00000000
00000000
,
00000000
00000000
00000000
00000000
,
00022000
00000000
00000000
00033000
,
00002000
00000000
00000000
00200000
00000000
00000000
00303000
00000000
,
20020000
00000000
30030000
00000000
,
00000000
11110000
00000000
00000000
00000000
00000000
00000000
00000000
00000000
00000000
00000000
00000000
00000000
00000000
00000000
00000000
00000000
00000000
00000000
00000000
00000000
00000000
00000000
00000000
00000000
00000000
00000000
00000000
00000000
00000000
00000000
00000000
00000000
00000000
00000000
00000000
00000000
00000000
00000000
00000000
00000000
00000000
00000000
00000000
00000000
00000000
00000000
00000000
00000000
00000000
00000000
00000000
00000000
00000000
00000000
00000000
00000000
00000000
00000000
00000000
00000000
00000000
00000000
00000000
,
00000000
00000000
00000000
00000000
,
00000000
00000000
00000000
00000000
,
00000000
00000000
00000000
00000000
,
MMMM0000
00000000
00000000
00000000
00000000
00000000
00000000
00000000
00000000
00000000
00000000
00000000
00000000
00000000
00000000
00000000
00000000
00000000
00000000
00000000
00000000
00000000
00000000
00000000
00000000
00000000
00000000
00000000
00000000
00000000
00000000
00000000
00000000
00000000
00000000
00000000
00000000
00000000
00000000
00000000
00000000
00001111
00000000
00000000
00000000
00000000
00000000
00000000
00000000
00000000
00000000
00000000
00000000
00000000
00000000
00000000
00000000
00000000
00000000
00000000
00000000
00000000
00000000
00000000
,
00000000
00000000
00000000
00000000
,
00000000
00000000
00000000
00000000
,
00000000
00000000
00000000
00000000
,
00000000
00000000
00000000
00000000
00000000
00000000
00000000
00000000
00000000
00000000
00000000
00000000
00000000
00000000
00000000
00000000
00000000
00000000
00000000
00000000
00000000
00000000
00000000
00000000
00000000
00000000
00000000
00000000
00000000
00000000
00000000
00000000
00000000
00000000
00000000
00000000
00000000
00000000
00000000
00000000
0000MMMM
00000000
00000000
00000000
00000000
00000000
00000000
00000000
00000000
00000000
00000000
00000000
00000000
00001000
00000000
00000000
00000000
00000000
00000000
00000000
00000000
00000000
00000000
00000000
,
00000000
00000000
00000000
00000000
,
00000000
00000000
00000000
00000000
,
00000000
00000000
00000000
00000000
,
00000000
00000000
00000000
00000000
00000000
00000000
00000000
00000000
00000000
00000000
00000000
00000000
00000000
00000000
00000000
00000000
00000000
00000000
00000000
00000000
00000000
00000000
00000000
00000000
00000000
00000000
00000000
00000000
00000000
00000000
00000000
00000000
00000000
00000000
00000000
00000000
00000000
00000000
00000000
00000000
00000000
00000000
00000000
00000000
00000000
00000000
00000000
00000000
00000000
00000000
00000000
00000000
00000000
0000M000
00000000
00000000
00000000
00000000
00000000
00000000
00000000
00000000
00000000
00000000
,
00000000
00000000
00000000
00000000
00000000
00010000
00000000
00000000
00000000
00000000
00000000
00000000
00000000
00000000
00000000
00000000
00000000
00000000
00000000
00000000
00000000
00000000
00000000
00000000
00000000
00000000
00000000
00000000
00000000
00000000
00000000
00000000
00000000
00000000
00000000
00000000
00000000
00000000
00000000
00000000
00000000
00000000
00000000
00000000
00000000
00000000
00000000
00000000
00000000
00000000
00000000
00000000
00000000
00000000
00000000
00000000
00000000
00000000
00000000
00000000
00000000
00000000
00000000
00000000
,
00000000
00000000
00000000
00000000
,
00000000
00000000
00000000
00000000
,
00000000
00000000
00000000
00000000
,
00000000
0000M000
00000000
00000000
M0000000
00000000
00000000
00000000
00000000
000M0000
00000000
00000000
00000000
00000000
M0000000
00000000
,
00000000
00000000
00000000
000M0000
00000000
00000000
00000000
00000000
M0000000
00000000
00000000
00000000
00000000
000M0000
00000000
00000000
,
00000000
00000000
M0000000
00000000
00000000
00000000
00000000
0000M000
00000000
00000000
00000000
00000000
00000000
00000000
00000000
00000000
,
00000000
00000000
00000000
00000000
10000000
00000000
00010000
01000000
,
00100000
00000000
00001000
00010000
00000100
00001000
00000010
00000000
,
00000100
00000000
00000001
00000000
00001000
00000010
00010000
00000100
,
00010000
00000000
00001000
00000000
01000000
00001000
00100000
00010000
,
01000000
00000000
00100000
00000000
11000000
00000000
10000000
00100000
,
01000000
00001000
00010000
00000100
00010000
00000010
00000100
00000001
,
00001000
00000000
00000010
00000100
00000010
00001000
00000001
00000100
,
00000010
00010000
00001000
00000000
10000000
00000000
10010000
00000000
,
10000000
01000000
00010000
00000000
00001000
00000010
00000001
00000010
,
00000200
00000000
00001300
00000000
0000100M
00010000
00001000
01000000
,
00100000
10000000
00010000
00000000
00110000
00000000
00100000
00001000
,
01000000
00001000
00010000
00000000
00011000
00000000
00010100
00000000
,
00010000
00001000
01000000
00001000
00010000
00001000
10000000
00100000
,
01000000
00001000
00010000
00000000
00011000
00001000
01000000
00100000
,
10000000
00001000
00010000
00000000
00001000
00000000
00010000
00000000
,
00010100
00000000
00000000
00000000
00001001
00000000
00000001
00010000
,
00001000
00000000
00010000
00001000
10000000
00100000
01000000
00000000
,
01010000
00000000
01000000
00001000
00010000
00000100
00010000
00001000
,
00100000
00000000
M0100000
00000000
10000000
00010000
01000000
00001000
,
00010000
00000000
00011000
00000000
00010100
00000000
00010000
00000100
,
00001000
00000010
00001000
00000100
00100000
00010000
10000000
01000000
,
00010000
00000000
01000000
10000000
00001000
00010000
00000010
00000100
,
00000010
00000000
00001010
00000010
00001000
00000001
00001000
00000010
,
00010000
00000000
00000000
00000000
00000001
00000100
00000010
00010000
,
M0010000
01000000
00100000
10000000
00010000
00000000
00000000
00110000
,
00000000
00000000
00000000
00000000
00100000
00001000
00010000
00001000
,
01000000
0100000M
00100000
00001000
00010000
00001000
01000000
00010000
,
01000000
00000000
01010000
00000000
00010000
10000000
01000000
00010000
,
01000000
00001000
00010000
00000100
00000001
00000100
00001000
00000010
,
00000100
00000000
00000101
00000000
00000001
00000100
00001000
00000100
,
00000010
00010000
00001000
00100000
10000000
00100000
01000000
00100000
,
00010000
01000000
00001000
00010000
00011000
00000000
00000000
00000000
,
00010000
00000000
00000000
00001000
00000000
00000000
00000000
00000000
22000000
00000000
00000000
00000000
33000000
00000000
00000000
00000000
,
02200000
00000000
03300000
01000000
00001000
00000000
00000000
00000000
,
00000010
00000000
00000000
00001000
00000000
00000000
00000000
00000000
00000001
00000000
00000000
00000000
00000000
00000000
00000000
00000000
,
00010000
00010000
00010000
00010000
00011000
00000000
00001000
00000000
,
10000000
01000000
00100000
00000000
00001000
01000000
00100000
00000000
,
10000000
00001000
00010000
00000000
00021000
00000000
00030100
00000200
,
00000000
00000000
00002300
00000000
00000000
00000000
00003002
00000000
00000000
00000000
00001003
00000000
00000000
00000010
00001000
00000100
,
00020000
00000000
00030010
00010000
00002000
00000000
10003000
00200000
,
00000000
00000000
02300000
00000000
00000000
00000000
03002000
00000000
00000000
00000000
00013000
00000000
00000000
00000010
00000100
00000010
,
00020000
00000000
00031000
00000000
01001000
00000000
00001000
02000000
,
00000000
00000000
03200000
00000000
00000000
00000000
20300000
00000000
00000000
00000000
30010000
00000000
00000000
10000000
01000000
00100000
,
00020000
00130000
00110000
01010000
,
00011000
00000000
00000000
00000000
00010100
00000000
00000000
00000000
00010010
00000000
00000000
00000000
00000001
00001000
00000010
00010000
,
00001000
00000000
00011000
00000000
00001000
01000000
00100000
10000000
,
00001000
00000000
00100000
00000000
00010000
00000000
00100000
00000000
00000100
00000000
00001000
00000000
00000010
00010000
00001000
01000000
,
00010000
00000000
10000000
00010000
01000000
00100000
10000000
00001000
,
00010000
00000000
00000010
00000000
00010000
00000000
00001000
00000000
10000000
00000000
00100000
00000000
10000000
00010000
01000000
00100000
,
01000000
00000000
00000000
00000000
00010000
00000000
00000000
00000000
10000000
01000000
10000000
00000000
00010000
00100000
00010000
00000000
,
10000000
00010000
10000000
00000000
00010000
00100000
00010000
00000000
00100000
00001000
00100000
00000000
00001000
00010000
00001000
00010000
,
00001000
00000000
00010000
00000100
00001000
00000100
00100000
00010000
,
10000000
00000000
00000000
00000000
00000000
00000000
00000000
00000000
00000000
00000000
00000000
00000000
00000000
00000000
00000000
00000000
00000000
10010000
00000000
00000000
00000000
00000000
00000000
00000000
00000000
00000000
00000000
00000000
00000000
00000000
00000000
00000000
00000000
00000000
00000000
00000000
00000000
00000000
00000000
00000000
00000000
00000000
00000000
00000000
00000000
00000000
00000000
00000000
00000000
00000000
00000000
00000000
00000000
00000000
00000000
00000000
00000000
00000000
00000000
00000000
00000000
00000000
00000000
00000000
,
00000000
00000000
00000000
00000000
,
00000000
M00M0000
00000000
00000000
,
00000000
00000000
00000000
00000000
10010000
00010000
01000000
00100000
,
00100000
00000000
10000000
00000000
00100000
00000000
00010000
00000000
00001000
00000000
00000100
00000000
00000001
00000000
00001000
00000100
,
00001000
00000000
00000010
00010000
00001000
01000000
00100000
01000000
,
00001000
00000000
00100000
00000000
00010000
00000000
10000000
00000000
00010000
00000000
00100000
00000000
00001000
00000000
00010000
00000010
,
00000100
00000000
00010000
00000000
00001000
00010000
00000010
00000100
,
00000001
00000000
00001000
00000000
00000100
00000000
00000010
00000000
00000001
00000000
00000100
00000000
00000010
00000000
00001000
00000001
,
00001000
00000000
00000100
00010000
00011000
00000000
00001000
00100000
,
00010000
00000000
10000000
00000000
01000000
00000000
00100000
00000000
00010000
00000000
00100000
00000000
00000010
00000000
00000100
00000001
,
00001000
00000000
00000000
00000000
00001001
00000001
00000100
00001000
,
00010000
00100000
10000000
00100000
00010000
00001000
00000100
00000001
,
00000100
00000000
00000010
00001000
00000100
00010000
00100000
10000000
,
00100000
01000000
00010000
00100000
00001000
00000100
00000001
00000100
,
00001000
00000000
00011000
00000000
00000100
00001000
00000001
00000010
,
00000100
00001000
00000100
00000010
00000001
00000100
00000010
00001000
,
00000001
00000000
00001000
00000010
00000100
00000001
00000010
00000100
,
00000010
00010000
00001000
00010000
00001000
00000000
00000000
00000000
;
