#TITLE:Plasma Surge;
#SUBTITLE:;
#ARTIST:Rygon;
#TITLETRANSLIT:;
#SUBTITLETRANSLIT:;
#ARTISTTRANSLIT:;
#GENRE:;
#CREDIT:;
#MUSIC:Plasma Surge.ogg;
#BANNER:;
#BACKGROUND:;
#CDTITLE:;
#SAMPLESTART:30.005;
#SAMPLELENGTH:12.000;
#SELECTABLE:YES;
#OFFSET:-0.025;
#BPMS:0.000=200.000
,170.000=100.000
,186.000=200.000
,218.000=100.000
,220.000=200.000
,408.000=100.000
;
#STOPS:36.000=0.600;
#BGCHANGES:;
#FGCHANGES:;

//--------------- dance-single - ----------------
#NOTES:
     dance-single:
     :
     Beginner:
     6:
     0.282943,0.420497,0.233609,0.060942,0,195,172,23,6,0,0,0.282943,0.420497,0.233609,0.060942,0,195,172,23,6,0,0:
0000
0000
0000
0000
,
1001
0000
0010
0000
,
1000
0000
0001
0000
,
0100
0000
0010
0000
,
1000
0000
0001
0000
,
1001
0000
0000
0110
,
0110
0110
0000
1000
,
0000
0000
0001
0000
,
0100
0100
0100
0000
,
1001
0000
0001
0000
,
0100
0000
0010
0000
,
1000
0000
0001
0001
,
0001
0000
0100
0100
,
0100
0000
1001
0000
,
0010
0000
1000
0000
,
0001
0000
0100
0100
,
0100
0000
0010
0010
,
0010
0000
1001
0000
,
0010
0000
1000
0000
,
0001
0000
0100
0100
,
0100
0000
0010
0010
,
0010
0000
1000
0000
,
1000
0000
0001
0000
,
0001
0000
1001
0000
,
0010
0000
1000
1000
,
1000
0000
0001
0000
,
0100
0000
0010
0000
,
1000
0000
0001
0000
,
0100
0000
0010
0010
,
0010
0000
1001
0000
,
0100
0000
0001
0000
,
0100
0000
0010
0000
,
1000
0000
0100
0100
,
0100
0000
1001
0000
,
0010
0000
1000
0000
,
0001
0000
0100
0000
,
0010
0000
1000
1000
,
1000
0000
1000
0001
,
0100
0010
1000
0010
,
0100
0010
1000
1000
,
0001
0001
2002
0000
,
0000
3003
0220
0000
,
0000
0330
1001
0000
,
0001
0000
0100
0000
,
0010
0000
1000
0000
,
0001
0000
0100
0000
,
0010
0000
1001
0000
,
1000
0000
1001
0000
,
0010
0000
1001
0000
,
0010
0000
1001
0000
,
0010
0000
1001
0000
,
0010
0000
1001
0000
,
0010
0000
0100
0000
,
0001
0000
1000
0000
,
0001
0000
1000
0000
,
1001
0000
0010
0000
,
0100
0000
0001
0000
,
1000
0000
0010
0000
,
0100
0000
0001
0000
,
0010
0000
0010
0000
,
0100
0000
1000
0000
,
0001
0000
0100
0000
,
0010
0000
1000
0000
,
1001
0001
0100
0010
,
1000
0010
0100
0001
,
0010
0010
0100
0100
,
1000
1000
0001
0001
,
0100
0100
0010
0010
,
1000
1000
0001
0001
,
0100
0100
0010
0010
,
1000
1000
0001
1000
,
2002
0000
0000
0000
,
0000
0000
0000
0000
,
0000
0000
0000
0000
,
0000
0000
0000
0000
,
3003
0000
0000
0000
;

//--------------- dance-single - ----------------
#NOTES:
     dance-single:
     :
     Easy:
     10:
     0.507846,0.804428,0.192982,0.294551,0,350,331,19,29,0,0,0.507846,0.804428,0.192982,0.294551,0,350,331,19,29,0,0:
0000
0000
0000
0000
,
1001
0010
0100
0010
,
1000
0010
0100
0001
,
0010
0001
0100
0010
,
1000
0001
0100
0010
,
1001
0000
0000
0101
0000
0000
0110
0000
,
1001
0000
0110
0000
0000
1001
0000
0000
,
0001
0100
0010
1000
,
0001
1000
0001
1000
0002
0000
0000
0000
,
1003
0000
1000
0001
2000
0000
0000
0020
,
0000
0000
0000
3030
0000
0200
0000
0000
,
0002
0000
0303
0000
0100
0000
0000
0010
,
1000
0000
0000
0001
0100
0000
0000
0010
,
1000
0000
1000
0001
2000
0000
0000
0002
,
0000
0000
3003
0000
0000
0002
0000
0000
,
0013
0000
1000
0001
,
0100
0010
1000
0100
,
0010
0001
0010
0000
1001
0000
0000
0001
,
0100
0000
0100
0010
0000
0010
1000
0000
,
1000
0001
0000
0000
1000
0010
0100
0000
,
0001
0010
0001
0000
0100
0010
1000
0000
,
0001
0100
0001
0000
1001
0000
0000
0001
,
0001
0000
0100
0100
0000
0010
0010
0000
,
0100
0100
0000
0001
1000
0100
0010
0000
,
0001
0100
0001
0000
1000
0010
1000
0000
,
0001
0100
0001
0000
1000
0000
0000
0020
,
0000
0000
0000
0230
0000
0000
0000
0302
,
0000
0000
0000
0023
0000
0000
0000
0032
,
0000
0000
0000
1003
0001
0000
1001
0000
,
1001
0000
1000
0001
1000
0000
0000
2000
,
0000
0000
0000
3020
0000
0000
0000
0230
,
0000
0000
0000
0302
0000
0000
0000
0023
,
0000
0000
0000
1030
0010
0000
0101
0000
,
0001
1000
0000
0001
1000
0000
0010
0200
,
0000
0000
0310
2000
0000
0000
3001
0200
,
0000
0000
0310
2000
0000
0000
3001
0020
,
0000
0000
0130
1000
0001
0000
1001
0000
,
0100
1000
0100
1000
0001
0000
0100
0000
,
0010
1000
0010
0000
0100
0000
0001
0000
,
0010
0001
0010
0000
0001
0100
0001
0100
,
0010
1000
0010
1000
2002
0000
0000
0000
,
0000
0000
0000
3003
0220
0000
0000
0000
,
0000
0000
0000
0330
0010
0001
0100
0000
,
0010
1000
0001
0000
0100
0010
1000
0000
,
0001
0010
0100
0000
1000
0001
0100
0010
,
0010
1000
0001
0100
0100
0010
1000
0001
,
0100
0001
1000
0001
1001
0000
0010
0000
,
0100
0010
0100
0000
0001
0000
0010
0000
,
0001
0100
0001
0000
1000
0000
0010
0000
,
0100
0010
0100
0000
0001
0000
0010
0000
,
0001
0100
0001
0000
1001
0000
0000
0000
,
0001
0100
0010
1000
,
0010
0100
0001
0010
,
0001
0000
0100
0000
0010
0100
0010
0000
,
1000
0000
0001
0000
1001
0001
0100
0010
,
1000
0001
0100
0010
,
1000
0010
0100
0001
,
0010
0010
0100
0100
,
1000
1000
0001
0100
,
0010
1000
0001
0100
,
0010
1000
0001
1000
,
0001
1000
0001
0001
,
0100
0100
0010
0010
,
1000
0100
1000
0001
0100
0010
1000
0100
,
0010
0100
1000
0001
0100
0010
1000
0100
,
0010
0100
1000
0001
0010
0001
1000
0010
,
1000
0001
0100
0010
1000
0100
0010
0100
,
1000
0001
0100
0001
0100
0010
1000
0010
,
1000
0001
0100
0010
1000
0100
0010
0100
,
1000
0001
0100
0010
1000
0100
0010
0001
,
0010
0100
1000
0001
0100
0001
1000
0001
,
2002
0000
0000
0000
,
0000
0000
0000
0000
,
3003
0000
0000
0000
;

//--------------- dance-single - ----------------
#NOTES:
     dance-single:
     :
     Medium:
     13:
     0.599259,0.849119,0.223452,0.243766,0.081255,413,391,22,24,0,0,0.599259,0.849119,0.223452,0.243766,0.081255,413,391,22,24,0,0:
0000
0000
0000
0000
,
0001
0000
0100
0000
0010
1000
0010
0000
,
0100
0000
0001
0000
0010
0001
0010
0000
,
0001
0000
0100
0000
0010
1000
0010
0000
,
0100
0000
0001
0000
0010
0001
0010
0000
,
1001
0000
0000
0101
0000
0000
0110
0000
,
1001
0000
0110
0000
0000
1001
0000
0000
,
0001
0100
0010
1000
,
0001
1000
0001
1000
0002
0000
0000
0000
,
1003
0000
1000
0001
2000
0000
0000
0020
,
0000
0000
0000
3030
0000
0200
0000
0000
,
0002
0000
0000
0000
0303
0000
0000
0000
0100
0000
0000
0001
0000
0000
0100
0000
,
0010
0000
0000
1000
0000
0000
0010
0000
0100
0000
0000
0001
0000
0000
0100
0000
,
0010
0000
0000
1000
0000
0000
0010
0000
2000
0000
0000
0000
0000
0000
0002
0000
,
0000
0000
3003
0000
0000
0002
0000
0000
,
0013
0000
1000
0001
,
0100
0000
0010
0000
1000
0100
1000
0100
,
0010
0001
0010
0001
1001
0000
0000
0001
,
0100
0000
0100
0010
0000
0010
1000
0000
,
1000
0001
0000
0000
1000
0010
0100
0000
,
0001
0010
0001
0000
0100
0010
1000
0000
,
0001
0100
0001
0000
1001
0000
0000
0001
,
0001
0000
0100
0100
0000
0010
0010
0000
,
0100
0100
0000
0001
1000
0100
1000
0100
,
0010
0001
0010
0001
0100
0010
0100
0010
,
1000
0001
1000
0001
1000
0100
1000
0100
,
0010
0001
0010
0001
0100
0010
0100
0010
,
1000
0100
0010
0001
0100
0010
1000
0100
,
0010
0100
1000
0001
1001
0000
0110
0000
,
1001
0000
1000
0001
0110
0000
0000
2000
,
0000
0000
0000
3020
0000
0000
0000
0230
,
0000
0000
0000
0302
0000
0000
0000
0023
,
0000
0000
0000
1030
1010
0000
0101
0000
,
0001
1000
0000
0001
1000
0000
0010
0200
,
0000
0000
0310
2000
0000
0000
3001
0200
,
0000
0000
0310
2000
0000
0000
3001
0020
,
0000
0000
0130
1000
0001
0000
1001
0000
,
0100
1000
0100
1000
0001
0100
0001
0100
,
0001
0100
0010
1000
0010
1000
0001
0100
,
0010
1000
0100
0010
0100
1000
0001
0100
,
0010
1000
0001
1000
2002
0000
0000
0000
,
0000
0000
0000
3003
0220
0000
0000
0000
,
0000
0000
0000
0330
1000
0001
0100
0000
,
0010
1000
0001
0000
0100
0010
1000
0000
,
0001
0010
0100
0000
1000
0001
0100
0010
,
0010
1000
0001
0100
0100
0010
1000
0001
,
0100
0001
1000
0001
1001
0000
0010
0000
,
0100
0010
0100
0000
0001
0000
0010
0000
,
0001
0100
0001
0000
1000
0000
0010
0000
,
0100
0010
0100
0000
0001
0000
0010
0000
,
0001
0100
0001
0000
1001
0000
0000
0000
,
0001
0000
0100
0000
0010
1000
0010
0100
,
0001
1000
0001
0100
0001
1000
0001
1000
,
0001
0100
0001
0100
0010
1000
0010
1000
,
0001
0100
0001
0100
1001
0001
0100
0010
,
1001
0000
0000
0001
0000
0000
0100
0000
0010
0000
0000
1000
0000
0000
0100
0000
,
0010
0000
0000
0001
0000
0000
0100
0000
0010
0000
0000
1000
0000
0000
0001
0000
,
0100
0000
0000
0010
0000
0000
1000
0000
0001
0000
0000
0100
0000
0000
0010
0000
,
1000
0000
0000
0100
0000
0000
0010
0000
0001
0000
0000
0100
0000
0000
0010
0000
,
1000
0000
0000
0001
0000
0000
0100
0000
0010
0000
0000
1000
0000
0000
0001
0000
,
0100
0000
0000
0010
0000
0000
1000
0000
0001
0000
0000
0100
0000
0000
0010
0000
,
1000
1000
0001
0001
,
0100
0100
0010
0010
,
1000
0100
1000
0001
0100
0010
1000
0100
,
0010
0100
1000
0001
0100
0010
1000
0100
,
0010
0100
1000
0001
0010
0001
1000
0010
,
1000
0001
0100
0010
1000
0100
0010
0100
,
1000
0001
0100
0001
0100
0010
1000
0010
,
1000
0001
0100
0010
1000
0100
0010
0100
,
1000
0001
0100
0010
1000
0100
0010
0001
,
0010
0100
1000
0001
0100
0001
1000
0001
,
2002
0000
0000
0000
,
0000
0000
0000
0000
,
3003
0000
0000
0000
;

//--------------- dance-single - ----------------
#NOTES:
     dance-single:
     :
     Hard:
     17:
     0.964908,1.519476,0.26408,0.192982,0.6602,665,639,26,19,0,0,0.964908,1.519476,0.26408,0.192982,0.6602,665,639,26,19,0,0:
0000
0000
0000
0000
,
1001
0001
0100
0010
1000
0010
0000
1000
,
0100
1000
0100
0010
0001
0100
0010
1000
,
0100
1000
0001
0100
0010
1000
0100
0010
,
0100
0010
0001
1000
0001
0100
0010
1000
,
1001
0000
0000
0101
0000
0000
0110
0000
,
1001
0000
0110
0000
0000
1001
0000
0000
,
1001
1000
0100
1000
0100
0010
0001
0010
,
0001
0100
0001
0100
0010
1000
0010
1000
0002
0000
0000
0000
0000
0000
0000
0000
,
1003
0000
0000
0000
1000
0001
1000
0001
2000
0000
0000
0000
0000
0000
0020
0000
,
0000
0000
0000
3030
0000
0200
0000
0000
,
0002
0000
0000
0000
0303
0000
0000
0000
0010
0001
0010
0001
0000
0010
0001
0000
,
1000
0100
1000
0100
0000
1000
0100
0000
0010
0001
0010
0001
0000
0010
0001
0000
,
1000
0010
1000
0010
0000
0100
0010
0000
2000
0000
0000
0000
0000
0000
0002
0000
,
0000
0000
3003
0000
0000
0002
0000
0000
,
0013
0000
0000
0000
0000
0000
0000
0000
1000
0100
0000
0100
1000
0000
0001
0000
,
0100
0010
0000
0010
0100
0000
1000
0000
0100
0010
0000
0100
0010
0000
0001
0000
,
1000
0100
1000
0000
0001
0100
0001
0000
1000
0000
0000
0000
0000
0000
0001
0000
,
0100
0000
0100
0010
0000
0010
1000
0000
,
1000
0000
0001
0000
0000
0000
0000
0000
1000
0100
1000
0000
0001
0000
0100
0000
,
0010
1000
0010
0000
0100
0000
0001
0000
0100
0010
0100
0000
0010
0000
1000
0000
,
0001
1000
0001
0000
1000
0000
0010
0000
1010
0000
0010
0000
0000
0000
0001
0000
,
0001
0000
0100
0100
0000
0010
0010
0000
,
0100
0000
0100
0000
0000
0000
0001
0000
1000
0001
0100
0010
1000
0100
0010
0000
,
0001
0100
0010
1000
0100
0010
0100
0000
0010
0001
0100
0010
1000
0100
0010
0000
,
0001
1000
0010
1000
0100
1000
0001
0000
1000
0000
0100
0000
1000
0000
0100
0000
,
0010
0001
0010
0001
0100
0010
0100
0010
,
1000
0100
0010
0001
0100
0010
1000
0100
,
0010
0100
1000
0001
1001
0000
0110
0000
,
1001
0000
0000
0000
1001
0000
0001
0100
0010
0000
1000
0000
0001
0000
0100
0000
,
0010
1000
0100
0010
0100
1000
0001
0100
,
0010
1000
0100
0010
0100
1000
0001
0100
,
0010
1000
0010
1000
1010
0000
0101
0000
,
0010
0000
0010
0000
0000
0000
0001
0100
0001
0000
0010
0000
1000
0000
0100
0000
,
0001
0100
1000
0010
0100
0001
0100
0010
,
1000
0100
0010
0100
1000
0001
0100
0010
,
1000
0100
0010
0001
1001
0000
0101
0000
,
0110
0000
0110
0000
1100
0000
1000
0100
1000
0000
0001
0000
0100
0000
0020
0000
,
1030
0010
1000
0010
0101
0100
0100
0020
,
0130
0000
0001
0000
0100
0000
0010
0000
1000
0100
1000
0100
0010
0001
0010
0001
,
1000
0100
1000
0100
1000
0010
0100
0002
2000
0000
0000
0000
0000
0000
0000
0000
,
0000
0000
0000
0000
0000
3003
0000
0000
0220
0000
0000
0000
0000
0000
0000
0000
,
0000
0000
0000
0000
0000
0000
0330
0000
1001
0000
0001
0100
0010
1000
0100
0010
,
0001
0000
0100
0010
1000
0100
0010
0001
0200
0000
0310
1000
0100
0010
0001
0100
,
0020
0000
1030
0001
0100
0010
1000
0000
0001
0100
0001
0100
0001
1000
0010
0000
,
0010
1000
0010
0100
0010
1000
0001
0000
0001
0100
0001
1000
0001
0100
0001
0000
,
0010
0100
1000
0100
0010
0100
1000
0000
1001
0000
0001
0000
0100
0000
0001
0000
,
0100
0001
0100
0000
0010
1000
0010
1000
,
0010
0100
0001
0000
0001
0010
0001
1000
,
0001
0100
0001
0000
1000
0010
0100
0001
,
1000
0001
0100
0001
1001
0001
0100
0010
,
1000
0100
0010
0001
0100
0010
1000
0100
,
0010
0100
1000
0001
0100
0010
1000
0001
,
1000
0100
1000
0100
0010
0001
0010
0001
1000
0100
1000
0100
0010
0001
0010
0001
,
0100
0000
0010
0000
0100
0000
0010
0000
1000
0000
0001
0000
1000
0000
0001
0000
1000
0000
0000
0000
0001
0000
1000
0000
0001
0100
0010
1000
0001
0000
0100
0000
,
0010
1000
0010
0100
0000
0001
0100
0000
0010
1000
0010
0100
0000
0001
0100
0000
,
0010
1000
0100
0010
0000
0001
0100
0000
0010
1000
0100
0010
0000
0001
0100
0000
,
0010
1000
0001
0100
0000
0010
1000
0000
0100
0010
0001
0100
0000
0010
1000
0000
,
0100
0010
0100
1000
0000
0001
0100
0000
0010
1000
0001
0100
0010
1000
0010
1000
,
0001
0000
0010
0100
0000
1000
0100
0000
0010
0001
0100
0010
0000
1000
0010
0000
,
0100
0001
0100
0010
0000
1000
0100
0000
0010
0001
0100
0010
0000
1000
0100
0000
,
0010
0001
0100
0010
0000
1000
0100
0000
0010
0001
0010
0000
0100
1000
0100
0000
,
0010
0001
1000
0000
0001
1000
0001
0000
0100
0010
0100
0000
0001
0100
0001
0000
,
1000
0000
0100
0000
0010
0000
0001
0000
0100
0000
0010
0000
1000
0000
0001
1000
,
0001
0000
1000
0000
0010
0000
0100
0000
0001
0000
0100
0000
0010
0000
0001
0100
,
0010
0000
1000
0000
0010
0000
0100
0000
0001
0000
0100
0000
0010
0000
0001
0100
,
0010
1000
0001
0100
0010
1000
0001
0100
,
1000
0100
1000
0100
0010
0001
0010
0001
0100
0010
0100
0010
1000
0100
0010
0100
,
1000
0001
0100
0010
1000
0001
0010
0100
1000
0001
0100
0010
1000
0100
0010
0001
,
1000
0001
0100
0010
1000
0100
0010
0100
1000
0001
0100
0010
1000
0100
0010
0001
,
1000
0001
0100
0010
1000
0100
0010
0100
1000
0001
0100
0010
1000
0100
0010
0001
,
2000
0000
0000
0000
,
0000
0000
0000
0000
,
3000
0000
0000
0000
;

//--------------- dance-single - ----------------
#NOTES:
     dance-single:
     :
     Challenge:
     18:
     1.268165,1.832309,0.6602,0.192982,1.274694,874,809,65,19,0,0,1.268165,1.832309,0.6602,0.192982,1.274694,874,809,65,19,0,0:
0000
0000
0000
0000
,
1001
0000
0001
0000
0100
0000
0010
1000
0010
0100
0001
0000
0000
0000
0100
0000
,
0010
0000
1000
0000
0010
0000
0100
0001
0100
0010
1000
0100
0010
0000
0001
0000
,
0100
0000
1000
0000
0100
0000
0001
0100
0010
1000
0100
0010
0001
0000
0100
0000
,
0010
0000
1000
0000
0100
0000
0010
0001
0100
0000
0010
0000
1000
0000
0001
0000
,
1001
1000
0100
1100
1000
0001
0011
0001
,
0011
0010
0110
0100
1000
1100
1000
0001
,
1001
1000
0100
1000
1100
0010
0001
0010
,
0001
0100
0010
1000
0001
1000
0100
0010
0001
1000
0001
1000
0001
1000
0001
1000
,
0001
0000
0000
0000
1000
0001
1000
0001
1000
0100
0010
0000
0001
0010
0200
0000
,
1300
0010
0100
0000
0001
0100
0010
0000
1000
0010
0200
0000
0301
0100
0010
0000
,
2000
3010
0100
0000
0001
0100
0010
0000
0010
1000
0001
0100
0010
1000
0010
0000
,
0100
0001
0100
0010
1000
0100
0010
0000
0001
0010
0100
1000
0100
0010
0001
0000
,
0100
0010
1000
0010
0100
0001
1000
0000
1010
0000
0010
0000
1000
0001
1000
0000
,
0010
1000
0010
0000
0100
0001
0100
0000
0010
1000
0100
0000
0010
0001
0100
0000
,
0010
1000
0010
0000
0100
0001
0100
0000
0010
1000
0010
1000
0010
0100
0001
0000
,
0100
0010
0100
0010
1000
0010
1000
0000
0001
0100
0010
1000
0100
0010
0001
0000
,
0100
0010
1000
0100
0010
0001
0100
0010
2000
3010
0100
0000
0000
0000
0101
0000
,
0101
0000
0110
0110
0000
1010
1010
0000
,
0110
0000
0110
0000
0000
0000
1001
0000
1000
0001
0100
0010
1000
0100
0010
0000
,
0001
0100
0010
1000
0100
0010
0001
0000
0100
0010
0100
0001
0100
0010
1000
0000
,
0100
0010
0100
1000
0001
0010
0001
0000
0011
0000
0010
0000
0000
0000
0011
0000
,
0011
0000
0101
0101
0000
1010
1010
0000
,
0110
0000
0110
0000
0000
0000
1001
0000
1000
0001
0100
0010
1000
0100
0010
0000
,
0001
0100
0010
1000
0100
0010
0100
0000
0010
0001
0100
0010
1000
0100
0010
0000
,
0001
1000
0010
1000
0100
1000
0001
0000
1000
0100
0010
0000
0001
0010
0200
0000
,
1300
0001
0100
0000
0010
1000
0020
0000
0130
0001
0100
0000
0010
1000
0020
0000
,
0130
0001
0100
0000
0010
1000
0200
0000
0310
0001
0010
0000
0100
1000
0100
0000
,
0010
0001
0100
0000
0010
1000
0010
0000
1001
0000
0000
0000
0110
0000
0000
0000
,
1001
0000
0000
0000
1001
0000
0001
0100
0010
0000
1000
0000
0001
1000
0001
0000
,
0100
0001
0100
0000
0010
1000
0010
0000
0100
0001
0100
0000
0010
1000
0100
0000
,
0010
0001
0100
0000
0010
1000
0100
0000
0010
0001
1000
0000
0001
1000
0001
0000
,
1000
0010
1000
0000
0001
0100
0010
0000
1010
0000
0000
0000
0101
0000
0000
0000
,
0110
0000
0110
0000
0000
0000
0001
0100
0001
0000
0010
0000
0100
1000
0100
0000
,
0010
0001
1000
0000
0100
0010
0001
0000
0010
0100
1000
0000
0001
0100
0010
0000
,
1000
0100
1000
0000
0001
0100
0010
0000
1000
0100
1000
0000
0001
0100
0001
0000
,
1000
0001
0100
0000
0010
1000
0001
0000
1001
0000
0000
0000
0101
0000
0000
0000
,
0110
0000
0110
0000
1100
0000
1000
0100
1001
0000
0001
0000
0100
0000
0010
0000
,
1000
0010
1000
0001
0101
0100
0100
0020
,
0130
0000
0001
0000
0100
0000
0010
0000
1000
0100
0010
0001
0010
0100
1000
0010
,
0100
0010
0100
0001
1000
0010
0100
0001
2000
0000
0000
0000
0000
0000
0000
0000
,
0000
0000
0000
0000
0000
3000
0000
0000
0220
0000
0000
0000
0000
0000
0000
0000
,
0000
0000
0000
0000
0000
0000
0330
0000
1001
0000
0001
0100
0010
1000
0100
0010
,
0001
0000
0100
0010
1000
0100
0010
0001
0200
0000
0310
1000
0100
0010
0001
0100
,
0020
0000
0000
0000
1030
0000
0001
0000
0100
0000
0010
0000
1000
0000
0001
1000
0001
0000
0100
0000
0010
0000
1000
0010
0100
0001
0100
0000
0010
0000
1000
0000
,
0100
0000
0010
0000
0001
0000
0100
0010
1000
0001
0100
0000
0010
0000
1000
0000
0100
0000
0010
0000
0001
0000
0100
0010
1000
0010
0100
0000
0001
0000
0000
0000
,
0100
0000
0010
0000
1000
0000
0100
0010
0001
0000
0100
0000
0010
0000
1000
0000
1010
0000
0000
0000
0100
0000
0000
0000
0001
0000
0000
0000
0100
0000
0010
0000
,
1000
0100
0010
0001
0100
0000
0010
0000
1000
0000
0100
0000
0010
0000
0001
0100
,
0010
1000
0001
0100
0010
0000
1000
0000
0100
0000
0010
0000
0001
0100
0001
0100
,
0001
0100
0010
0000
1000
0000
0010
0000
0100
0000
0001
0000
1000
0010
0100
0001
,
0100
0010
1000
0100
0110
0010
0001
0100
,
0010
1000
0010
0100
0001
0100
0010
1000
0100
0010
0100
1000
0001
0100
0010
1000
,
0100
0010
0100
1000
0001
0100
0010
1000
0100
0010
0100
1000
0001
0010
0100
1000
,
0100
0010
0001
0100
0001
0010
0100
1000
0001
0010
0100
1000
0001
0100
0010
1000
,
0100
0000
0010
0000
0100
0000
1000
0000
0001
0000
0100
0000
0010
0000
1000
0000
0001
0000
0000
0000
1001
0000
1001
0000
0001
0100
0010
1000
0001
0000
0100
0000
,
0010
1000
0010
0100
0000
0001
0100
0000
0010
1000
0010
0100
0000
0001
0100
0000
,
0010
1000
0100
0010
0000
0001
0100
0000
0010
1000
0100
0010
0000
0001
0100
0000
,
0010
1000
0001
0100
0000
0010
1000
0000
0100
0010
0001
0100
0000
0010
1000
0000
,
0100
0010
0100
1000
0000
0001
0100
0000
0010
1000
0001
0100
0010
1000
0010
1000
,
0001
0000
0010
0100
0000
1000
0100
0000
0010
0001
0100
0010
0000
1000
0010
0000
,
0100
0001
0100
0010
0000
1000
0100
0000
0010
0001
0100
0010
0000
1000
0100
0000
,
0010
0001
0100
0010
0000
1000
0100
0000
0010
0001
0010
0000
0100
1000
0100
0000
,
0010
0001
1000
0000
0001
1000
0001
0000
0100
0010
0100
0000
0001
0100
0001
0000
,
1001
0000
1000
0000
1010
0000
0010
0000
0110
0000
0100
0000
0101
0000
0001
1000
,
0001
0000
0100
0000
0110
0000
0010
0000
1010
0000
1000
0000
1001
0000
0001
0100
,
0010
0000
0010
0000
1010
0000
1000
0000
1001
0000
0010
0000
1001
0000
0001
0100
,
0010
1000
1010
0100
0101
0001
1001
0001
,
1000
0100
1000
0100
0010
0001
0010
0001
0100
0010
0100
0010
1000
0100
0010
0100
,
1000
0001
0100
0010
1000
0001
0010
0100
1000
0001
0100
0010
1000
0100
0010
0100
,
1000
0001
0100
0010
1000
0100
0010
0100
1000
0001
0100
0010
1000
0100
0010
0001
,
1000
0001
0100
0010
1000
0100
0010
0100
1000
0001
0100
0010
1000
0100
0010
0001
,
2000
0000
0000
0000
,
0000
0000
0000
0000
,
3000
0000
0000
0000
;

//--------------- dance-double - ----------------
#NOTES:
     dance-double:
     :
     Challenge:
     19:
     1.324753,1.64885,0.670357,0.182825,1.274694,913,847,66,18,0,0,1.324753,1.64885,0.670357,0.182825,1.274694,913,847,66,18,0,0:
00000000
00000000
00000000
00000000
,
00011000
00000000
00001000
00000000
00010000
00000000
00000010
00000100
00000010
00010000
00000010
00000000
00000000
00000000
00010000
00000000
,
00001000
00000000
00010000
00000000
00001000
00000000
01000000
00100000
01000000
00010000
00100000
00001000
00010000
00000000
00000010
00000000
,
00001000
00000000
00000010
00000000
00010000
00000000
00001000
00010000
00001000
00010000
00001000
01000000
00010000
00000000
10000000
00000000
,
00010000
00000000
00100000
00001000
00100000
00000000
00010000
00000000
10000000
00000000
00100000
00000000
01000000
00000000
00001000
00000000
,
00011000
00010000
00001000
00011000
00010000
00000100
00010100
00000100
,
00001100
00001000
00001010
00000010
00000100
00000101
00000001
00000100
,
00000101
00000001
00001000
00000010
00010000
00001000
01000000
00100000
,
10000000
00100000
01000000
00001000
00010000
00000100
00001000
00000010
00010000
00001000
00010000
00001000
00010000
00001000
00010000
00001000
,
00010000
00000000
00000000
00000000
01000000
00010000
00100000
00001000
00010000
00000010
00010000
00000000
00001000
00010000
00001000
00000000
,
00100000
00010000
10000000
00000000
01000000
00100000
00010000
00000000
00100000
00001000
00100000
00000000
00000100
00010000
00000100
00000000
,
00001000
00000010
00001000
00000000
00000100
00010000
00001000
00000000
00010000
00000100
00001000
00000000
00000100
00010000
00001000
00000000
,
00010000
00000010
00000100
00000010
00010000
00000010
00010000
00000000
00000100
00001000
00000100
00010000
00000100
00001000
00000010
00000000
,
00010000
00000100
00010000
00001000
00010000
00000100
00010000
00000000
00001000
00100000
00010000
00000000
10000000
00010000
01000000
00000000
,
00001000
00010000
00001000
00000000
00010000
00000010
00010000
00000000
00000100
00010000
00000100
00000000
00010000
00001000
00010000
00000000
,
00001000
00100000
00001000
00000000
00010000
00001000
00010000
00000000
00001000
01000000
00000000
01000000
00010000
01000000
00100000
00000000
,
10000000
01000000
00000000
00100000
00001000
00010000
00000100
00000000
00001000
00000010
00000000
00000100
00000001
00000100
00000001
00000000
,
00000001
00001000
00000100
00010000
00001000
00100000
00010000
01000000
00100000
01000000
00001000
00100000
00010000
00000000
01010000
00000000
,
01010000
00000000
00011000
00011000
00000000
00001001
00001001
00000000
,
00011000
00000000
00011000
00000000
00000000
00000000
10010000
00000000
10000000
01000000
00100000
00010000
00100000
00001000
00100000
00000000
,
00001000
00010000
00000100
00001000
00000010
00010000
00000100
00000000
00010000
00000010
00001000
00000100
00010000
00000010
00001000
00000000
,
00000100
00010000
00001000
00100000
01000000
00010000
01000000
00000000
01010000
00000000
10010000
00000000
00000000
00000000
00011000
00000000
,
00011000
00000000
00010010
00010010
00000000
00001010
00001010
00000000
,
00000001
00001000
00000100
00000000
00000100
00001000
00000001
00000000
00001000
00000100
00010000
00001000
00100000
00001000
00010000
00000000
,
00010000
00000010
00000100
00000010
00010000
00000010
00001000
00000000
00000100
00010000
00001000
00100000
00001000
00100000
00010000
00000000
,
00100000
00010000
00100000
00010000
01000000
00001000
00100000
00000000
00011000
00000000
00010000
00000000
00000100
00000000
00001010
00000000
,
00000100
00001000
00000010
00010000
00001000
00010000
00001000
00110000
,
00001000
00100000
00010000
00001100
00010000
00000010
00000100
00000011
,
00001000
00010000
00001000
00011000
00110000
00000000
01100000
00000000
,
10010000
00000000
00000000
00000000
10010000
00000000
00010000
01000000
00100000
00000000
10000000
00000000
10000000
00100000
01000000
00000000
,
00010000
00100000
00001000
00000000
00010000
00000100
00010000
00000000
00001000
00100000
00010000
00000000
00100000
00001000
00010000
00000000
,
00000100
00001000
00000001
00000000
00000001
00000010
00000100
00000000
00001000
00000100
00010000
00000000
00001000
00100000
00010000
00000000
,
00010000
00000100
00001000
00000000
00010000
00000000
00001000
00000000
00011000
00000000
00000000
00000000
01010000
00000000
00000000
00000000
,
01100000
00000000
01100000
00000000
00000000
00000000
01000000
00000000
00001000
00010000
00001000
00000000
00010000
00000010
00010000
00000000
,
00000010
00010000
00001000
00000000
00010000
00000010
00001000
00000000
00000100
00010000
00001000
00000000
00100000
00001000
00100000
00000000
,
00001000
00010000
00000100
00000000
00000010
00000100
00000010
00000000
00010000
00001000
00010000
00000000
00001000
00100000
00010000
00000000
,
00100000
00001000
00010000
00000000
00000010
00010000
00001000
00000000
00011000
00000000
00000000
00000000
00101000
00000000
00000000
00000000
,
00001000
00000000
00001000
00000000
00010000
00000000
00001000
00010000
00000200
00000000
00020300
00000000
00032000
00000000
00203000
00000000
,
00302000
20003000
32000000
03020000
00032000
00023000
02030000
23000000
,
30002000
00000000
00023000
00000000
00030002
00000000
00000203
00000000
00000301
00000100
00000010
00001000
00000100
00100000
00010000
10000000
,
00100000
01000000
00001000
00010000
00000100
00001000
00000010
00000100
00000002
00000000
00000000
00000000
00000000
00000000
00000000
00000000
,
00000000
00000000
00020003
00000000
,
00000000
00000000
00000000
00000000
00000000
00000000
00030000
00000000
00011000
00000000
00100000
00001000
00010000
00000100
00010000
00001000
,
00100000
00000000
00010000
10000000
00100000
01000000
00010000
01000000
00001000
00000000
00010000
00000010
00000100
00000010
00000100
00000010
,
00010000
00000000
00010000
00000010
00000100
00000010
00000100
00000010
00010000
00001000
00010000
00001000
01000000
00100000
00010000
00000000
,
10000000
01000000
00100000
00010000
00001000
00000100
00000010
00000000
00000001
00000010
00000100
00001000
00010000
00100000
01000000
00000000
,
10000000
00010000
01000000
00000100
00100000
00001000
10000000
00100000
10100000
00000000
00000000
00000000
00000000
00000000
00000000
00000000
,
10000000
00100000
01000000
00001000
00010000
00001000
00100000
00010000
,
10000000
01000000
10000000
00010000
01000000
00001000
00010000
00000010
,
00000100
00000010
00010000
00000100
00001000
00000010
00001000
00000100
,
00100000
00000000
00010000
00000000
00100000
00000000
00001000
00000000
00101000
00000000
00100000
00000000
00001000
00000000
00010000
00000010
,
00001000
00000010
00010000
00001000
01000000
00100000
10000000
00010000
01000000
00010000
00100000
00001000
00010000
00000010
00010000
00000010
,
00001000
00000100
00001000
00000010
00001000
00000100
00000010
00000001
00000100
00000010
00010000
00000100
00010000
00001000
00010000
00000010
,
00000100
00000001
00001000
00000010
00000100
00000010
00010000
00000100
00001000
00000001
00001000
00000100
00000010
00000001
00000100
00000010
,
00000100
00000000
00000001
00000000
00001000
00000000
00000100
00000000
00000010
00000000
00000001
00000000
00001000
00000000
00000001
00000000
00001000
00000000
00000000
00000000
00001001
00000000
00001001
00000000
00001000
00000100
00000010
00000001
00001000
00000000
00000100
00000000
,
00000001
00001000
00000100
00001000
00000010
00100000
00001000
00000000
00010000
01000000
00010000
00100000
01000000
10000000
01000000
00000000
,
00010000
00100000
00010000
00000000
01000000
00001000
00010000
00000000
00001000
00010000
00000100
00001000
00000100
00001000
00000010
00000000
,
00010000
00001000
00010000
00001000
00100000
00001000
00010000
00000000
00000010
00001000
00000010
00001000
00000010
00001000
00000010
00000000
,
00001000
00000001
00001000
00000001
00001000
00000001
00001000
00000000
00000100
00000010
00000100
00000010
00000100
00000010
00000100
00000000
,
00010000
00001000
01000000
00010000
01000000
00100000
01000000
00000000
00001000
00010000
00000100
00001000
00000010
00000100
00000010
00000000
,
00001000
00000001
00000100
00000001
00001000
00000010
00001000
00000000
00000001
00001000
00000001
00000100
00000001
00001000
00000001
00000000
,
00000100
00000010
00001000
00000000
00000010
00000100
00000001
00000000
00010000
00001000
00010000
00000000
00001000
00010000
00001000
00000000
,
10000000
00100000
10000000
00000000
00100000
10000000
00100000
00000000
10000000
00000000
00100000
00000000
10000000
00000000
00100000
00000000
,
10100000
00000000
10000000
00000000
10010000
00000000
00010000
00000000
01010000
00000000
01000000
00000000
01001000
00000000
00001000
00010000
,
00001000
00000000
00010000
00000000
00010100
00000000
00000100
00000000
00000110
00000000
00000010
00000000
00000011
00000000
00000001
00001000
,
00000001
00000000
00000100
00000000
00010100
00000000
00010000
00000000
00011000
00000000
00010000
00000000
01010000
00000000
01000000
00100000
,
01000000
00100000
10000000
00001000
00010000
00000001
00010000
00001000
,
10000000
01000000
10000000
01000000
00100000
01000000
00100000
01000000
00001000
01000000
00010000
00100000
00001000
00010000
00001000
00010000
,
00000100
00001000
00000010
00000100
00000001
00000100
00000010
00001000
00000100
00001000
00000001
00000010
00000100
00010000
00001000
00010000
,
00000010
00000100
00000001
00001000
00000010
00010000
00001000
00010000
00001000
00100000
00010000
01000000
00100000
10000000
00010000
01000000
,
00001000
00010000
00001000
01000000
00010000
01000000
00001000
00010000
00001000
00010000
00000100
00001000
00000001
00000100
00000010
00010000
,
00004000
00000000
00000000
00000000
,
00003000
00000000
00000000
00000000
;
