#TITLE:Opa;
#SUBTITLE:;
#ARTIST:Dimitri Vegas & Like Mike X KSHMR;
#TITLETRANSLIT:;
#SUBTITLETRANSLIT:;
#ARTISTTRANSLIT:;
#GENRE:;
#CREDIT:;
#MUSIC:Opa.ogg;
#BANNER:;
#BACKGROUND:;
#CDTITLE:;
#SAMPLESTART:65.509;
#SAMPLELENGTH:15.000;
#SELECTABLE:YES;
#OFFSET:1.110;
#BPMS:0.000=128.000
,72.000=64.000
,88.000=63.000
,89.000=63.800
,90.500=63.250
,91.000=68.000
,92.000=65.000
,93.000=65.400
,94.500=65.200
,95.000=73.200
,96.000=71.200
,97.000=76.200
,98.000=75.200
,99.000=78.000
,99.500=81.200
,100.000=78.200
,101.000=80.200
,102.000=83.200
,104.000=88.200
,106.000=94.200
,108.000=98.200
,111.000=102.200
,113.000=106.200
,115.000=109.200
,116.000=111.200
,117.000=115.200
,119.000=118.200
,120.000=121.200
,121.000=123.200
,122.000=126.200
,123.000=128.200
,124.000=130.200
,125.000=131.200
,126.000=133.200
,127.000=135.200
,128.000=139.200
,129.000=141.200
,130.000=143.200
,131.000=145.200
,132.000=147.200
,133.000=149.200
,134.000=151.200
,135.000=154.200
,136.000=158.200
,138.000=160.200
,139.000=162.200
,140.000=165.200
,141.000=167.200
,142.000=170.200
,143.000=173.200
,145.000=178.200
,146.000=180.200
,147.000=182.200
,148.000=183.200
,149.000=185.200
,150.000=187.200
,151.000=189.200
,152.000=191.200
,153.000=194.200
,154.000=197.200
,155.000=200.200
,156.000=203.200
,157.000=205.200
,158.000=207.200
,159.000=209.200
,160.000=211.200
,161.000=210.200
,163.000=214.200
,164.000=217.200
,165.000=221.200
,168.000=220.200
,169.000=216.200
,169.500=211.200
,170.000=208.200
,170.500=195.200
,171.000=186.200
,171.500=181.200
,172.000=176.200
,172.500=170.200
,173.000=165.200
,173.500=159.200
,174.000=153.200
,174.500=144.200
,175.000=136.200
,175.500=129.200
,176.000=128.000
;
#STOPS:;
#DISPLAYBPM:128.000;
#BGCHANGES:;
#FGCHANGES:;

//--------------- dance-single - ----------------
#NOTES:
     dance-single:
     :
     Beginner:
     4:
     0,0,0,0,0:
0000
0000
0000
0000
,
0000
0000
0000
1000
,
1000
0000
0001
0000
,
1000
0000
0010
0000
,
1000
0000
0001
0000
,
0100
0000
0010
0000
,
1001
0000
1000
0000
,
0010
0010
0010
0000
,
0100
0000
0001
0000
,
1000
1000
1000
0000
,
1001
0000
0001
0000
,
0100
0100
0100
0000
,
0010
0000
1000
0000
,
0010
0010
0010
0000
,
1001
0000
0100
0000
,
0010
0010
0010
0000
,
1000
0000
0001
0000
,
1000
1000
1000
0000
,
1001
0000
0000
0000
,
0100
0000
0000
0000
,
0100
0000
0000
0000
,
0100
0000
0000
0000
,
0010
0000
0000
0000
,
1000
0000
0001
0000
,
1000
0000
0001
0000
,
1000
0000
0001
0000
,
0100
0000
0100
0000
,
0001
0000
0000
0000
,
1000
0000
0001
0000
,
1000
0000
0001
0000
,
1000
0000
0010
0000
,
0100
0000
0001
0000
,
0100
0000
0100
0000
,
0010
0000
0010
0000
,
1000
0000
0001
0000
,
1000
0000
0010
0000
,
1000
0000
0001
0000
,
1000
0000
0001
0000
,
0100
0000
0010
0000
,
0100
0000
0010
0000
,
1000
0000
0001
0000
,
1000
0000
0001
0000
,
1000
0000
0001
0000
,
1000
0000
0001
0000
,
1000
0000
0000
0000
,
0000
0000
1000
0000
,
0001
0000
0100
0100
,
0100
0000
0010
0000
,
1000
0000
0001
0001
,
0001
0000
1001
0000
,
1000
0000
0010
0010
,
0010
0000
0100
0000
,
0001
0000
1000
0000
,
0000
0000
1001
0000
,
0100
0000
0010
0010
,
0010
0000
0100
0000
,
0001
0000
1000
1000
,
1000
0000
1001
0000
,
0010
0000
0100
0100
,
0100
0000
0001
0000
,
1000
0000
0010
0010
,
0010
0010
0010
0000
;

//--------------- dance-single - ----------------
#NOTES:
     dance-single:
     :
     Easy:
     6:
     0,0,0,0,0:
0000
0000
0000
0000
,
0000
0000
0000
0000
,
1001
0001
1000
0010
,
0100
0100
0001
1000
,
0001
1000
0010
0100
,
0001
1000
0010
1000
,
1001
0001
0100
0100
,
0010
1000
0100
0010
,
0001
0100
0010
1000
,
0001
1000
0010
1000
,
1001
0001
0100
0010
,
1000
0100
0010
0100
,
0010
0001
0100
0010
,
1000
0001
0100
0010
,
1001
0100
0010
1000
,
0001
0010
0100
0010
,
0001
1000
0010
0100
,
0001
1000
0001
1000
,
1001
0000
0000
0000
,
2000
3000
0000
0000
,
2000
3000
0000
0000
,
2000
3000
0000
0000
,
1000
0010
0100
0001
,
1000
0001
1000
0010
,
0100
0001
1000
0001
,
1000
0001
0100
0010
,
1000
0100
0010
0001
,
1000
0000
0000
0000
,
1000
0001
1000
0001
,
1000
0001
1000
0001
,
0100
0010
0100
0010
,
0100
0010
0100
0001
,
1000
0100
1000
0100
,
1000
0100
0010
0001
,
1000
0010
1000
0010
,
0100
0001
0100
0001
,
1000
0001
1000
0001
,
1000
0001
1000
0001
,
1000
0001
1000
0001
,
1000
0001
1000
0001
,
1000
0001
1000
0001
,
1000
0001
1000
0001
,
1000
0001
1000
0010
,
0100
0001
1000
0100
,
0010
0000
0000
0000
,
0001
1001
1000
0010
,
0100
0001
1000
1000
,
0010
0010
0100
0001
,
1000
0010
0100
0100
,
0100
1001
0010
0100
,
0001
1000
0100
0100
,
0100
0100
0010
0001
,
0100
0010
1000
0000
,
0000
1001
1001
1000
,
0010
0100
0001
1000
,
0010
0100
1001
0010
,
0100
0001
1000
0010
,
1000
0001
1001
1000
,
0001
0100
0001
0010
,
0100
1000
1001
1000
,
0010
0100
0001
1000
,
0001
1001
1000
0000
;

//--------------- dance-single - ----------------
#NOTES:
     dance-single:
     :
     Medium:
     13:
     0,0,0,0,0:
0000
0000
0000
0000
,
0000
0000
0000
1001
,
1001
0000
1000
0100
0001
0100
1000
0001
,
0001
0010
0001
0100
0001
0100
0010
0000
,
1010
0000
1000
0100
0001
0100
0010
0100
,
1000
0001
0010
0001
1000
0010
0100
0000
,
1001
0000
0001
0001
1000
0100
0010
0100
,
0010
0100
1000
0100
0010
0001
1000
0000
,
1001
0000
1000
0100
0010
0100
0010
0100
,
1000
0001
0010
0001
0100
0010
1000
0001
,
1000
0000
0001
0100
0101
0000
1010
0000
,
0010
0100
0010
0100
0010
0100
0010
0000
,
1000
0000
0001
0100
0101
0000
1010
0000
,
0010
0100
0001
1000
0100
0010
0001
0000
,
1001
0000
2000
0000
3001
0100
0010
0000
,
1000
0100
1000
0001
0100
0010
0200
0000
,
0310
0000
0100
0001
0010
0001
0100
0000
,
0010
1000
0100
1000
0001
1000
0010
0000
,
1001
0000
0000
0000
0000
0000
0000
0000
0000
0000
0000
0000
0000
0000
0000
0000
0000
0000
0000
0000
0000
0000
0000
0001
,
1000
0000
0000
0000
0000
0000
0000
0000
0000
0000
0000
0000
0000
0000
0000
0000
0000
0000
0000
0000
0000
0000
0000
0001
,
1000
0000
0000
0000
0000
0000
0000
0000
0000
0000
0000
0000
0000
0000
0000
0000
0000
0000
0000
0000
0000
0000
0000
0001
,
1000
0010
0100
0001
,
2000
3001
0100
0010
,
2000
0010
3010
0100
0002
1000
1003
0010
,
0200
0001
0301
1000
0020
1000
0130
0001
,
1000
1000
0010
0100
0001
0001
1000
0100
,
0010
0010
0001
0100
0010
0000
1000
0000
,
1001
0000
0000
0000
,
1000
0100
1000
0100
1000
0001
0100
0010
,
0100
0001
0100
0010
1000
0100
0010
0001
,
1000
0010
1000
0010
0100
0001
0100
0001
,
1000
0100
0010
0001
0100
0010
0100
0001
,
1000
0100
0010
0001
1000
0100
0010
0001
,
1000
0010
0100
0001
0010
0100
1000
0001
,
0100
0010
0100
0001
0100
0010
0100
0001
,
0100
0010
0100
0001
0100
0010
0100
0001
,
1000
0100
1000
0100
0010
0001
0010
0001
,
0100
0010
0100
0010
1000
0001
1000
0001
,
0100
0010
0100
0010
1000
0100
1000
0100
,
0010
0001
0010
0001
0100
0010
1000
0001
,
0010
0100
1000
0010
0100
0001
1000
0100
,
0010
0001
0100
0010
1000
0001
0010
0100
,
1000
0001
0100
0010
1000
0100
0010
0001
,
0100
0010
1000
0001
0010
0100
1000
0001
,
1001
0000
0000
0000
,
0000
0000
1001
0000
0001
1000
0100
1000
,
0010
0100
0001
1000
0100
0010
0001
0100
,
0010
1000
0001
0000
1001
0000
0001
0100
,
0001
0010
0001
1000
0100
1000
0001
0100
,
0010
1000
0001
0000
1001
0000
1000
0100
,
1000
0001
0010
0100
0010
0001
0010
0100
,
1000
0010
1000
0000
1010
0000
0100
0001
,
0010
0001
0100
0010
1000
0100
1000
0100
,
1000
0001
0100
0010
0110
0000
0001
0100
,
0001
0100
0010
1000
0100
0001
0100
1000
,
0001
0100
0010
0000
0101
0000
1000
0100
,
0001
0100
1000
0001
0010
1000
0010
0001
,
0100
0010
1000
0000
1010
0000
1000
0100
,
0010
0001
0100
1000
0100
0010
0100
0001
,
1000
0100
0001
0000
0101
0000
0001
0100
,
1000
0010
0100
0001
1000
0100
0010
0001
,
0100
0010
1010
0000
1001
0000
0000
0000
;

//--------------- dance-single - ----------------
#NOTES:
     dance-single:
     :
     Hard:
     16:
     0,0,0,0,0:
0000
0000
0000
0000
,
0000
0000
0000
0000
0000
0000
1000
0001
,
0101
0000
0010
1000
0010
0000
0100
0000
0001
1000
0001
0000
0100
0010
0100
0000
,
0001
0010
0100
1000
0001
0100
0010
0010
,
1010
0000
1000
0001
1000
0000
0010
0000
0100
0001
0100
0000
0010
1000
0010
0000
,
0110
0000
0100
0000
0101
0000
0001
0000
1000
0100
1000
0010
0100
0000
0000
0000
,
1001
0000
0001
0100
0010
0000
1000
0000
0001
0100
0010
0000
1000
0001
1000
0000
,
1001
0001
0100
0010
0110
0010
1000
0000
,
1001
0000
0001
0100
0010
0000
0100
0000
0001
1000
0001
0000
0100
0010
0100
0000
,
0001
1000
0001
1000
0010
0100
0010
0100
0001
1000
0100
1000
0001
0000
0100
0000
,
0101
0000
0010
1000
0100
0000
0010
0000
0100
1000
0010
0000
0100
0001
0100
0000
,
0010
0000
1000
0001
1000
0000
0010
0000
0100
0000
0001
1000
0001
0000
1000
0000
,
1010
0000
0100
0001
0100
0000
0010
0000
1000
0001
1000
0001
1000
0000
0010
0000
,
1000
0000
0100
0010
0100
0000
1000
0000
0001
0100
0001
0100
0010
0000
1000
0000
,
1001
0000
0010
0100
0010
0000
0100
0000
0001
1000
0001
0000
0100
0010
0100
0000
,
0020
0000
1030
0010
2000
0000
3001
0000
0200
0000
0310
1000
0010
0000
0100
0000
,
0101
0000
0010
1000
0010
0000
0100
0000
0001
0000
1000
0100
1000
0000
0001
0100
,
0001
1000
0100
0010
0001
0100
0010
1000
0100
0010
0100
1000
0010
1000
0100
1000
,
0010
0000
0000
0000
0000
0000
0000
0000
0000
0000
0000
0000
0000
0000
0000
0000
0000
0000
0000
0000
0000
0000
0000
0100
,
0002
0000
0000
0000
0000
0000
0003
0000
0000
0000
0000
0000
0000
0000
0000
0000
0000
0000
0000
0000
0000
0000
0000
0100
,
0020
0000
0000
0000
0000
0000
0030
0000
0000
0000
0000
0000
0000
0000
0000
0000
0000
0000
0000
0000
0000
1000
0100
0010
,
0200
0000
0000
0000
0000
0000
0300
0000
0000
0000
0000
0000
1000
0000
0000
0000
0000
0000
0001
0000
0000
0000
0000
1000
,
0100
0000
0000
0000
0000
0000
1000
0000
0000
0000
0000
0000
0010
0000
0000
0000
0000
0000
0100
0000
0000
0000
0000
0010
,
1000
0000
0000
0100
0000
0000
0010
0000
0000
0001
0000
1000
0010
0000
0000
0100
0000
0000
0001
0000
0000
1000
0000
0100
,
0010
0000
0000
0001
0000
0000
0100
0000
0000
0010
0000
1000
0010
0000
0000
0100
0000
0000
0100
0000
0000
0010
0000
1000
,
0010
0000
0000
0100
0000
0000
0010
0000
0000
1000
0000
0001
0100
0000
0000
0010
0000
0000
1000
0000
0000
0100
0000
0010
,
0001
0000
0100
0000
0010
0000
1000
0001
1000
0000
0010
0000
1000
0000
0001
0100
,
0001
0000
0000
0000
1000
0001
0100
0010
,
1000
0100
1000
0100
0010
0001
0010
0001
0100
0010
0100
0010
1000
0001
0010
0001
,
1000
0100
0010
0001
1000
0010
0100
0001
1000
0000
1000
0000
0010
0000
0010
0000
,
0100
0001
0100
0001
1000
0010
1000
0010
0100
0001
0010
0001
1000
0001
0010
0100
,
1000
0010
0100
0001
1000
0100
0010
0001
1000
0000
0010
0000
1000
0000
0010
0000
,
0100
0001
0010
0001
0100
0010
1000
0100
0010
0001
0100
0010
1000
0100
1000
0001
,
0100
0010
1000
0001
0010
0100
1000
0010
0100
0000
0001
0000
0100
0000
0010
0000
,
1000
0100
0010
0001
1000
0100
0010
0001
1000
0010
0100
0001
1000
0010
0100
0001
,
1000
0100
0010
0100
1000
0010
1000
0001
0100
0000
0010
0000
1000
0000
0001
0000
,
1001
1001
1010
1010
,
0101
0101
1001
1001
,
1010
1010
0101
0101
,
1010
1010
1001
1001
,
1000
0010
1000
0010
0100
0001
0100
0001
,
1000
0100
0010
0001
0100
0010
1000
0001
,
1000
0100
0010
0001
0100
0010
1000
0001
0010
0100
1000
0010
0100
0001
1000
0100
,
0010
0001
0100
0010
1000
0001
0010
0100
1000
0010
0100
0001
1000
0100
0010
0001
,
1000
0000
0000
0000
0000
0001
0100
0010
,
1000
0000
0001
0000
1001
0000
1000
0000
1001
0000
0001
0100
0001
0000
0100
0000
,
0010
1000
0100
0001
0100
1000
1001
0001
,
1001
0000
1000
0100
1000
0000
0010
0000
1010
0000
1000
0001
0100
0000
0010
0000
,
1000
0100
1000
0000
0001
0010
0001
0000
1000
0000
0010
0000
1000
0000
0100
0000
,
1000
0010
0100
0010
0100
0000
0010
0000
1010
0000
0001
0100
0001
0000
0100
0000
,
0010
1000
0010
0000
0100
0001
0100
0000
0010
0000
0010
0000
0010
0000
0010
0000
,
1000
0000
1000
0000
1000
0000
0001
0000
1001
0000
1000
0001
0100
0000
0010
0000
,
1000
0000
0000
0100
0000
0000
1000
0000
0000
0000
0000
0000
0001
0000
0000
0010
0000
0000
0001
0000
0000
0000
0000
0000
1000
0000
0000
0000
0000
0000
0001
0000
0010
0000
0100
0000
1000
0000
0000
0000
0000
0000
0010
0000
0100
0000
0010
0000
,
1000
0100
0010
0000
0110
0000
0000
0000
1010
0000
1000
0001
1000
0000
0010
0000
,
0100
0001
0100
0000
0010
1000
0010
0000
0100
0000
0100
0000
0001
0000
0001
0000
,
1000
0000
1000
0000
1010
0000
0000
0000
1001
0000
0001
1000
0010
0000
0100
0000
,
0010
1000
0010
0000
1000
0010
1000
0000
0010
0000
0100
0010
0100
0000
0010
1000
,
0010
0100
0001
0100
0010
0000
1000
0000
1001
0000
0001
0100
0010
0000
1000
0000
,
0100
0010
0100
0000
1000
0001
1000
0000
1010
0000
0010
0000
0110
0000
0100
0000
,
0101
0000
0001
0000
1001
0000
0000
0000
1010
0000
1000
0001
1000
0000
0010
0000
,
0100
0010
0100
0000
1000
0100
0010
0000
0100
1000
0010
1000
0010
0100
0010
0100
,
0010
1000
0010
1000
0100
0000
1000
0000
1010
0000
0000
0000
0000
0000
0000
0000
;

//--------------- dance-single - ----------------
#NOTES:
     dance-single:
     :
     Challenge:
     18:
     0,0,0,0,0,0,0,0,0,0,0,0,0,0,0,0,0,0,0,0,0,0:
0000
0000
0000
0000
,
0000
0000
0000
0000
0000
0000
1001
1000
,
0001
0000
0000
0000
1000
0100
1000
0000
0001
0000
0000
0000
0100
0000
0000
0000
0010
1000
0010
1000
0010
0000
0000
0000
1000
0001
0010
0100
1000
0000
0000
0000
,
0001
1000
0001
0000
0100
0000
0000
0000
0010
1000
0010
0000
0100
0000
0000
0000
0001
0010
0001
0000
1000
0000
0000
0000
0010
0000
0000
0000
1000
0100
0010
0001
,
1000
0000
0000
0000
0001
0100
0010
1000
0001
0000
0000
0000
1000
0000
0000
0000
0001
0100
0001
1000
0010
0000
0000
0000
0100
0001
1000
0100
0010
0000
0000
0000
,
0002
0000
1003
0000
0020
0000
1030
0000
0100
0010
0001
0010
0012
0000
1003
0010
,
0100
0000
0000
0000
0001
1000
0001
1000
0010
0000
0000
0000
0100
0000
0000
0000
0001
1000
0100
0010
0001
0000
0000
0000
1000
0010
1000
0001
1000
0000
0000
0000
,
0002
0103
0020
1030
0200
0310
0002
0103
,
1010
0000
0000
0000
1000
0001
1000
0010
1000
0000
0000
0000
0010
0000
0000
0000
0100
0001
0100
0001
0100
0000
0000
0000
0010
1000
0010
1000
0010
0000
0000
0000
,
1000
0000
0000
0100
0000
0000
1000
0000
0000
0001
0000
0000
0100
0000
0000
0001
0000
0000
0010
0000
0100
0000
1000
0000
0100
0000
0000
1000
0000
0000
0100
0000
0000
1000
0000
0000
1001
0000
0000
0000
0000
0000
0001
0000
1000
0000
0010
0000
,
1000
0000
0000
0000
0001
1000
0100
1000
0001
0000
0000
0000
0100
0000
0000
0000
0010
1000
0010
1000
0001
0000
0000
0000
0100
0001
1000
0010
1000
0000
0000
0000
,
0002
0000
1003
0010
2000
0000
3001
0000
1002
0000
1003
0010
0200
0000
0301
0000
,
1001
0000
0000
0000
1000
0001
0010
0001
1000
0000
0000
0000
0001
0000
0000
0000
1000
0001
0010
0001
1000
0000
0000
0000
0001
1000
0100
1000
0001
0000
0000
0000
,
2000
0000
3001
0001
1000
0000
1001
0000
0001
0100
0010
1000
1010
0000
0000
0000
,
1001
0000
0000
0000
1000
0001
1000
0001
1000
0000
0000
0000
0001
0000
0000
0000
1000
0100
0010
0001
1000
0000
0000
0000
0100
0010
0001
0010
0001
0000
0000
0000
,
2000
0000
3001
0001
0200
0000
0310
0000
2000
0000
3001
0001
1000
0000
0010
0000
,
1100
0000
0000
0000
0010
0001
1000
0010
1000
0000
0000
0000
0001
0000
0000
0000
1000
0001
0010
0100
1000
0000
0000
0000
0002
0000
0000
0000
1003
0000
0000
0000
,
0001
0010
0100
1000
0001
0010
0100
1000
0010
0100
0010
1000
1010
0000
1000
0000
,
1001
0000
0000
0000
0000
0000
MMMM
0000
0000
0000
0000
0000
0000
0000
0000
0000
0000
0000
0000
0000
0000
0000
0000
1000
,
0002
0000
0000
0000
0000
0000
0003
0000
0000
0000
0000
0000
0000
0000
0000
0000
0000
0000
0000
0000
0000
0000
0000
0100
,
0020
0000
0000
0000
0000
0000
0000
0000
0000
0000
0000
0000
0030
0000
0000
0000
0000
0000
0000
0000
0000
0000
0000
0000
0000
0000
0000
0000
0000
0000
0000
0000
0000
0000
0000
0000
0000
0000
0000
0000
0000
0000
0100
0001
1000
0100
1000
0001
,
0200
0000
0000
0300
0000
0000
0001
0000
0000
0000
0000
0000
1000
0000
0000
0000
0000
0000
0001
0000
0000
0000
0000
1000
,
0002
0000
0000
0003
0000
0000
1000
0000
0000
0000
0000
0000
0010
0000
0000
0000
0000
0000
0100
0000
0000
0000
0000
0001
,
0100
0000
0000
0000
0000
0000
0010
0000
0000
0000
0000
0000
1000
0000
0000
0000
0000
0000
0001
0000
0000
0000
0100
0000
0020
0000
0000
0000
0000
0000
0130
0000
0000
0000
0000
0000
0001
0000
0000
0000
0000
0000
0100
0000
0000
0000
0001
0010
,
0001
0000
0000
0100
0000
0000
0001
0000
0000
0100
0000
0010
0100
0000
0000
0010
0000
0000
1000
0000
0000
0001
0000
0001
,
0100
0000
0000
0000
0000
0000
0010
0000
0000
0000
0000
0000
1000
0000
0000
0000
0000
0000
0001
0000
0000
0000
1000
0010
1000
0000
0000
0000
0000
0000
0001
0000
0000
0000
0000
0000
0100
0000
0000
0000
0000
0000
0010
0000
0000
0000
1000
0000
,
0001
0000
0000
0000
0000
0000
0100
0000
0000
0000
0000
0000
0010
0000
0000
0000
0000
1000
0100
0010
0001
0010
0100
1000
0001
0000
0000
0000
0000
0000
0100
0000
0000
0000
0000
0000
0010
0000
0000
0000
0000
1000
0001
0010
0001
1000
0100
1000
,
0001
0000
0000
0000
,
1000
0100
1000
0001
1000
0100
1000
0100
0010
0001
0010
0001
0100
0010
0100
0001
,
1000
0000
0100
0000
1000
0000
0001
0000
1000
0000
0010
0000
1000
0000
0100
0000
0010
0000
0001
0000
0010
0000
0001
0000
1000
0000
0001
0000
1000
0000
0010
1000
,
0001
0100
0001
0010
0001
0100
0001
0010
0100
1000
0010
0100
0001
0010
0001
0100
,
0010
0100
0001
0010
0001
0100
0001
0100
0010
1000
0001
0100
0010
1000
0100
0010
,
0001
0100
0001
0010
0100
1000
0010
0100
0001
1000
0100
1000
0001
0010
0001
0100
,
0001
1000
0100
1000
0001
0010
0001
0100
0010
1000
0100
1000
0001
0100
0010
0100
,
0001
0010
0100
1000
0001
0100
0010
1000
0001
0010
0100
0010
0001
1000
0010
1000
,
0100
0010
0001
0100
0010
1000
0100
1000
0001
0010
0001
0100
0010
1000
0010
1000
,
0001
0000
1000
0100
1000
0000
0001
0100
0010
0000
1000
0001
1000
0000
0001
0100
,
0001
0000
0100
0010
0100
0000
0001
0010
0001
0000
1000
0010
1000
0000
0001
0000
,
0101
0100
0110
0010
1010
1000
1001
0001
,
0101
0100
0110
0010
1010
1000
1001
0001
,
0100
0100
0010
0010
1000
1000
0001
0001
,
0100
0100
0010
0010
1000
1000
0001
0001
,
1000
0100
1000
0001
1000
0010
0100
0001
1000
0100
0010
0001
1000
0010
0100
0001
,
1000
0100
0010
0001
0100
0010
1000
0100
1000
0001
0100
0010
1000
0001
1000
0001
,
1000
0000
0000
0000
0000
0000
0000
0000
0000
0000
1000
0001
1000
0000
0001
0000
,
1000
0000
0100
0000
1000
0000
0000
0000
1001
0000
0000
0000
0001
0000
0000
0000
0101
0000
0000
0000
0100
0010
1000
0001
1000
0000
0000
0000
0010
0000
0000
0000
,
1000
0001
1000
0010
0100
0000
0000
0000
0001
1000
0010
0100
0001
0000
0000
0000
2000
0000
0000
0000
3100
0000
0000
0000
0020
0000
0000
0000
0031
0000
0000
0000
,
0200
0000
0000
0000
0310
0000
0100
0000
0010
0000
0000
0000
0100
0000
0000
0000
0101
0000
0000
0000
0001
0100
0010
0100
0001
0000
0000
0000
1000
0000
0000
0000
,
0001
0010
0100
1000
0001
0000
0000
0000
1000
0100
0010
0001
1000
0000
0000
0000
1001
0000
0000
0000
0001
0000
0000
0000
0100
0000
0000
0000
0100
0000
0000
0000
,
0010
0000
1000
0000
0010
0000
1000
0000
1001
0000
0000
0000
0000
0000
0000
0000
1001
0000
0000
0000
1000
0001
0010
0001
1000
0000
0000
0000
0010
0000
0000
0000
,
0100
0001
0010
0001
0100
0000
0000
0000
0010
1000
0100
1000
0010
0000
0000
0000
0200
0000
0000
0000
0301
0000
0000
0000
0200
0000
0000
0000
0310
0000
0000
0000
,
0200
0000
0000
0000
0301
0000
0100
0000
0010
0000
0000
0000
0100
0000
0000
0000
0101
0000
0000
0000
0010
1000
0100
1000
0001
0000
0000
0000
0100
0000
0000
0000
,
0001
0000
0000
1000
0000
0000
0001
0000
0000
0010
0000
0000
0100
0000
0000
0000
0000
0000
0000
0000
0000
0000
0000
0000
0010
0000
0000
0001
0000
0000
0100
0000
0000
0010
0000
0000
1000
0000
0000
0000
0000
0000
0000
0000
0000
0000
0000
0000
0001
0000
0000
0000
0000
0000
0100
0000
0000
0000
0000
0000
0001
0000
0000
0000
0100
0000
0000
0000
0010
0000
0000
0000
0100
0000
0000
0000
0000
0000
0001
0000
0000
0000
0000
0000
0010
0000
0000
0000
0100
0000
0000
0000
0010
0000
0000
0000
,
0001
0000
0100
0000
0010
0000
0000
0000
0101
0000
0000
0000
0001
0000
0000
0000
0100
0000
0000
0000
0001
0100
0001
0100
0001
0000
0000
0000
1000
0000
0000
0000
,
0001
1000
0100
1000
0001
0100
0001
0000
1001
0000
1000
0010
1000
0000
0001
0000
,
0100
0000
0000
0000
0010
0000
1000
0000
0100
0000
0000
0000
1000
0000
0000
0000
1001
0000
0000
0000
1000
0010
1000
0010
1000
0000
0000
0000
0001
0000
0000
0000
,
1000
0010
1000
0010
1000
0000
0010
0000
0100
0000
0000
0000
0001
0000
0000
0000
0101
0000
0000
0000
0100
0000
0010
0000
1000
0000
0000
0000
0001
0000
1000
0000
,
0010
0000
0100
0000
0001
0000
1000
0000
1001
0000
0000
0000
0000
0000
0000
0000
0011
0000
0000
0000
0100
1000
0100
1000
0100
0000
0000
0000
1000
0000
0000
0000
,
0001
0000
1000
0100
1000
0000
0001
0000
1000
0000
0001
0100
0001
0000
1000
0000
,
0001
0000
0000
0000
0001
0000
1000
0000
0020
0000
0000
0000
0130
0000
0000
0000
1001
0000
0000
0000
1000
0001
1000
0001
0100
0000
0000
0000
0010
0000
0000
0000
,
1000
0000
0001
0010
0001
0000
0100
0000
0010
1000
0010
1000
0010
1000
0010
1000
,
0010
1000
0010
1000
0010
0000
0000
0000
0000
0000
0000
0000
0000
0000
0000
0000
;
