#TITLE:October;
#SUBTITLE:;
#ARTIST:DJ Cristo;
#TITLETRANSLIT:;
#SUBTITLETRANSLIT:;
#ARTISTTRANSLIT:;
#GENRE:;
#CREDIT:;
#MUSIC:October.OGG;
#BANNER:;
#BACKGROUND:;
#CDTITLE:;
#SAMPLESTART:100.036;
#SAMPLELENGTH:12.000;
#SELECTABLE:YES;
#OFFSET:-0.025;
#BPMS:0.000=160.010;
#STOPS:8.000=2.250
,20.000=1.500
;
#DISPLAYBPM:160.000;
#BGCHANGES:;
#FGCHANGES:;

//--------------- dance-single - ----------------
#NOTES:
     dance-single:
     :
     Beginner:
     2:
     1,0,0.31,0.538,1:
0000
0000
0000
0000
,
0000
0000
0000
0000
,
1000
0000
0001
0000
,
0000
0000
0000
0100
,
0000
0000
0100
0000
,
0100
0000
0010
0000
,
0000
0000
0000
0100
,
0000
0000
0001
0000
,
0000
0000
1000
0000
,
0000
0000
0001
0000
,
0000
0000
0100
0000
,
0000
0000
0010
0000
,
0000
0000
1000
0000
,
0000
0000
0001
0000
,
0000
0000
1000
0000
,
0000
0000
0010
0000
,
0000
0000
0100
0000
,
0000
0000
0001
0000
,
0000
0000
1000
0000
,
0000
0000
0001
0000
,
0000
0000
0100
0000
,
0000
0000
0010
0000
,
0000
0000
1000
0000
,
0000
0000
0100
0000
,
0000
0000
0010
0000
,
0000
0000
0001
0000
,
0000
0000
1000
0000
,
0000
0000
0001
0000
,
0000
0000
0000
0000
,
0000
0000
0001
0000
,
0000
0000
1000
0000
,
0000
0000
0001
0000
,
0000
0000
0100
0000
,
0010
0000
0100
0000
,
0000
0000
0001
0000
,
0000
0000
1000
0000
,
0000
0000
0001
0000
,
0000
0000
0100
0000
,
0000
0000
0010
0000
,
0000
0000
1000
0000
,
0000
0000
0001
0000
,
0000
0000
1000
0000
,
0000
0000
0100
0000
,
0000
0000
0010
0000
,
0001
0000
0100
0000
,
0000
0000
0010
0000
,
0000
0000
0100
0000
,
0000
0000
0001
0000
,
0000
0000
0100
0000
,
0000
0000
0001
0000
,
0000
0000
1000
0000
,
0100
0000
0010
0000
,
0000
0000
0001
0000
,
0100
0000
0010
0000
,
0000
0000
1000
0000
,
0001
0000
0100
0000
,
0000
0000
0001
0000
,
1000
0000
0001
0000
,
0000
0000
0010
0000
,
0000
0000
0010
0000
,
0000
0000
0100
0000
,
0000
0000
0010
0000
,
0000
0000
0001
0000
,
0000
0000
1000
0000
,
0000
0000
0010
0000
,
0000
0000
0100
0000
,
0000
0000
0010
0000
,
0000
0000
0100
0000
,
0000
0000
0001
0000
,
0000
0000
1000
0000
,
0000
0000
0001
0000
,
0000
0000
1000
0000
,
0000
0000
0100
0000
,
0000
0000
0010
0000
,
0000
0000
0001
0000
,
0000
0000
0100
0000
,
0000
0000
0010
0000
,
0000
0000
1001
0000
,
0000
0000
0000
0000
,
0000
0000
1001
0000
;

//--------------- dance-single - ----------------
#NOTES:
     dance-single:
     :
     Easy:
     5:
     0,0,0,0,0:
0000
0000
0000
0000
,
0000
0000
0000
0000
,
0001
1000
1001
0001
,
0100
0010
0000
1000
,
0100
0010
0001
0100
,
0010
1000
1001
1000
,
0001
0100
0010
1000
,
0100
0010
0001
0100
,
0010
1000
1100
0100
,
0010
0001
0100
0010
,
1000
0001
0000
0100
,
0010
1000
0100
0000
,
0010
0000
0001
0100
,
0010
1000
0002
0103
,
0020
1030
0000
0100
,
0010
0001
0200
0301
,
0001
1000
1000
0010
,
0100
0001
1000
0100
,
1000
0010
0000
1000
,
0001
1000
0010
0100
,
0001
0000
1000
0000
,
0001
0000
1000
0100
,
1000
0001
0000
0100
,
0010
0100
0001
0100
,
0010
1000
0100
0010
,
0100
1000
0001
1000
,
0010
0100
0000
0001
,
0010
0001
0100
0000
,
0000
0000
0000
0000
,
0000
0001
1000
0001
,
0100
0010
0010
1000
,
0100
0010
0001
0100
,
0010
1000
0100
1000
,
0001
0100
0010
1000
,
0100
0010
0000
0100
,
1000
0010
0100
0001
,
1000
0000
0000
0000
,
0000
0001
1000
0010
,
0100
0001
0000
1000
,
0100
0010
0001
0000
,
1001
0000
1000
0010
,
0100
0000
1001
0001
,
0100
0010
0000
1000
,
0100
0010
0100
0000
,
0010
0000
0001
0000
,
0100
0000
0010
0000
,
1000
0000
0001
0100
,
0001
1000
0100
0000
,
0010
0000
0001
0100
,
0010
1000
0001
1000
,
0010
1000
0000
0001
,
0100
0001
0010
0001
,
0100
0000
0000
0000
,
0000
0001
1000
0100
,
1000
0010
0000
0100
,
0001
0010
0100
0000
,
0000
0000
0000
0000
,
0000
1000
0001
0100
,
0010
0100
0000
0001
,
0010
0001
1000
0000
,
0000
0000
0000
0000
,
0000
0000
1000
0001
,
1000
0001
0100
0010
,
0100
0001
1000
0100
,
0010
0100
1000
0001
,
0100
0010
1000
0001
,
1000
0010
0000
0100
,
0001
0010
0001
0100
,
0010
1000
0001
1000
,
0010
0100
0001
1000
,
0100
0010
0000
0001
,
0100
0001
0010
0100
,
1000
0010
0000
0000
,
0000
0000
1000
0001
,
1000
0010
0000
0100
,
0001
0010
0001
0000
,
0000
0000
1000
0001
,
1000
0001
1001
0000
,
0000
0100
0010
0000
,
0000
0000
1001
0000
,
0000
1000
0001
0000
,
0000
0000
0200
0000
,
0000
0300
0000
0000
;

//--------------- dance-single - ----------------
#NOTES:
     dance-single:
     :
     Medium:
     11:
     0,0,0,0,0:
0000
0000
0000
0000
,
0000
1000
0001
1000
,
0010
1000
1001
0001
,
0100
0010
0000
1000
,
0100
0010
0100
1000
,
0001
0000
1000
0000
1001
0000
0001
0100
,
0000
0010
0000
0000
0010
0010
0010
0000
,
1000
0001
1000
0000
0001
0000
0100
0000
,
1010
0000
0010
0100
0001
0010
0001
1000
,
0100
0000
0020
0030
0011
0000
0100
0010
,
0001
0100
0010
0000
1000
0100
1000
0000
,
0001
0100
0010
1000
,
0100
0000
0010
0001
0100
0010
1000
0100
,
0010
0001
0100
0010
2000
0000
3001
0100
,
0001
0100
0010
0000
2000
0000
3100
0010
,
0100
0000
1000
0001
0100
0000
0010
0000
,
1000
0000
0100
0000
1000
0001
1000
0010
,
0100
0001
0010
0001
0200
0000
0310
1000
,
0010
0100
0001
0100
0010
1000
0100
0000
,
1100
0000
1001
0000
0001
0100
0001
0000
,
0100
0010
1000
0001
0100
0100
0010
1000
,
0100
0100
0010
0010
0100
0000
0100
0010
,
1000
0100
0010
0100
1000
0000
1001
0000
,
0101
0000
0110
0000
1100
0000
1000
0010
,
0100
0000
0001
0010
0001
0100
0010
1000
,
0100
1000
0001
0000
1000
0000
0001
0000
,
0100
0001
0000
0001
,
1000
0010
0100
0000
,
0000
0000
0000
0000
,
0000
0000
1001
0000
0001
0010
0001
0100
,
0010
1000
0100
0000
1000
0100
1000
0000
,
0001
0100
0001
0010
0200
0000
0310
0000
,
0100
1000
0010
0000
0100
0001
0010
0000
,
0100
1000
0010
0100
0002
0000
0103
0010
,
1000
0010
0200
0000
0301
0001
1000
0010
,
0100
0001
2000
0000
3100
1000
1000
0000
,
0010
0100
0010
0000
1000
0001
0010
0000
,
0001
0100
0010
1000
0100
0000
0010
0000
,
0001
0010
0100
0000
0010
0001
0100
0000
,
0010
0000
1000
0100
0010
0000
0001
0100
,
0001
1000
1000
0100
1000
1000
0001
0000
,
0000
0000
0100
0001
1000
0010
0100
0001
,
1000
0100
0010
0001
1000
0010
1000
0100
,
0010
0001
0100
0010
1000
0100
0010
0001
,
1000
0010
0100
0001
1000
0100
0010
0001
,
0100
0010
1000
0000
0001
0000
1000
0010
,
0100
0010
1000
0000
0001
0010
1000
0000
,
0010
0000
0100
0000
0001
1000
0100
0010
,
0001
0100
0010
0000
1000
0100
1000
0001
,
0010
0100
1000
0000
0001
0100
0001
1000
,
0100
0010
0001
0000
1000
0100
1000
0001
,
0010
0001
0100
0000
0001
1000
0100
0000
,
1000
0100
0001
0000
0100
1000
0010
0000
,
0100
0001
0010
0001
0100
0000
0010
0000
,
1000
0001
0000
0100
,
0010
0000
1000
0000
0100
0010
0001
0000
,
1000
0100
1000
0000
0001
0010
0001
0000
,
0100
0010
1000
0000
0020
0000
0230
0000
,
0301
0100
0001
0000
1000
0100
0010
0100
,
1000
0001
0010
0001
2000
0000
3001
0000
,
0010
0001
0100
0000
0010
1000
0100
1000
,
0001
0010
0100
1000
0001
0000
0100
0000
,
0010
0000
1000
0000
0001
0001
0100
0010
,
1000
0001
0001
0100
0100
0000
0010
0000
,
1000
0000
0100
0000
0010
0010
0001
0100
,
0010
0010
1000
0100
0010
0001
0011
0000
,
0100
1000
0100
0000
0010
0000
0100
0000
,
1000
0000
0010
1000
0100
0000
0010
0000
,
0200
0310
0100
1000
,
0010
0000
1000
1000
0001
0000
0100
0000
,
0010
1000
0100
0000
0010
0000
0001
0000
,
0100
0000
0010
1000
0100
0000
0010
0000
,
0001
0100
0001
0000
1000
0100
1000
0000
,
0100
0001
0010
0001
,
1000
0000
0010
0000
1000
0100
1000
0001
,
0100
0010
0010
1000
0010
0000
0100
0000
,
0001
0000
1000
0000
0100
0000
1000
0001
,
1000
0010
0100
0001
0100
0010
1000
0100
,
0000
0010
0001
0100
0010
0000
0000
0000
,
0000
0000
0000
1000
0100
0010
0001
0100
,
0000
0000
0010
1000
0001
0000
1000
0000
,
0001
2002
0000
0000
,
3003
0000
0000
0000
;

//--------------- dance-single - ----------------
#NOTES:
     dance-single:
     :
     Hard:
     18:
     0,0,0,0,0:
0000
0000
0000
0000
,
0000
1000
0001
0100
,
0010
1000
1010
0010
,
0100
0001
0000
1000
,
0100
0010
0001
0100
,
0010
0000
0000
0000
1000
0000
0000
0000
0001
0000
0000
0000
1001
0000
1000
0010
,
0010
0000
0001
0100
01M0
0000
0000
0000
1000
0000
0010
0000
1010
0000
0000
0000
,
0100
0001
1000
0001
0100
0000
0010
1000
,
1010
0000
0010
0000
1000
0000
0001
0100
01M0
1000
0001
0000
0100
0000
0001
0010
,
0M20
0000
0000
0000
1030
0000
0000
0000
1000
0000
0100
0000
0010
0000
0001
0010
,
0M10
0000
1000
0100
01M0
0000
0000
0000
0101
0000
1000
0000
0002
0000
0010
0000
,
0013
0001
1001
1000
0010
0000
0100
0001
,
0101
0000
0001
0000
0100
0000
0001
0010
0M10
1000
0001
0000
1000
0000
0001
1000
,
0100
0100
0001
1000
0100
0100
0001
1000
0001
0000
0010
0000
0100
0000
1000
0001
,
1000
0000
0001
0100
0001
0000
1000
0000
0100
0000
0010
0000
0001
0000
1000
0000
,
1001
0001
0100
0010
1000
0100
1000
0001
,
1001
0000
1000
0000
0100
0000
0010
0001
0100
0010
0100
0000
0001
0000
1000
0001
,
1000
0010
0010
0001
1000
0100
0100
0001
1000
0000
0010
0000
1000
0000
0001
0100
,
0010
0000
1000
0100
1000
0000
0001
0000
0010
0000
0100
0000
1000
0000
0010
0000
,
0101
0100
0001
1000
0010
1000
0100
0010
,
0011
0000
0001
0000
0100
0000
0010
1000
0100
01M0
0001
0000
1000
0000
0001
0100
,
0001
1000
0100
1000
0001
0100
0001
0010
0100
0000
0010
0000
0011
0000
0001
0100
,
0010
0000
1000
0010
0100
0000
0001
0000
0100
0000
0010
0000
1000
0000
0010
0000
,
1010
1000
1001
0001
0100
0010
0100
0001
,
1001
0000
1000
0000
0010
0000
1000
0001
0010
M010
0100
0000
0001
0000
0010
0001
,
0200
0000
0000
0000
0000
0000
0000
0000
0000
0000
0000
0000
0301
0000
0000
0100
0000
0000
0010
0000
0000
0100
0000
0000
0002
0003
0000
0000
0000
0000
0100
0000
0000
0000
0000
0000
0020
0030
0000
0000
0000
0000
1000
0000
0000
0000
0000
0000
,
0002
0003
0000
0000
0000
0000
0010
0000
0000
0000
0000
0000
0200
0300
0000
0000
0000
0000
1000
0000
0000
0000
0000
0000
0001
0000
0000
0000
0000
0000
0100
0000
0000
0000
0000
0000
0020
0030
0000
0000
0000
0000
1000
0000
0000
0000
0000
0000
,
0002
0003
0000
0000
0000
0000
0010
0000
0000
0000
0000
0000
0200
0300
0000
0000
0000
0000
1000
0000
0000
0000
0000
0000
0002
0003
0000
0000
0000
0000
0100
0000
0000
0000
0000
0000
0010
0000
0000
0000
0000
0000
1000
0000
0000
0000
0000
0000
,
0001
0010
0001
0100
0001
1000
0010
1000
,
0100
0000
1000
0001
0010
0100
1000
0100
1000
0001
0100
0001
2010
0000
3001
0010
,
0001
1000
0100
0010
0001
0000
0100
0001
0100
0010
1000
0010
1000
0010
0100
0001
,
0010
0100
1000
0000
0002
0000
0013
0100
1000
0010
0100
0000
0110
0000
1010
0000
,
1000
0010
0100
0001
1000
0010
1000
0100
1000
0010
0100
0001
0100
0001
1000
0010
,
0100
0001
0010
0100
1000
0010
1000
0001
1000
0100
1000
0010
0100
0001
0010
0100
,
1000
0100
0010
0001
1000
0010
0100
0001
1000
0001
1000
0100
0010
0001
0100
0001
,
0010
0100
0010
0001
0020
0000
0030
0100
1000
0010
1000
0000
1010
0000
0101
0000
,
1000
0001
1000
0001
1000
0010
1000
0001
0100
0010
1000
0100
1000
0100
0010
0001
,
0100
0001
1000
0010
0100
0001
1000
0100
1000
0010
0100
0001
0100
0010
1000
0001
,
1000
0100
0010
0001
0010
0100
1000
0001
1000
0010
1000
0010
1000
0010
0100
0001
,
0010
0000
0101
0000
0100
0000
0010
1000
0010
0100
0010
0000
0101
0000
1010
0000
,
0100
0001
0100
0010
1000
0001
0010
0001
1000
0100
1000
0001
1000
0100
0010
0001
,
0010
0000
0000
0100
0000
0000
1000
0000
0000
0001
0000
0000
1000
0000
0000
0100
0000
0000
0010
0000
0000
0001
0000
0000
2000
3000
0000
0000
0000
0000
0010
0000
0000
0000
0000
0000
0200
0300
0000
0000
0000
0000
0001
0000
0000
0000
0000
0000
,
2000
3000
0000
0000
0000
0000
0010
0000
0000
0000
0000
0000
0200
0300
0000
0000
0000
0000
0001
0000
0000
0000
0000
0000
1000
0000
0000
0000
0000
0000
0010
0000
0000
0000
0000
0000
2000
3000
0000
0000
0000
0000
0001
0000
0000
0000
0000
0000
,
0200
0300
0000
0000
0000
0000
0010
0000
0000
0000
0000
0000
0200
0300
0000
0000
0000
0000
0001
0000
0000
0000
0000
0000
0200
0300
0000
0000
0000
0000
0001
0000
0000
0000
0000
0000
1000
0000
0000
0000
0000
0000
0100
0000
0000
0000
0000
0000
,
1000
0010
1000
0100
0010
0100
1000
0001
,
0100
0000
0010
0000
1000
0001
1000
0001
0010
0000
0100
0000
1100
0000
0010
0001
,
0100
0010
1000
0001
1000
0100
0010
0001
0010
0100
1000
0100
0010
0000
0100
0000
,
0100
0000
1100
0000
2000
0000
3010
0100
0010
1000
0100
0000
1100
0000
0010
0000
,
0001
1000
0001
0100
0010
1000
0010
1000
0100
0010
0001
0010
0001
0000
0100
0000
,
0010
0000
1000
0000
0100
0000
0010
0001
0010
0000
0100
0000
0110
0000
0010
0001
,
0100
0010
1000
0100
0010
0001
0100
0001
0100
0010
1000
0100
0010
0001
0010
0100
,
1000
0000
1001
0000
0002
0000
1003
0100
0010
0001
1000
0000
1001
0000
0001
0000
,
1000
0001
1000
0100
0010
0001
0100
0010
1000
0001
0100
0010
1000
0000
0001
0000
,
1000
0001
0100
0001
0010
0000
0001
1000
0010
1000
0100
0000
1100
0000
0100
0000
,
0010
0001
0100
0001
0010
0000
0000
0000
0001
0010
0001
0010
0001
0000
1000
0100
,
0010
0001
0010
0000
0002
0000
1003
0100
0010
0001
0010
0000
0100
0000
0010
0001
,
1000
0100
0010
0001
1000
0000
0100
0010
0001
0100
0001
0100
0001
0000
1000
0010
,
0100
0001
1000
0001
0200
0000
0310
1000
0100
0010
0001
0000
0100
0000
0001
0000
,
1000
0100
0010
0001
0010
0000
0001
1000
0100
0010
0100
1000
0001
0000
0100
0010
,
1000
0100
0020
0000
0130
0000
1000
0010
1000
0000
1100
0000
0110
0000
0010
0000
,
0001
0100
0010
1000
0100
0000
0010
0001
0100
0001
1000
0100
1000
0000
0010
1000
,
0100
0010
0001
0000
2000
0000
3010
1000
0010
0000
1000
0000
0100
0000
0010
0000
,
0001
0000
0100
0000
0010
0000
0100
0000
0001
0010
0001
0100
0010
1000
0001
0010
,
0100
1000
0100
0010
0001
0010
0001
0010
0001
0000
0100
0000
0010
0000
1000
0000
,
0100
0000
0010
0000
0001
0000
1000
0000
0100
1000
0001
1000
0010
0100
0010
1000
,
0001
0010
0100
1000
0010
0100
0001
0100
0010
0000
1000
0000
1200
0000
1300
0100
,
1000
0010
0100
0001
1000
0000
0000
0000
1000
0010
0000
0010
1000
0000
0010
0000
,
0100
0000
0001
0000
1000
0100
0010
0001
1000
0000
0001
0000
1001
0000
0001
0010
,
0001
0010
0001
1000
0010
0000
0100
0000
0001
1000
0000
0100
0010
0000
0001
0000
,
0100
0000
0001
0000
1000
0100
0010
0001
1000
0000
0001
0000
0011
0000
0100
0000
,
1000
0100
0010
0001
1000
0000
0100
0000
0010
0000
0000
0000
0100
0000
1000
0000
,
0100
0000
0010
0000
0001
0010
0100
1000
0001
0000
1000
0000
1010
0000
0010
1000
,
0001
1000
0010
1000
0001
0000
0000
0000
0100
0000
0000
0000
0100
0000
0001
0000
,
1000
0000
0100
0000
0010
0001
0100
0010
0100
0000
0001
0000
0010
0000
0100
0000
,
1000
0000
0001
0000
1000
0000
0100
0000
0010
0100
1000
0010
1000
0010
0100
0001
,
0010
0100
1000
0100
0010
0001
0010
0100
0010
0000
0100
0000
1000
0000
0010
0000
,
0100
0000
0001
0000
1000
0000
0100
0000
0010
0100
1000
0010
0100
0001
0100
0010
,
1000
0001
0010
0100
1000
0010
1000
0100
1000
0000
1000
0000
0010
0000
1000
0000
,
0000
0001
0010
0001
0100
0000
0000
0000
,
0000
0000
0000
0010
1010
1000
0010
0100
,
0000
0000
0001
0100
0010
0000
1000
0000
,
0001
2000
0000
0000
,
3000
0000
0000
0000
;

//--------------- dance-single - ----------------
#NOTES:
     dance-single:
     :
     Challenge:
     19:
     0,0,0,0,0:
0000
0000
0000
0000
,
0000
0001
1000
0100
,
0010
0001
0011
0010
,
0100
1000
0000
0001
,
0100
0010
1000
0100
,
0010
0000
0000
0000
0001
0000
0000
0000
1000
0000
0000
0000
1001
0000
0001
0010
,
0010
0000
1000
0100
01M0
0000
0000
0000
0001
0000
0010
0000
0011
0000
0000
0000
,
0100
1000
0001
1000
0100
0000
0010
0001
,
0011
0000
0010
0000
0001
0000
1000
0100
01M0
0001
1000
0000
0100
0000
1000
0010
,
0M20
0000
0000
0000
0031
0000
0000
0000
0001
0000
0100
0000
0010
0000
1000
0010
,
0M10
0000
0001
0100
01M0
0000
0000
0000
1100
0000
0001
0000
2000
0000
0010
0000
,
3010
1000
1001
0001
0010
0000
0100
1000
,
1100
0000
1000
0000
0100
0000
1000
0010
0M10
0001
1000
0000
0001
0000
1000
0001
,
0100
0100
1000
0001
0100
0100
1000
0001
1000
0000
0010
0000
0100
0000
0001
1000
,
0001
0000
1000
0100
1000
0000
0001
0000
0100
0000
0010
0000
1000
0000
0001
0000
,
1001
1000
0100
0010
0001
0100
0001
1000
,
1001
0000
0001
0000
0100
0000
0010
1000
0100
0010
0100
0000
1000
0000
0001
1000
,
0001
0010
0010
1000
0001
0100
0100
1000
0001
0000
0010
0000
0001
0000
1000
0100
,
0010
0000
0001
0100
0001
0000
1000
0000
0010
0000
0100
0000
0001
0000
0010
0000
,
1100
0100
1000
0001
0010
0001
0100
0010
,
1010
0000
1000
0000
0100
0000
0010
0001
0100
01M0
1000
0000
0001
0000
1000
0100
,
1000
0001
0100
0001
1000
0100
1000
0010
0100
0000
0010
0000
1010
0000
1000
0100
,
0010
0000
0001
0010
0100
0000
1000
0000
0100
0000
0010
0000
0001
0000
0010
0000
,
0011
0001
1001
1000
0100
0010
0100
1000
,
1001
0000
0001
0000
0010
0000
0001
1000
0010
001M
0100
0000
1000
0000
0010
1000
,
0200
0000
0000
0000
0000
0000
0000
0000
0000
0000
0000
0000
1300
0000
0000
0100
0000
0000
0010
0000
0000
0100
0000
0000
2000
3000
0000
0000
0000
0000
0100
0000
0000
0000
0000
0000
0020
0030
0000
0000
0000
0000
0001
0000
0000
0000
0000
0000
,
2000
3000
0000
0000
0000
0000
0010
0000
0000
0000
0000
0000
0200
0300
0000
0000
0000
0000
0001
0000
0000
0000
0000
0000
1000
0000
0000
0000
0000
0000
0100
0000
0000
0000
0000
0000
0020
0030
0000
0000
0000
0000
0001
0000
0000
0000
0000
0000
,
2000
3000
0000
0000
0000
0000
0010
0000
0000
0000
0000
0000
0200
0300
0000
0000
0000
0000
0001
0000
0000
0000
0000
0000
2000
3000
0000
0000
0000
0000
0100
0000
0000
0000
0000
0000
0010
0000
0000
0000
0000
0000
0001
0000
0000
0000
0000
0000
,
1000
0010
1000
0100
1000
0001
0010
0001
,
0100
0000
0001
1000
0010
0100
0001
0100
0001
1000
0100
1000
0012
0000
1003
0010
,
1000
0000
0001
0000
0100
0000
0010
1000
0010
0000
0000
0000
0100
0000
0001
0000
0100
0000
0010
0000
1000
0100
0010
0001
1000
0000
0010
0000
0100
0000
0001
0000
,
0010
0000
0100
0000
0011
0000
0000
0000
0200
0000
0000
0000
0310
0000
1000
0100
1000
0000
0010
0000
0100
0000
0000
0000
0110
0000
0000
0000
1010
0000
0000
0000
,
1000
0000
0010
0000
0100
0000
0001
1000
0001
0000
0010
0000
0001
0000
0100
0000
0001
0000
0010
0000
0100
1000
0100
0010
0001
0000
0100
0000
0001
0000
0010
0000
,
0100
0000
1000
0000
0010
0000
0100
0000
0001
0000
0010
0000
0001
0000
1000
0010
1000
0000
0100
0000
1000
0000
0010
0000
0100
0000
0001
0000
0010
0000
0100
0000
,
1000
0000
0100
0000
0010
0000
0001
0100
0001
0000
0010
0000
0100
0000
1000
0000
0001
0000
1000
0000
0001
0010
0100
1000
0001
0000
0010
0000
0100
0000
1000
0000
,
0010
0000
0100
0000
0010
0000
1000
0000
0020
0000
0000
0000
0030
0000
0100
0001
0100
0000
0010
0000
1000
0000
0000
0000
1010
0000
0000
0000
0101
0000
0000
0000
,
1000
0000
0001
0000
1000
0000
0001
0100
0001
0000
0010
0000
0001
0000
1000
0000
0100
0000
0010
0000
0001
0010
0100
1000
0001
0000
0100
0000
0010
0000
1000
0000
,
0100
0000
1000
0000
0001
0000
0010
0000
0100
0000
1000
0000
0001
0000
1000
0100
1000
0000
0010
0000
0100
0000
0001
0000
0100
0000
0010
0000
1000
0000
0001
0000
,
1000
0000
0100
0000
0010
0000
0001
0100
0010
0000
1000
0000
0010
0000
1000
0000
0001
0000
0010
0000
0001
0100
0010
1000
0001
0000
0010
0000
0100
0000
1000
0000
,
0001
0000
0000
0000
0101
0000
0000
0000
0100
0000
0000
0000
0010
0000
0100
0001
1000
0000
0010
0000
0100
0000
0000
0000
0101
0000
0000
0000
1010
0000
0000
0000
,
0100
0000
0001
0000
0100
0000
0010
1000
0010
0000
1000
0000
0001
0000
0010
0000
0001
0000
0100
0000
0001
0010
0100
1000
0001
0000
0100
0000
0010
0000
1000
0000
,
0010
0000
0000
0000
0000
0000
0100
0000
0000
0000
0000
0000
0001
0000
0000
0000
0000
0000
1000
0000
0000
0000
0000
0000
0001
0000
0000
0000
0000
0000
0100
0000
0000
0000
0000
0000
0010
0000
0000
0000
0000
0000
1000
0000
0000
0001
0000
0000
2000
0000
3000
0000
0000
0000
0000
0000
0000
0000
0000
0000
0010
0000
0000
0000
0000
0000
0000
0000
0000
0000
0000
0000
0200
0000
0300
0000
0000
0000
0000
0000
0000
0000
0000
0000
0001
0000
0000
0000
0000
0000
0000
0000
0000
0000
0000
0000
,
2000
3000
0000
0000
0000
0000
0010
0000
0000
0000
0000
0000
0200
0300
0000
0000
0000
0000
0001
0000
0000
0000
0000
0000
1000
0000
0000
0000
0000
0000
0010
0000
0000
0000
0000
0000
2000
3000
0000
0000
0000
0000
0001
0000
0000
0000
0000
0000
,
0200
0300
0000
0000
0000
0000
0010
0000
0000
0000
0000
0000
0200
0300
0000
0000
0000
0000
0001
0000
0000
0000
0000
0000
0200
0300
0000
0000
0000
0000
0001
0000
0000
0000
0000
0000
1000
0000
0000
0000
0000
0000
0100
0000
0000
0000
0000
0000
,
1000
0010
1000
0100
0010
0100
1000
0001
,
0100
0000
0010
0000
1000
0001
1000
0001
0010
0000
0100
0000
1100
0000
0010
0001
,
0100
0000
0010
0000
1000
0000
0001
0010
0001
0000
0100
0000
0010
0000
1000
0000
0010
0000
0100
0000
0001
0010
0100
1000
0001
0000
0000
0000
1000
0000
0000
0000
,
0100
0000
0000
0000
1100
0000
0000
0000
2000
0000
0000
0000
3010
0000
0100
0001
1000
0000
0001
0000
1000
0000
0000
0000
1100
0000
0000
0000
0010
0000
0000
0000
,
0001
0000
1000
0000
0001
0000
0100
0010
0100
0000
0010
0000
1000
0000
0010
0000
0100
0000
0010
0000
1000
0100
0010
0001
1000
0000
0000
0000
0100
0000
0000
0000
,
0010
0000
0000
0000
0001
0000
0000
0000
0100
0000
0000
0000
0010
0000
1000
0001
0010
0000
0000
0000
0100
0000
0000
0000
0110
0000
0000
0000
0010
0000
0001
0000
,
0100
0000
0010
0000
1000
0000
0100
0010
0100
0000
0010
0000
0100
0000
1000
0000
0100
0000
0010
0000
0001
0100
0010
1000
0001
0000
0100
0000
0010
0000
1000
0000
,
0001
0000
0000
0000
1001
0000
0000
0000
0020
0000
0000
0000
0130
0000
1000
0001
0100
0000
0010
0000
1000
0000
0000
0000
1001
0000
0000
0000
0001
0000
0000
0000
,
1000
0000
0001
0000
1000
0000
0100
0010
0100
0000
0010
0000
0001
0000
0100
0000
0010
0000
1000
0000
0001
0100
0010
1000
0001
0000
0000
0000
0001
0000
0000
0000
,
1000
0000
0001
0000
0100
0000
0001
0000
0010
0000
0000
0000
0001
0000
1000
0100
1000
0000
0010
0000
1000
0000
0000
0000
1100
0000
0000
0000
0100
0000
0000
0000
,
0010
0000
0001
0000
0100
0000
0001
0010
0001
0000
0000
0000
0000
0000
0000
0000
1000
0000
0010
0000
1000
0100
0010
0001
1000
0000
0000
0000
0001
0000
0100
0000
,
0010
0000
1000
0000
0011
0000
0000
0000
2000
0000
0000
0000
3001
0000
1000
0100
0010
0000
0001
0000
0010
0000
0000
0000
0011
0000
0000
0000
0100
0000
1000
0000
,
0001
0000
0100
0000
0010
0000
1000
0001
1000
0000
0000
0000
0100
0000
0010
0000
1000
0000
0100
0000
1000
0010
0100
0001
1000
0000
0000
0000
0001
0000
0010
0000
,
0100
0000
1000
0000
0001
0000
1000
0000
0200
0000
0000
0000
0310
0000
0001
0010
0001
0000
0100
0000
0010
0000
1000
0000
0100
0000
0000
0000
1000
0000
0000
0000
,
0001
0000
0100
0000
0010
0000
0100
0001
0100
0000
0000
0000
0010
0000
1000
0000
0100
0000
0010
0000
0100
1000
0001
0100
0001
0000
0000
0000
0100
0000
0010
0000
,
1000
0000
0100
0000
0020
0000
0000
0000
0130
0000
0000
0000
1000
0000
0010
1000
0001
0000
0000
0000
1100
0000
0000
0000
0110
0000
0000
0000
0010
0000
0000
0000
,
0001
0000
0100
0000
0010
0000
1000
0100
1000
0000
0000
0000
0010
0000
0001
0000
0100
0000
0001
0000
1000
0010
0100
0001
1000
0000
0000
0000
0010
0000
0001
0000
,
0100
0000
0010
0000
1000
0000
0000
0000
0020
0000
0000
0000
1030
0000
0010
0100
0010
0000
0000
0000
1000
0000
0000
0000
0100
0000
0000
0000
0010
0000
0000
0000
,
0001
0000
0000
0000
0100
0000
0000
0000
0010
0000
0000
0000
0100
0000
0000
0000
0001
0100
0010
0000
1000
0000
0100
0000
0010
0000
0001
0000
1000
0000
0010
0000
,
0100
0000
0001
0000
1000
0100
0010
0000
0001
0100
0010
0000
1000
0100
0010
0000
0001
0000
0000
0000
0100
0000
0000
0000
0010
0000
0000
0000
1000
0000
0000
0000
,
0100
0000
0000
0000
0010
0000
0000
0000
0001
0000
0000
0000
1000
0000
0000
0000
0100
0010
0001
0000
1000
0000
0001
0000
0010
0000
0100
0000
0010
0000
0001
0000
,
1000
0000
0010
0000
0100
0001
0100
0000
0010
1000
0001
0000
1000
0010
0100
0000
0001
0000
0000
0000
1000
0000
0000
0000
1200
0000
0000
0000
0310
0000
0100
0000
,
1000
0010
0100
0001
1000
0000
0100
0010
0100
0000
0000
0000
0000
0000
0000
0000
1000
0000
0010
0000
0000
0000
0010
0000
1000
0000
0000
0000
0010
0000
0000
0000
,
0100
0000
0000
0000
0001
0000
0000
0000
1000
0100
0010
0001
1000
0010
0100
0001
1000
0000
0000
0000
0001
0000
0000
0000
1001
0000
0000
0000
0001
0000
0010
0000
,
0001
1000
0010
0100
0001
0000
1000
0100
0010
0000
0000
0000
0001
0000
0000
0000
0100
0000
0010
0000
0000
0000
1000
0000
0100
0000
0000
0000
0010
0000
0000
0000
,
0001
0000
0000
0000
0010
0000
0000
0000
0001
0100
0010
1000
0001
0010
0100
1000
0010
0000
0000
0000
1000
0000
0000
0000
1100
0000
0000
0000
0010
0000
0000
0000
,
0001
0100
0010
1000
0001
0000
0010
0100
1000
0000
0000
0000
0010
0000
0000
0000
0100
0000
0000
0000
0000
0000
0000
0000
0100
0000
0000
0000
0001
0000
0000
0000
,
0010
0000
0000
0000
0100
0000
0000
0000
1000
0100
0010
0001
1000
0010
0100
0001
1000
0000
0000
0000
0001
0000
0000
0000
0101
0000
0000
0000
0100
0000
0001
0000
,
1000
0010
0100
0001
1000
0000
0100
0010
0001
0000
0000
0000
0000
0000
0000
0000
0010
0000
0000
0000
0000
0000
0000
0000
0010
0000
0000
0000
1000
0000
0000
0000
,
0001
0000
0000
0000
0010
0000
0000
0000
0100
1000
0010
0100
0001
0100
0010
1000
0100
0000
0000
0000
0010
0000
0000
0000
0100
0000
0000
0000
0010
0000
0000
0000
,
0001
0000
0000
0000
1000
0000
0000
0000
0001
0000
0000
0000
0010
0000
0000
0000
0100
0010
0001
0000
0010
0000
0100
0000
1000
0000
0100
0000
0010
0000
0001
0000
,
0100
0000
0010
0000
1000
0100
0010
0000
0001
0100
0001
0000
1000
0010
1000
0000
0100
0000
0000
0000
0010
0000
0000
0000
0001
0000
0000
0000
0100
0000
0000
0000
,
0010
0000
0000
0000
1000
0000
0000
0000
0001
0000
0000
0000
0010
0000
0000
0000
0100
1000
0100
0000
0010
0000
0001
0000
0100
0000
0010
0000
1000
0000
0010
0000
,
0100
0000
0001
0000
1000
0100
0010
0000
0001
1000
0100
0000
0010
0001
0010
0000
0001
0000
0000
0000
0001
0000
0000
0000
0100
0000
0000
0000
0001
0000
0000
0000
,
0000
1000
0100
1000
0010
0000
0000
0000
,
0000
0000
0000
0100
0101
0001
0100
0010
,
0000
0000
1000
0010
0100
0000
0001
0000
,
1000
0002
0000
0000
,
0003
0000
0000
0000
;
