#TITLE:My Immortal;
#SUBTITLE:;
#ARTIST:Evanescence;
#TITLETRANSLIT:;
#SUBTITLETRANSLIT:;
#ARTISTTRANSLIT:;
#GENRE:;
#CREDIT:;
#MUSIC:My Immortal.ogg;
#BANNER:;
#BACKGROUND:;
#CDTITLE:;
#SAMPLESTART:57.092;
#SAMPLELENGTH:12.000;
#SELECTABLE:YES;
#OFFSET:0.404;
#BPMS:0.000=74.995
,0.688=74.980
,77.000=74.000
,81.000=78.000
,82.000=74.981
,100.000=74.500
,117.000=149.990
,148.000=149.771
,204.000=149.990
,205.000=140.000
,211.000=75.000
,212.000=68.000
,216.000=73.000
,220.000=70.000
;
#STOPS:;
#BGCHANGES:;
#FGCHANGES:;

//--------------- dance-single - ----------------
#NOTES:
     dance-single:
     :
     Beginner:
     3:
     0,0,0,0,0:
0000
1000
0000
0001
,
0000
1000
0000
0001
,
0000
0100
0000
0010
,
0000
1000
0000
0001
,
0000
0100
0000
0010
,
0000
1000
0000
0001
,
0000
0100
0000
0010
,
0000
1000
0000
0001
,
0000
1001
0000
0001
,
0000
0100
0000
0001
,
0000
1000
0000
0010
,
0000
0000
1000
0000
0000
0001
0000
0000
,
0000
0000
1001
0000
0000
1000
0000
0000
,
0000
0000
0001
0000
0000
0100
0000
0000
,
0000
0010
0000
0000
0000
1000
0000
0000
,
0000
0000
0100
0000
0000
0010
0000
0000
,
0000
0100
0000
0000
0000
1000
0000
0000
,
0000
0000
0010
0000
0000
1000
0000
0000
,
0000
0001
0000
0000
0000
1000
0000
0000
,
0000
0002
0000
0003
,
0000
0000
0000
1000
,
0000
0010
0000
0000
,
0001
0001
0000
0000
,
0000
0200
0300
0000
,
0010
0010
0000
0000
,
0000
2000
3000
0000
,
0000
0020
0000
0030
,
0000
0200
0000
0300
,
0000
0020
0000
0030
,
0000
1001
0000
0000
,
1001
0000
0000
0100
,
0000
1001
0000
0000
,
1001
0000
0000
0100
,
0000
1001
0000
0000
,
1001
0000
0000
0010
,
0000
0110
0000
0000
,
1001
0000
0000
1000
,
0000
1001
0000
0000
,
1001
0000
1000
0000
,
0000
1001
0000
0000
,
1001
0000
0000
0100
,
0000
1001
0000
0000
,
0110
0000
0000
0001
,
0000
1001
0000
0000
,
0110
0000
0000
0001
,
0000
1001
0000
0000
,
0110
0000
1000
1000
,
0000
1001
0000
0000
,
0110
0000
0000
0001
,
0000
1001
0000
0000
,
1001
0000
0000
0010
,
0000
2002
0000
0000
,
0000
0000
3003
0000
;

//--------------- dance-single - ----------------
#NOTES:
     dance-single:
     :
     Easy:
     4:
     0,0,0,0,0:
0000
1000
0010
0100
,
0001
0010
0100
2000
,
3000
0010
0100
0001
,
1000
0010
0100
0002
,
0003
1000
0010
0100
,
0001
0010
0001
0200
,
0300
0010
1000
0001
,
0100
0010
1000
0001
,
1000
0000
1001
0000
0000
0001
0002
0000
,
0203
0000
0310
0000
0000
1000
0200
0000
,
2300
0000
3100
0000
0000
0010
0010
0000
,
0100
0000
1000
0000
0001
0100
0000
0010
,
0000
1000
0020
0000
2030
0000
0000
0000
,
0000
3001
0100
0010
,
1000
1001
0002
0000
,
0000
0013
0100
1000
,
0010
0110
2000
3010
,
0100
0010
1000
0010
,
0100
0001
1000
0100
,
0010
0200
0000
0300
,
0010
1000
0000
0010
,
0000
0000
2000
0000
0000
3001
0000
0000
,
1000
0000
0002
0000
0000
1003
0000
0000
,
0001
0000
0200
0000
0000
0310
0000
0000
,
2000
0020
3030
1010
,
0000
0000
2000
0000
0000
3001
0000
0010
,
0000
0200
0300
1001
,
1001
0000
0002
0000
0000
0103
0000
0000
,
0010
0000
2000
0000
0000
3001
0000
0000
,
1001
1001
0000
0001
,
0101
0000
0000
0001
,
1000
1001
0000
1000
,
1001
0000
0000
0001
,
0100
0110
0000
0001
,
1001
0000
0000
1000
,
0001
1001
0000
0001
,
0100
0000
0010
1000
,
0001
1001
0000
1000
,
1001
0000
0001
0001
,
0000
1001
0000
0001
,
1001
0000
1000
0010
,
0100
0110
0000
0010
,
1001
0000
0001
0100
,
0000
1010
0000
1000
,
1001
0000
0001
0100
,
0010
0010
0000
1000
,
1001
0000
0001
1000
,
0000
1010
0000
0010
,
0110
0000
0100
0001
,
0100
0110
0000
0010
,
1010
0000
1000
0010
,
0010
2002
0000
0000
,
0000
0000
3003
0011
,
1100
0000
0000
0000
;

//--------------- dance-single - ----------------
#NOTES:
     dance-single:
     :
     Medium:
     7:
     0,0,0,0,0:
0000
0000
1000
0100
1000
0001
0100
0010
,
1000
0100
0010
0100
1000
0001
0200
0000
,
0300
0000
0010
1000
0100
1000
0001
0100
,
0010
1000
0100
0010
0100
1000
0020
0000
,
0030
0000
0100
0001
0010
0001
0100
0010
,
1000
0100
0010
0001
0100
0010
2000
0000
,
3000
0000
0001
1000
0100
1000
0010
0100
,
0001
0100
0010
1000
0100
0010
0002
0000
,
0003
0100
0010
0100
0001
1000
0100
0010
,
0100
1000
0010
0100
0001
1000
0100
0010
,
0100
1000
0010
0100
0001
0010
0100
1000
,
0010
0100
0002
0000
1003
2000
0000
3020
,
0000
1030
1010
0000
1000
0002
0000
0203
,
0000
0000
0310
1000
0100
2000
0000
3001
,
0100
0010
1000
0000
0001
0200
0000
0320
,
0000
0030
1000
0100
0010
0001
0000
0000
,
0100
0010
0100
0000
0010
2000
0000
3020
,
0000
0000
0130
0000
0001
2000
0000
3010
,
0100
0001
0020
0000
0130
2000
0000
3002
,
0000
2003
0000
3000
,
0001
0100
0010
0000
0000
0000
1000
0000
,
0000
0000
1001
0001
0100
0010
0010
1000
,
0010
0100
0001
0001
0010
0100
2000
0000
,
3010
0100
0002
0000
1003
0200
0000
0000
,
0310
0000
0001
0100
0010
1000
0100
0000
,
1100
0000
1100
0000
0000
0020
0000
0130
,
0001
1000
0002
0000
0003
0100
0101
0000
,
1010
0000
2000
0000
0000
3001
0000
0000
,
0020
0000
0230
0000
0300
0010
0000
0000
,
1000
1100
2001
0000
0000
0000
3001
0000
,
0202
0303
0010
0110
,
1000
2020
3030
1000
,
2002
3003
0001
0101
,
0100
0220
0330
0010
,
2020
3030
1000
1001
,
0001
2020
3030
0100
,
0110
0000
0000
1000
0100
0010
0001
0010
,
0100
1000
0002
0000
0000
0000
1003
0000
,
2001
0000
3001
0202
,
0303
0110
0010
1000
,
2020
3030
0001
0101
,
0010
2020
3030
1000
,
2002
3003
0001
0001
,
0010
0101
0010
1000
,
2020
3030
0100
0101
,
0001
1000
2002
0000
3003
0000
0001
0100
,
0202
0303
0010
2020
,
3030
1001
0001
0100
,
2002
3003
1000
0001
,
1000
1000
0010
0000
0000
0000
0100
0000
,
0101
0000
0001
1001
,
0100
2002
0000
0000
,
0000
0000
0000
0000
3003
0000
0100
0100
,
0100
0000
0000
0000
;

//--------------- dance-single - ----------------
#NOTES:
     dance-single:
     :
     Hard:
     8:
     0,0,0,0,0:
0000
0000
1000
0100
0001
0100
1000
0010
,
0001
0010
1000
0100
0010
0001
2000
0000
,
3000
0000
1000
0100
0010
0100
0001
0100
,
0010
0100
1000
0010
0100
0001
0020
0000
,
0030
0000
0001
0100
0010
1000
0100
1000
,
0100
0000
1000
0000
0010
0000
0100
0000
0001
0000
0100
0000
0020
0000
0000
0100
,
0000
0130
0010
1000
0100
1000
0010
1000
,
0001
0100
0010
1000
0100
0010
0002
0000
,
0003
0000
1000
0010
1000
0000
0000
0000
0000
0000
0010
0000
1000
0000
0100
0000
,
1000
0000
0001
0010
0200
0000
0000
1300
0000
0000
0010
0000
0100
0000
0001
0000
,
1000
0000
0100
1000
0001
0000
0100
0000
0010
0000
1000
0000
0100
0000
0010
0000
,
0001
1000
0002
0000
1003
2000
0000
3002
,
0000
0000
1003
0100
1000
0000
0001
0100
0001
0000
2000
0000
0000
0000
3002
0000
,
0000
0000
1003
0001
0100
0002
0000
1003
,
0100
0000
0010
0000
0011
0000
0000
0001
0100
0000
0010
0000
1000
0000
0100
0000
,
0010
0001
0010
0010
0100
0020
0000
0031
,
0100
0010
0100
0010
0100
0000
0000
0001
0100
0000
0020
0000
0000
0000
0230
0000
,
0000
0000
0300
0000
0001
0000
0000
0100
0010
0000
1000
0000
0000
0000
0001
0000
,
1000
0100
1100
0000
0010
0002
0000
0203
,
0000
0310
0000
0000
,
1000
0001
0100
0001
1000
0000
0000
0000
0000
0000
0000
0000
0002
0000
0000
0000
,
0003
0000
0100
0001
0200
0000
0010
0000
0310
0000
2000
0000
0000
0000
3000
0000
,
1000
0000
0001
0010
0002
0000
0000
0000
0103
0000
0100
0000
0010
0000
1000
0010
,
2000
0000
3200
0000
0000
0320
0000
0000
,
0130
0000
0000
0000
1000
0000
0000
0000
0001
0010
0100
1000
0001
0000
0000
0000
,
1001
1000
2010
0000
0000
3020
0000
0230
,
0000
0000
0301
1000
0002
0000
0000
0100
0000
0000
0103
0000
0110
0000
0000
0000
,
1010
0000
2000
0000
0000
3002
0000
0000
,
2003
0000
3200
0000
0000
2300
0000
0000
,
3001
0100
0010
0100
0002
0000
0000
0000
0003
0000
1000
0000
0100
0000
0010
0000
,
0001
0000
0000
0100
0010
0000
1010
0000
,
0100
0001
2000
0000
3000
0010
0100
0010
,
2000
0000
3010
0000
0010
0000
0100
0001
,
0010
0001
0200
0000
0000
0310
1000
0100
,
0020
0000
0030
0000
0001
0100
0010
0000
,
1000
0100
1000
0000
0000
0001
0200
0000
,
0320
0000
0030
1000
0100
0001
0100
0010
,
0001
0100
0020
0000
0030
1000
0100
1000
,
0020
0000
0030
0100
0001
0000
0201
0001
,
0000
0300
0101
0000
0010
1000
0100
1000
,
0002
0000
0003
0100
0002
0000
1003
0100
,
1000
0100
0020
0000
0030
0001
0010
0100
,
2000
0000
3000
0010
0200
0000
0301
0010
,
0001
0100
0020
0000
1030
0010
1000
0001
,
0200
0000
0300
0010
1000
0000
0100
0000
,
0010
0001
0011
0000
0000
0001
0100
0010
,
2000
0000
3000
0001
0100
0000
0201
0001
,
0300
0000
0220
0000
0330
0010
0100
0001
,
0200
0000
0300
0010
1000
0000
0100
1000
,
0001
0001
2000
0000
3000
0100
1000
0010
,
0100
0000
0000
0001
0100
0100
0010
1000
,
0010
0010
2002
0000
0000
0000
0000
0000
,
0000
0000
0000
0000
0000
0000
0000
0000
3003
0000
0000
0000
1000
0001
0010
0001
,
0100
0000
0000
0000
;

//--------------- dance-single - ----------------
#NOTES:
     dance-single:
     :
     Challenge:
     12:
     0.374,0.379,0.155,0.283,0.148:
0000
0000
1000
0010
1000
0001
0100
0010
,
1000
0100
0010
0001
0100
0010
2000
0000
,
3000
0000
0001
0100
0010
1000
0001
0010
,
0100
0000
1000
0001
1000
0000
0100
0000
0010
0000
0001
0010
0100
0000
0000
0000
,
0000
0000
0000
0000
1000
0000
0100
0000
0010
0000
0001
0010
0100
0000
1000
0000
,
0010
0000
0100
0000
0001
0000
0100
0000
0010
1000
0100
0000
0010
0000
0000
0010
,
0000
0000
0100
1000
0001
0000
0001
0000
0100
0000
0010
0000
1000
0000
0010
1000
,
0010
0000
1000
0000
0001
0000
0100
0000
0010
0000
1000
0000
0001
0100
0000
0010
,
0000
0000
1000
0001
1000
0100
0010
0001
0010
0100
2000
0000
3002
0000
0203
0000
,
0320
0000
1030
0010
1000
0001
0100
0010
1000
0001
0100
0000
0020
0000
2030
0000
,
3002
0000
1003
0100
0001
0100
0010
0001
1000
0100
0010
0000
0002
0000
0203
0000
,
0320
1030
2010
0000
3001
0002
0000
0203
,
0000
0000
0310
1000
0010
0100
0001
0010
0001
0000
0020
0000
0000
0000
0230
0000
,
0000
0000
0000
0000
0310
0000
1000
0000
0010
0000
0200
0000
0000
0000
0301
0010
,
0001
0010
0001
1000
0001
0000
0000
1000
0010
0000
2000
0000
3010
0000
0200
0000
,
0301
0010
0100
1000
0002
0000
0103
0010
0100
0000
0002
0000
0000
0000
0000
0000
,
1003
0100
0010
0001
0010
0100
1000
0001
0010
0000
0002
0000
0000
0000
0203
0000
,
0310
1000
0100
1000
0020
0000
0000
0130
0001
0100
0002
0000
0000
0000
0103
0000
,
0010
1000
0010
1000
0010
0100
0001
0010
0100
1000
0002
0000
0000
0000
0023
0000
,
0031
0100
0010
0100
0002
0000
0000
0000
0000
0000
0000
0000
0000
0000
0000
0000
,
1003
0100
0010
0001
1000
0000
0000
0000
0000
0000
0000
0000
0200
0000
0000
0000
,
0000
0000
0310
1000
0010
0100
0001
0010
0001
0100
0001
0010
0100
0000
0000
0000
,
2000
0000
0000
3001
0200
0000
0000
0000
0310
0000
2000
0000
3001
0100
0010
0100
,
0002
0000
0000
0000
0023
0000
0000
0000
0031
0100
0010
0000
2000
0000
3000
1000
,
0001
0010
0001
0100
0002
0000
0000
0000
1003
0001
1000
0001
1000
0000
0000
0100
,
0010
0000
0001
0000
2000
0000
0000
3010
0000
0000
0200
0000
0000
0000
0320
0000
,
0000
0000
1030
0001
0200
0000
0000
0010
0300
0000
1000
0001
0020
0000
0000
0000
,
0130
0000
0020
0000
0000
0032
0000
0000
,
2003
0000
0000
0000
3200
0000
0000
0000
0310
0000
0002
0000
0003
0110
0100
0001
,
0010
0100
1000
0001
1001
0000
0000
0000
0000
0000
0010
0000
1000
0000
0010
0000
,
0202
0000
0000
0000
0303
0000
0010
1000
,
0010
0100
0101
0000
0000
0001
1000
0001
,
2002
0000
0000
0000
3003
0000
0010
1000
,
0010
0100
0101
0000
0000
0001
0010
0001
,
2002
0000
3003
0010
,
1000
0010
0110
0000
0000
0001
0010
0001
,
0011
0000
0000
0000
0000
0000
1000
0100
0010
0001
0100
0010
1000
0100
0010
0100
,
1000
0010
0100
0001
2000
0000
0000
0000
0000
0000
3001
0000
0100
0000
0010
0000
,
0210
0000
0000
0301
0010
0000
0011
0001
,
0000
0000
1001
0000
1000
0100
0001
0100
,
2000
0000
0000
3001
0100
0010
1000
0100
,
0010
0001
0011
0000
0000
0100
1000
0010
,
0210
0000
0301
0010
0001
0000
1002
1000
,
0000
0000
1003
0000
0100
0010
0001
0010
,
0011
0000
0001
0100
0010
1000
0100
0010
,
0001
0000
0100
0000
0110
0000
0000
0000
0000
0000
1000
0001
1000
0000
0010
0000
,
1010
0000
0100
0001
0010
0000
0001
0001
,
0100
0010
1010
0000
1000
0100
0010
0001
,
0012
0000
0103
0010
1000
0100
1000
0001
,
0010
0010
0011
0000
0000
0001
0100
0010
,
0110
0000
1000
0100
0100
0010
0001
0001
,
1000
0001
2002
0000
0000
0000
0000
0000
,
0000
0000
0000
0000
0000
0000
0000
0000
3003
0000
0000
0000
1000
0010
0100
0001
,
0100
0000
0000
0000
;
