#TITLE:Mood;
#SUBTITLE:;
#ARTIST:24kGoldn feat. Iann Dior;
#TITLETRANSLIT:;
#SUBTITLETRANSLIT:;
#ARTISTTRANSLIT:;
#GENRE:;
#CREDIT:;
#MUSIC:Mood.ogg;
#BANNER:Mood-bn.png;
#BACKGROUND:Mood-bg.png;
#CDTITLE:;
#SAMPLESTART:0.000;
#SAMPLELENGTH:0.000;
#SELECTABLE:YES;
#OFFSET:0.310;
#BPMS:0.000=91.000;
#STOPS:;
#BGCHANGES:;
#FGCHANGES:;

//--------------- dance-single - ----------------
#NOTES:
     dance-single:
     :
     Beginner:
     3:
     0,0,0,0,0:
0000
1000
0000
0000
,
0000
0001
0000
0000
,
0000
0100
0000
0000
,
0000
0001
0000
0000
,
1000
1000
1000
0000
,
0001
0001
0001
0000
,
0100
0100
0100
0000
,
0010
0010
0010
0000
,
1000
1000
0000
0001
,
0001
0000
0000
1000
,
0000
0001
0000
1000
,
1000
1000
0000
0001
,
0000
1001
0000
1000
,
0000
0001
0000
0100
,
0000
0010
0000
1000
,
0000
0001
0000
0100
,
0000
0001
0000
1000
,
0000
0001
0000
0100
,
0000
0010
0000
1000
,
0000
0100
0000
0010
,
0000
0001
0001
0000
,
1000
0000
0010
0000
,
0100
0000
0001
0000
,
1000
0000
0100
0000
,
0001
0001
0001
0000
,
1000
1000
1000
0000
,
0010
0010
0010
0000
,
0100
0100
0100
0000
,
0001
0001
0000
1000
,
0000
0010
0010
0010
,
0000
0100
0000
0001
,
0001
0001
0000
1000
,
0000
0001
0001
0001
,
0000
1000
1000
0000
,
0000
0001
0001
0000
,
0000
0100
0100
0000
,
0000
0010
0010
0010
,
0000
0100
0100
0100
,
0000
0001
0001
0001
,
0000
1000
1000
0000
,
0000
0001
0001
0000
,
0100
0000
0010
0000
,
0100
0000
0001
0000
,
1000
0000
0001
0000
,
0000
1001
0000
0100
,
0000
0001
0000
1000
,
0000
0100
0100
0100
,
0000
0010
0010
0000
,
0100
0100
0000
0001
,
0000
1000
1000
0000
,
0001
0001
0000
1000
,
0000
0010
0010
0010
;

//--------------- dance-single - Braeden ----------------
#NOTES:
     dance-single:
     Braeden:
     Easy:
     4:
     0,0,0,0,0:
0000
0000
0000
0000
,
0000
0000
0000
0000
,
0000
1000
0001
0000
,
0000
0100
0010
0000
,
1000
1001
0001
0100
,
0010
1000
0100
1000
,
0001
0100
0010
1000
,
0100
0010
0100
1000
,
0001
1001
1000
0001
,
0100
0010
1000
0100
,
0010
0100
1000
0001
,
0100
0010
1000
0001
,
0100
1001
0001
0100
,
0010
1000
1000
0001
,
0100
0010
1000
0100
,
1000
0001
0100
0001
,
1000
0001
1000
0001
,
0100
0010
1000
0100
,
0010
0100
1000
0001
,
0100
0010
1000
0001
,
0100
0020
0000
0030
,
0000
0200
0000
0300
,
0000
0000
0002
0000
0000
0003
0000
0000
,
0000
0000
2000
0000
0000
3000
0000
0000
,
0001
1001
1000
0010
,
0100
0001
1000
0100
,
0010
0100
0010
0001
,
0100
0010
0010
0010
,
1000
1001
0001
0100
,
0010
1000
0100
0010
,
0100
1000
0001
0100
,
0010
1000
0100
0010
,
0001
1000
0001
1000
,
1001
0001
0100
0010
,
1001
1000
0001
0100
,
1001
1000
0010
0100
,
0000
1000
0010
0100
,
0001
1000
0001
0100
,
0100
0010
1000
0001
,
1000
0010
0100
0001
,
1000
0000
0002
0000
0000
0003
0000
0000
,
0000
0000
2000
0000
0000
3000
0000
0000
,
0000
0000
0200
0000
0000
0300
0000
0000
,
0000
0000
2000
0000
0000
3000
0000
0000
,
0001
1000
1000
0010
,
0100
0001
1000
0100
,
0010
0001
0100
0010
,
1000
0001
0100
0010
,
1000
1001
0001
0100
,
0010
1000
0100
0010
,
0100
0010
0001
0100
,
0010
0100
0001
0010
,
0100
0000
0000
0000
;

//--------------- dance-single - Braeden ----------------
#NOTES:
     dance-single:
     Braeden:
     Medium:
     8:
     0,0,0,0,0:
0000
0000
0000
0000
,
0000
0000
0000
0000
,
0000
0000
0001
1000
0001
0200
0000
0310
,
0000
0000
0100
0001
0100
0020
0000
0130
,
0001
1000
0100
0000
0010
0001
0100
0010
,
1000
0000
0001
0100
0010
1000
0100
0000
,
0010
0001
0100
0000
0010
1000
0100
1000
,
0001
0000
0100
0010
0100
0001
1000
0100
,
0010
0001
2000
0000
3010
1000
0001
0100
,
0001
0000
1000
0001
0100
0010
2000
0000
,
3001
1000
0001
0000
1000
0010
0100
0001
,
2000
0000
3001
0001
1000
1000
0001
0010
,
0001
1000
0001
0000
0010
0001
0010
0001
,
1000
0000
0010
0100
0001
0100
0010
0000
,
1000
0000
0001
0000
1000
0000
0000
0000
0010
0000
1000
0000
0010
0000
0000
1000
,
0000
0000
0000
0000
0001
0000
1000
0000
0001
0000
0000
1000
0000
0000
0000
0000
,
1001
0000
0000
0000
0001
0000
1000
0000
0010
0000
0000
0100
0000
0000
0010
0000
,
0000
0000
1000
0000
0100
0000
0010
0000
0001
0000
0000
0100
0000
0000
0001
0000
,
0000
0000
1000
0000
0001
0000
0100
0000
0010
0000
0000
1000
0000
0000
0001
0000
,
0000
0000
1000
0000
0100
0000
1000
0000
0001
0000
0000
0100
0000
0000
0010
0000
,
0000
1000
0001
0100
0010
2000
0000
3001
,
0100
0020
0000
1030
0001
2000
0000
3001
,
1000
0001
0100
0001
0100
0002
0000
1003
,
0010
0200
0000
0301
1000
0020
0000
1030
,
0001
0010
0001
0000
0100
0010
1000
0001
,
0100
0000
0010
1000
0100
1000
0200
0000
,
1300
0010
0100
0000
0001
1000
0010
1000
,
0001
0000
1000
1000
0001
0001
1000
0010
,
1000
0001
1000
0000
0010
0100
0001
0010
,
0001
0000
1000
0100
0010
0001
0200
0000
,
0310
0100
0010
0000
0100
0001
0010
0001
,
0100
0000
0010
1000
0100
1000
0001
0000
,
0101
0000
0100
0010
1000
0000
0100
0010
,
0000
0001
0100
0010
1000
0000
0001
0100
,
0000
0010
1000
0100
0010
0001
0100
0010
,
0000
1000
0100
1000
0001
0100
0010
1000
,
0000
0001
0100
0001
0100
0010
1000
0100
,
0010
0001
0100
0010
0100
0001
0010
0001
,
0100
0010
1000
0100
1000
0001
0100
0010
,
0100
0001
1000
0100
0010
0001
0100
0010
,
1000
0001
1000
0010
0100
0002
0000
1003
,
0010
2000
0000
3001
1000
0002
0000
1003
,
0001
1000
0100
1000
0001
2000
0000
3001
,
0100
0002
0000
1003
0100
2000
0000
3001
,
0100
0010
0100
0000
0001
1000
0010
1000
,
0001
0000
1000
0100
1000
0001
2000
0000
,
3001
0001
0001
0000
0100
0100
0010
0010
,
1000
0000
0001
1000
0010
0100
0001
1000
,
0100
0010
0100
0000
1000
0001
0010
0001
,
1000
0000
0100
1000
0001
1000
0100
0000
,
1000
0001
1000
0000
0100
0010
0100
0010
,
0100
0000
1000
0001
1000
0001
1000
0000
,
0000
1001
0000
0000
0000
0000
0000
0000
;

//--------------- dance-single - Braeden ----------------
#NOTES:
     dance-single:
     Braeden:
     Hard:
     13:
     0,0,0,0,0:
0000
0000
0000
0000
,
0000
0000
0000
0000
,
0000
0000
1000
0001
0100
0020
0000
1030
,
0000
0000
0000
0000
0001
0000
0100
0000
0010
0000
2000
0000
0000
0000
3001
0010
,
0001
0100
0001
0010
0001
0000
1000
0000
0010
0100
0010
0000
1000
0100
1000
0000
,
0001
0000
0100
0000
0010
1000
0100
1000
0001
0100
0010
1000
0100
0000
0000
1000
,
0001
0010
0001
0100
0010
0000
1000
0000
0100
0010
0100
1000
0010
0100
0001
0010
,
0001
0000
1000
0000
0100
0010
0001
0100
0010
1000
0100
1000
0001
0000
0100
0010
,
0100
0001
0100
0010
0100
0000
0001
0000
1000
0100
1000
0000
0001
0100
0010
0000
,
1000
0000
0100
0000
0010
0001
0100
0010
1000
0001
0010
0100
1000
0000
0000
0001
,
0100
0010
0100
0001
1000
0000
0100
0000
0010
0001
0010
0100
1000
0010
0100
0001
,
1000
0000
0100
0000
1000
0010
0100
0001
0010
0001
0100
0010
1000
0000
0001
0100
,
0001
1000
0100
1000
0001
0000
0100
0000
0010
1000
0100
1000
0010
0100
0010
1000
,
0001
0000
0000
0000
0100
0010
0100
0001
0100
0010
0100
0001
1000
0000
0010
1000
,
0100
0000
1000
0000
0001
0000
0100
0000
0010
0000
0000
0000
1000
0000
0000
0000
0100
0000
0010
0000
0001
0000
0100
0000
0010
0000
0000
1000
0000
0000
0010
0000
,
0100
0000
0000
0000
0001
0000
0000
0000
1000
0000
0100
0000
1000
0000
0100
0000
1000
0000
0000
0001
0000
0000
0020
0000
0000
0000
0000
0000
0000
0000
0000
0000
,
0031
0000
0000
0000
1000
0001
1000
0000
0001
0100
0010
0100
0000
0001
0100
0000
,
0010
0000
1000
0000
0100
1000
0010
0000
0100
0001
0000
0100
0000
0010
2000
0000
,
0000
0000
3010
0100
0010
0100
0010
0000
1000
0100
0000
0010
0000
0001
0100
0000
,
0010
0000
1000
0100
1000
0001
0100
0000
0010
1000
0000
0100
0000
1000
0010
0000
,
0100
0001
1000
0100
0001
0200
0000
1300
,
0010
0002
0010
0013
0100
0020
0000
1030
,
0000
1000
0001
0100
0010
2000
0000
3001
,
0100
0000
0020
0000
0000
0000
1030
0000
0100
0000
2000
0000
0000
0000
3001
0100
,
0010
1000
0100
1000
0100
0000
1000
0000
0010
0100
0010
0000
1000
0100
1000
0000
,
0010
0000
0100
0000
0001
0010
0100
1000
0001
0010
0100
1000
0001
0000
0000
0100
,
0010
0100
0001
0100
0010
0000
1000
0000
0100
0010
0100
1000
0001
0100
0010
1000
,
0001
0000
1000
0000
0100
1000
0010
0100
0001
0010
0001
0100
0010
0000
1000
0100
,
1000
0010
1000
0100
1000
0000
0010
0000
0100
0001
0100
0000
0010
1000
0010
0000
,
1000
0000
0100
0000
0010
0001
0100
0010
1000
0100
1000
0001
0100
0000
0000
0010
,
1000
0100
1000
0001
0100
0000
0010
0000
1000
0100
1000
0001
0010
0001
0100
0010
,
1000
0000
0001
0000
0100
0010
0100
0001
0100
0010
0100
0001
0100
0000
0010
1000
,
0010
1000
0001
0100
0002
0000
1003
0100
2000
0000
3001
0100
0001
1000
0010
0000
,
1010
0000
1000
0001
0100
0000
0010
1000
0001
0000
1000
0010
1000
0100
0010
0000
,
0011
0000
0001
0000
0100
0010
1000
0100
1000
0010
0100
0001
1000
0010
1000
0000
,
1001
0000
0001
0100
0010
0100
0001
1000
0100
0010
0001
0100
0010
1000
0001
0000
,
0000
0000
1000
0100
1000
0000
0010
0000
0110
0000
0100
0000
0001
0000
0100
0010
,
1000
0000
0010
0000
0100
0001
0100
0010
0100
0000
0001
0000
0100
0000
0010
1000
,
0001
0000
0100
0000
0010
0000
1000
0000
1001
0000
0001
0010
0001
0000
0100
0010
,
0200
0000
0301
0000
0010
0001
0100
0010
0100
0000
0001
1000
0010
1000
0001
1000
,
0010
1000
0001
0010
0001
2000
0000
3001
,
0010
0002
0100
0103
0010
2000
0000
3001
,
0100
0010
1000
0001
0100
0020
0000
1030
,
0001
0000
0200
0000
0010
0000
0310
0000
1000
0000
0001
0000
1000
0000
0001
0010
,
0100
1000
0100
0001
0100
0000
1000
0000
0001
0010
1000
0000
0010
0001
0100
0000
,
0010
0000
1000
0000
0001
0010
1000
0010
0001
0100
0010
1000
0100
0000
0000
0010
,
0001
0100
0010
0100
0010
0000
1000
0000
0001
0010
1000
0010
0001
0100
0010
1000
,
0100
0000
0010
0000
0001
0010
1000
0010
0001
0100
0010
1000
0100
0000
0010
0001
,
0100
0010
1000
0100
0010
0000
0001
0000
1000
0100
0010
0000
0100
1000
0001
0000
,
1000
0000
0001
0000
1000
0010
0100
0010
1000
0010
1000
0010
0100
0000
0000
0010
,
1000
0100
1000
0001
1000
0000
0010
0000
0001
0010
1000
0100
0010
0100
1000
0001
,
1000
0000
0100
0000
0010
0001
0100
0010
1000
0001
0010
0100
1000
0000
0010
0000
,
1010
1000
0000
0000
0000
0000
0000
0000
;

//--------------- dance-single - Braeden 8-7/16/7 ----------------
#NOTES:
     dance-single:
     Braeden 8-7/16/7:
     Challenge:
     15:
     0,0,0,0,0:
0000
0000
0000
0000
,
0000
0000
0000
0000
,
0000
0000
1000
0100
0010
0002
0000
1003
,
0000
0000
0000
0000
0001
0000
0100
0000
0010
0000
2000
0000
0000
0000
3001
0010
,
0001
0100
0001
1000
0100
0010
0001
1000
0010
0100
0010
1000
0001
0010
0001
0100
,
0010
1000
0100
0010
0001
1000
0100
1000
0001
0010
0001
0100
0010
1000
0001
0100
,
0010
1000
0100
1000
0010
0100
0010
0100
0001
0010
0001
1000
0010
0100
0001
1000
,
0010
1000
0100
0010
0001
1000
0100
1000
0001
0100
0010
1000
0100
0010
0001
0100
,
0001
1000
0001
0010
0001
0100
0010
1000
0001
0010
0001
0100
0010
1000
0010
0100
,
0001
0010
0001
0100
0010
1000
0100
0010
0001
0100
0010
1000
0001
0010
0001
0100
,
0010
1000
0010
0100
0001
0010
0001
1000
0010
0100
0001
1000
0001
0100
0001
0010
,
0100
0010
0100
1000
0010
0100
0001
1000
0010
1000
0001
0100
0010
1000
0100
1000
,
0001
0100
0010
1000
0100
0000
0100
0000
0010
0001
0100
0010
1000
0100
1000
0001
,
2000
0000
3000
0000
0001
0010
0001
0100
0010
1000
0100
1000
0001
0010
0100
1000
,
0100
0010
0100
1000
0001
0010
0001
0010
0001
0100
0010
1000
0001
0100
0010
1000
,
0001
0010
0001
0100
0010
1000
0100
1000
0001
0010
0001
0100
0010
1000
0100
1000
,
0001
0100
0010
0100
0001
1000
0100
0010
0100
1000
0010
0100
0001
0100
0001
0010
,
0001
0100
0010
1000
0100
0010
0001
0010
0100
1000
0100
0010
0001
0010
0100
1000
,
0001
0100
0001
0100
0010
1000
0100
1000
0001
0010
0001
0100
0010
1000
0100
1000
,
0001
0010
0100
1000
0010
0100
0001
1000
0100
0010
0001
0100
0010
1000
0001
0010
,
0100
1000
0010
0100
0001
0000
1000
0000
0001
0000
2000
0000
0000
0000
3001
0000
,
0100
0020
1000
1030
0010
0200
0000
0310
,
1000
0001
0100
0010
1000
0002
0000
1003
,
0100
0000
2000
0000
0010
0000
3010
0000
0100
0000
0002
0000
0000
0000
1003
0001
,
0010
0001
1000
0001
0010
0001
0100
0010
1000
0100
1000
0010
0100
0001
0100
0010
,
1000
0100
0010
0001
1000
0100
1000
0010
0100
0001
1000
0100
1000
0010
0100
0001
,
1000
0100
1000
0100
0010
0100
1000
0010
0100
0001
0010
0001
0100
0010
1000
0100
,
0010
0001
0010
0001
0100
0010
1000
0001
0010
0100
1000
0010
0100
0001
1000
0100
,
1000
0001
1000
0010
1000
0100
0010
0001
1000
0010
1000
0001
0100
0010
0100
0001
,
1000
0100
1000
0010
0100
0001
0010
0100
1000
0010
0100
0001
1000
0100
0010
0001
,
1000
0100
1000
0010
1000
0100
0010
0001
0100
0010
1000
0001
0010
0100
1000
0010
,
0100
0001
0010
0001
0100
0010
0100
0001
0100
0010
1000
0100
0010
0001
0100
0010
,
1000
0001
0010
0001
1000
0100
1000
0010
0100
0001
0010
0001
1000
0100
1000
0100
,
0010
0001
0100
0010
1000
0100
1000
0100
0010
0001
0100
0010
1000
0001
0010
0100
,
1000
0010
0100
0001
1000
0100
1000
0010
1000
0100
0010
0001
0100
0010
0100
0001
,
1000
0100
0010
0001
0100
0010
0100
0001
0010
0100
0010
0001
1000
0010
0100
0001
,
1000
0100
1000
0010
0100
0001
0010
0001
0100
0010
0100
0001
1000
0100
0010
0001
,
1000
0100
1000
0001
0100
0010
0100
0001
0100
0010
1000
0100
0010
0001
0100
0010
,
1000
0001
0010
0001
0100
0010
0100
0001
0100
0010
1000
0100
0010
0001
0100
0010
,
1000
0100
1000
0001
0100
0010
1000
0001
0010
0100
1000
0100
0010
0100
1000
0001
,
0100
0010
0100
0001
1000
0000
0010
0000
0100
0000
0002
0000
0000
0000
1003
0000
,
0010
0200
0010
0310
0100
0020
0000
1030
,
0100
1000
0001
0001
0100
0020
0000
1030
,
0100
0000
2000
0000
0010
0000
3010
0000
0100
0000
0020
0000
0000
0000
1030
0100
,
1000
0010
1000
0001
1000
0000
0100
0000
0010
0100
1000
0000
0010
0100
0010
0000
,
1000
0000
0000
0000
0100
0010
0100
1000
0010
0100
0001
0010
0100
1000
0010
0100
,
0001
0010
0001
0100
0010
1000
0100
0010
0001
0100
0001
0100
0010
1000
0100
1000
,
0001
0010
0100
1000
0001
0100
0001
0010
0001
0100
0010
1000
0100
1000
0001
0010
,
0001
0100
0001
1000
0001
0100
0010
1000
0001
0010
0100
1000
0010
0100
0001
1000
,
0100
0010
0001
1000
0100
1000
0010
0100
0001
0010
0001
0100
0010
1000
0001
0010
,
0100
1000
0100
1000
0001
0100
0010
1000
0100
1000
0100
0010
0001
0100
0010
1000
,
0001
0100
0001
0100
0010
1000
0100
1000
0001
0100
0010
1000
0100
0010
0100
1000
,
0001
0100
0010
1000
0100
0000
0000
0000
0000
0000
0000
0000
0000
0000
0000
0000
;
