#TITLE:Maybe;
#SUBTITLE:;
#ARTIST:Toby featuring Freda;
#TITLETRANSLIT:;
#SUBTITLETRANSLIT:;
#ARTISTTRANSLIT:;
#GENRE:;
#CREDIT:;
#MUSIC:Maybe.ogg;
#BANNER:;
#BACKGROUND:;
#CDTITLE:;
#SAMPLESTART:100.000;
#SAMPLELENGTH:12.000;
#SELECTABLE:YES;
#OFFSET:-0.035;
#BPMS:0.000=67.500
,34.000=135.000
;
#STOPS:;
#BGCHANGES:;
#FGCHANGES:;

//--------------- dance-single - ----------------
#NOTES:
     dance-single:
     :
     Beginner:
     3:
     0,0,0,0,0:
0000
0000
1001
0000
,
0001
0000
1000
0000
,
0000
0000
0010
0000
,
1000
0000
0001
0000
,
0000
0000
1001
0000
,
0100
0000
0010
0000
,
0000
0000
0100
0000
,
0001
0000
1000
0000
,
0001
0000
2002
0000
,
3003
0000
1001
0000
,
1000
0000
0001
0000
,
0100
0000
0000
0000
,
0010
0000
1000
0000
,
0100
0000
0000
0000
,
0010
0000
0001
0000
,
0100
0000
0000
0000
,
0010
0000
1000
0000
,
0001
0000
0000
0000
,
1000
0000
0001
0000
,
1000
0000
0000
0000
,
0001
0000
0100
0000
,
0001
0000
1001
0000
,
1000
0000
1001
0000
,
0001
0000
0110
0000
,
0100
0000
0001
0000
,
1000
0000
0010
0000
,
0000
0000
0000
1000
,
0000
0010
0000
0100
,
0000
0001
0000
1000
,
0000
0100
0000
0010
,
0000
0001
0000
1000
,
0000
0010
0000
0100
,
0000
0001
0000
1000
,
0000
0000
1001
1001
,
1001
1001
1001
0000
,
0100
0000
0000
0000
,
0010
0000
0000
0000
,
0100
0000
0000
0000
,
0001
0000
1000
0000
,
0010
0000
1000
0000
,
0100
0000
1000
0000
,
0010
0000
0100
0000
,
0000
0000
1001
0000
,
0001
0002
0000
0000
,
0000
0000
0003
0000
,
0100
0200
0000
0000
,
0000
0000
0300
0000
,
0010
0020
0000
0000
,
0000
0000
0030
0000
,
1000
1000
0000
0000
,
0001
0001
0000
0100
,
0100
0200
0000
0000
,
0000
0000
0300
0000
,
0010
0020
0000
0000
,
0000
0000
0030
0000
,
0100
0200
0000
0000
,
0000
0000
0300
0000
,
0001
0001
0000
0000
,
0100
0000
1001
0000
,
0100
0200
0000
0000
,
0000
0000
0300
0000
,
0002
0000
0003
0000
;

//--------------- dance-single - ----------------
#NOTES:
     dance-single:
     :
     Easy:
     5:
     0.206811,0.358934,0.074622,0.447734,0,194,184,10,60,0,0,0.206811,0.358934,0.074622,0.447734,0,194,184,10,60,0,0:
0000
0000
2002
3003
,
0200
0300
0010
0000
,
2000
3000
0002
0003
,
0002
0003
2000
3000
,
0002
0003
1002
0003
,
0002
0003
0200
0300
,
0002
0003
2000
3000
,
0200
0300
0020
0000
,
0030
0000
2002
0000
,
0000
3003
1001
1000
,
0001
0100
0010
1000
,
0100
1000
0000
0001
,
0100
0001
0010
0001
,
0100
0010
0000
2000
,
3200
2300
3200
2300
,
3020
0230
0300
0002
,
2003
3020
0230
0302
,
0023
0031
1001
1000
,
0010
1000
0100
1000
,
0100
1000
0001
0100
,
0010
1000
0100
0010
,
0001
1000
1001
0001
,
0100
0001
0010
0100
,
1000
0001
0100
0010
,
1000
0100
0010
0001
,
0100
0010
2000
0000
,
0000
3000
1001
0001
,
0010
0100
1000
0010
,
0100
0001
0000
1000
,
0100
0010
0100
1000
,
0001
0100
0000
0010
,
1000
0001
0100
0001
,
1000
0010
0000
0100
,
0001
1000
1001
1001
,
0110
1001
0010
0100
,
0100
0100
0000
0001
,
1000
0010
0000
0100
,
0001
1000
0000
0010
,
0100
0001
0000
1000
,
0100
0010
0001
0100
,
0010
1000
0001
0010
,
0100
1000
0020
0000
,
0000
0030
1001
2000
,
3002
0203
0000
0000
,
0000
0000
0300
0002
,
2003
3020
0000
0000
,
0000
0000
0030
2000
,
3002
0203
0000
0000
,
0000
0000
0300
0001
,
1000
0001
0000
0100
,
0001
1000
1001
2000
,
3020
0230
0000
0000
,
0000
0000
0300
0002
,
2003
3020
0000
0000
,
0000
0000
0030
2000
,
3002
0203
0000
0000
,
0000
0000
0300
0001
,
1000
0010
0000
0100
,
0001
1000
1001
0002
,
0203
0320
0000
0000
,
0000
0000
0030
1000
,
0001
2002
0000
0000
,
3003
0000
0000
0000
;

//--------------- dance-single - ----------------
#NOTES:
     dance-single:
     :
     Medium:
     10:
     0.335801,0.414154,0.276103,0.522357,0.044773,315,278,37,70,0,0,0.335801,0.414154,0.276103,0.522357,0.044773,315,278,37,70,0,0:
0000
0000
0000
0000
0000
0000
0000
0000
2001
0000
0000
3001
0000
0000
1000
0000
,
1000
0000
0000
0010
0000
0000
0100
0000
0100
0000
0000
0001
0000
1000
0000
0020
,
0000
0000
0000
0000
0030
0000
1000
0000
0002
0000
0000
1003
0000
0000
0010
0000
,
2000
0000
0000
3010
0000
0000
0100
0000
0001
0000
0100
0010
0000
1000
0000
0002
,
0000
0000
0000
0003
0000
0000
1000
0000
1001
0000
0001
0100
0000
0000
0010
0000
,
1000
0000
0100
0010
0000
0000
0001
0000
0100
0000
0010
1000
0000
0001
0000
0200
,
0000
0000
0000
0301
0000
0000
1000
0000
0001
0000
1000
0010
0000
0000
0100
0000
,
0001
0000
1000
0100
0000
0000
0010
0000
0001
0000
0000
1000
0000
0010
0000
0200
,
0000
0000
0000
0000
0300
0010
0001
1000
2002
0000
0000
0000
0000
0000
0000
0000
,
0000
0000
0000
3003
1001
0000
0001
0000
,
1000
0010
0100
0001
,
1000
0000
0100
0000
0010
0001
0100
0000
,
0010
0000
0000
1000
0000
0000
0001
0000
0100
0000
0010
0000
1000
0000
0000
0000
,
0001
0000
0000
1000
0000
0000
0100
0000
0010
0000
0001
0000
0100
0000
0000
0000
,
0010
0000
0000
1000
0000
0000
0100
0000
0010
0000
0001
0000
0100
0000
0000
0000
,
0010
0000
0000
1000
0000
0000
0100
0000
0010
0000
0001
0000
0100
0000
0000
0000
,
0010
0000
0000
1000
0000
0000
0100
0000
0010
0000
0001
0000
0100
0000
0000
0000
,
0010
0000
0000
1000
0000
0000
0010
0000
1010
0000
1000
0000
0010
0000
0100
0000
,
0001
0010
0001
0100
0001
1000
0100
1000
,
0001
0100
0001
0010
0100
1000
0010
0100
,
0001
0000
0000
1000
0000
0000
0001
0000
0100
0000
0010
0000
0100
0000
0000
0000
,
0001
0000
0000
1000
0000
0000
0010
0000
1010
0000
0000
0000
1000
0000
0000
0000
,
0001
1000
0010
0100
0001
0010
0100
1000
,
0010
0100
0001
0010
0100
1000
0100
1000
,
0001
0100
0010
1000
0001
0100
0001
0100
,
0010
1000
0010
1000
0200
0000
0000
0000
,
0000
0000
0000
0000
0300
0000
0000
0000
1001
0000
0000
0001
0000
0000
0100
0000
,
0010
0000
0000
1000
0000
0000
0100
0000
0010
0000
0000
0001
0000
0000
0100
0000
,
0010
0000
0000
1000
0000
0000
0100
0000
0010
0000
0000
0001
0000
0000
0100
0000
,
0010
0000
0000
1000
0000
0000
0001
0000
0010
0000
0000
0100
0000
0000
1000
0000
,
0010
0000
0000
0100
0000
0000
0001
0000
0010
0000
0000
0100
0000
0000
1000
0000
,
0010
0000
0000
0100
0000
0000
0001
0000
0010
0000
0000
0100
0000
0000
1000
0000
,
0010
0000
0000
0100
0000
0000
0001
0000
0010
0000
0000
0100
0000
0000
1000
0000
,
0010
0000
0000
0100
0000
0000
0001
0000
1001
0000
0000
0000
1010
0000
0000
0000
,
0110
0000
0000
0000
0101
0000
0000
0000
0100
0000
0000
0010
0000
0000
0100
0000
,
0001
0000
0000
0100
0000
0000
0010
0000
0100
0000
0000
0001
0000
0000
0100
0000
,
0010
0000
0000
0100
0000
0000
0001
0000
1000
0000
0000
0100
0000
0000
1000
0000
,
0100
0000
0000
1000
0000
0000
0010
0000
0100
0000
0000
0001
0000
0000
1000
0000
,
0100
0000
0000
0010
0000
0000
0001
0000
1001
0000
0000
0000
1000
0000
0010
0000
,
0100
0000
0001
0010
0100
0000
1000
0010
,
0100
0000
0001
0010
0100
1000
0100
1000
,
0001
0100
0001
0010
0200
0000
0000
0000
,
0000
0300
1001
2000
,
3002
0203
0010
0001
,
0010
1000
0310
2000
,
3002
0203
0010
1000
,
0010
0001
0310
2000
,
3002
0203
0010
1000
,
0010
0000
0000
0000
0001
0000
0000
0000
1300
0000
0000
1000
0000
0000
0010
0000
,
0100
0000
0000
0001
0000
0000
0010
0000
0001
0000
0000
0100
0000
0000
0010
0000
,
1000
0000
0000
0001
0000
0000
1000
0000
1001
0000
0000
0000
0020
0000
0000
0000
,
0032
2003
0100
0010
,
0001
0100
3100
0020
,
0032
0203
0010
1000
,
0010
1000
0310
2000
,
3002
2003
0001
0100
,
0010
0100
3001
1001
,
1010
0101
0100
0110
,
1001
1010
1001
2000
,
3020
0230
0010
0010
,
0010
0010
0310
1000
,
0001
1001
0000
0000
;

//--------------- dance-single - ----------------
#NOTES:
     dance-single:
     :
     Hard:
     15:
     0.557536,0.692589,0.149245,0.373112,0.555937,523,503,20,50,0,0,0.557536,0.692589,0.149245,0.373112,0.555937,523,503,20,50,0,0:
0000
0000
0000
0000
0000
0000
0000
0000
2000
0000
0000
0001
0000
0000
3100
0000
,
0200
0000
0000
0010
0000
0000
1300
0000
1000
0000
0000
0001
0000
0100
0000
0020
,
0000
0000
0000
0030
0000
0000
1000
0000
0020
0000
0000
0130
0000
0000
0001
0000
,
0002
0000
0000
1000
0000
0000
0010
0000
0013
0000
0100
0001
0000
0100
0000
0010
,
1000
0000
0000
0001
0000
0000
0100
0000
1010
0000
1000
0010
0000
0000
0100
0000
,
0001
0000
1000
0010
0000
0000
0100
0000
0001
0000
0010
0100
0000
1000
0000
0200
,
0000
0000
0300
0000
0000
0000
1000
0000
0001
0000
0100
0010
0000
0000
1000
0000
,
0100
0000
0010
0001
0000
0000
0100
0000
0020
0000
0000
1030
0000
0001
0000
0200
,
0000
0000
0000
0000
0000
0301
1000
0010
0100
0000
0000
0000
0000
0000
0000
0000
,
0000
0000
0000
0000
0000
0000
0000
0000
1001
0000
1000
0000
0001
1000
0000
0001
,
0100
0001
0100
0000
0010
1000
0000
0001
0100
0010
1000
0000
0001
0100
0000
0010
,
0000
1000
0100
0000
0010
0001
0000
0100
0000
0010
1000
0000
0100
1000
0000
1000
,
0100
0000
0100
0010
0000
0010
0100
0000
1000
0001
1000
0000
0001
0100
0000
0100
,
0010
0000
0010
1000
0000
1000
0100
0000
0010
0001
0010
0000
0001
0100
0000
0001
,
0100
0000
0010
1000
0000
0010
1000
0000
0001
0010
0001
0000
1000
0100
0000
1000
,
0100
0000
0010
0001
0000
0100
0010
0000
1000
0001
1000
0000
0001
0100
0000
0010
,
1000
0000
0001
0100
0000
0010
1000
0000
0001
0010
0001
0000
0100
0010
0000
0100
,
0001
0000
0100
0010
0000
1000
0001
0000
1000
0100
1000
0000
0001
0000
0100
0000
,
0010
1000
0010
0000
0100
0000
0001
0000
0100
0010
0100
0000
0001
0000
1000
0000
,
0001
0100
0001
0100
0001
0000
1000
0000
0100
0000
0010
0000
0100
0010
0000
0001
,
0100
0000
0010
1000
0000
0001
0100
0000
0010
0100
0001
0000
0100
0010
0000
0100
,
0001
0000
0100
0010
0000
0100
0001
0000
0100
0010
0100
0000
0001
1000
0000
0010
,
1000
0000
0100
1000
0100
0000
0010
0001
0010
0000
0100
0000
1000
0000
0100
0000
,
0010
0001
0010
0001
0101
0100
0010
1000
,
0001
0000
1000
0001
1000
0000
0001
0100
0001
0010
0100
1000
0001
0100
0010
1000
,
0001
0010
0100
1000
0001
0100
0010
1000
0001
0100
0001
0100
0010
1000
0010
1000
,
0001
0010
0100
1000
0010
0100
0001
1000
0001
0000
1000
0100
0000
0010
0001
0000
,
0100
0000
0010
1000
0000
0001
0100
0000
0001
0000
0100
0010
0000
1000
0100
0000
,
1000
0000
0001
0010
0000
0100
1000
0000
0010
0000
0100
0001
0000
0100
0010
0000
,
1000
0000
0100
0010
0000
0001
0100
0000
0010
0000
1000
0100
0000
1000
0100
0000
,
0010
0000
0001
0100
0000
0010
1000
0000
0001
0000
0010
0100
0000
1000
0010
0000
,
0100
0000
0001
0010
0000
0001
0100
0000
0010
0000
1000
0100
0000
1000
0001
0000
,
0100
0000
0010
1000
0000
0100
1000
0000
0001
0000
0010
0100
0000
1000
0010
0000
,
0100
0000
0001
0100
0000
0010
1000
0000
0001
0010
0001
0000
1000
0100
1000
0000
,
0001
0100
0001
0000
1000
0010
1000
0000
0001
0000
0100
0010
0000
1000
0100
0000
,
0010
0000
0001
0100
0000
0010
1000
0000
0001
0000
0010
0100
0000
1000
0010
0000
,
0100
0000
0001
0010
0000
0001
0010
0000
0100
0000
1000
0010
0000
1000
0010
0000
,
0100
0000
0001
0010
0000
0001
0010
0000
0100
0000
1000
0001
0000
1000
0001
0000
,
0100
0000
0010
1000
0000
1000
0010
0100
0010
0000
0100
0001
0000
0100
0010
0000
,
1000
0000
0100
0010
0000
0100
0010
0000
0001
0000
0100
0001
0000
0100
0001
0000
,
1000
0000
0100
0010
0000
0100
0010
0001
0100
0010
1000
0100
1000
0001
0010
0100
,
1000
0001
0100
0010
1000
0100
0010
0001
0100
0010
1000
0001
0010
0100
1000
0010
,
0100
0001
0010
0001
0100
0010
0100
0001
1000
0000
0001
0100
0000
0010
1000
0000
,
0001
0000
0100
0010
0000
1000
0010
0000
2000
0000
0000
0010
0000
0000
0010
0000
,
0010
0000
0000
0100
0000
0000
0100
0000
3100
0000
0010
0001
0000
0100
0010
0000
,
1000
0000
0100
1000
0000
0001
0100
0000
0020
0000
0000
1000
0000
0000
1000
0000
,
1000
0000
0000
0100
0000
0000
0100
0000
0130
0000
0001
1000
0000
0010
0100
0000
,
0001
0000
0010
0001
0000
0100
0010
0000
2000
0000
0000
0001
0000
0000
0001
0000
,
0001
0000
0000
0100
0000
0000
0100
0000
3100
0000
0010
0001
0000
0100
0010
0000
,
1000
0000
0001
1000
0000
0010
0100
0000
0001
0000
0010
0100
0000
0010
0100
0000
,
1000
0000
0001
1000
0000
0001
1000
0000
1001
0000
0001
0100
0000
0010
1000
0000
,
0001
0000
0100
0010
0000
1000
0010
0000
0200
0000
0000
0001
0000
0000
0001
0000
,
0001
0000
0000
0010
0000
0000
0010
0000
0310
0000
1000
0001
0000
1000
0010
0000
,
0100
0000
0001
0010
0000
0001
0100
0000
0020
0000
0000
1000
0000
0000
1000
0000
,
1000
0000
0000
0100
0000
0000
0100
0000
0130
0000
0001
0010
0000
0100
1000
0000
,
0001
0000
0100
0010
0000
1000
0001
0000
2000
0000
0000
0010
0000
0000
0010
0000
,
0010
0000
0000
0100
0000
0000
0100
0000
3100
0000
0010
0100
0000
1000
0010
0000
,
0100
0000
0001
0010
0000
0001
0100
0000
0010
0000
1000
0100
0000
1000
0010
0000
,
0100
0000
0001
0010
0000
0001
0100
0000
0110
0000
0010
1000
0000
0100
1000
0000
,
0001
0000
0100
0010
0000
0100
0001
0000
2000
0000
0000
0001
0000
0000
0001
0000
,
0000
0000
0000
0100
0000
0000
0100
0000
3100
0000
0000
0000
0000
0000
0000
0000
;

//--------------- dance-single - ----------------
#NOTES:
     dance-single:
     :
     Challenge:
     17:
     0.986082,1.226606,0.171632,0.313414,1.83198,925,902,23,42,0,0,0.986082,1.226606,0.171632,0.313414,1.83198,925,902,23,42,0,0:
0000
0000
0000
0000
0000
0000
0000
0000
2000
0000
0000
0002
3000
0000
0203
0000
,
0020
0300
0000
2030
0000
0000
0200
3000
0020
0300
0030
1100
0000
0101
0000
2200
,
0000
0000
0000
0000
0000
3300
0101
0000
2200
0000
0000
0000
0000
3300
0001
0000
,
0100
0000
0000
0001
0000
0000
1000
0000
0100
0000
1000
0100
0000
1001
0000
2200
,
0000
0000
0000
0000
3300
0000
0001
0000
0100
0000
0001
0101
0000
0000
1100
0000
,
0001
0000
0100
1100
0000
0000
0101
0000
1100
0000
0001
0101
0000
1100
0000
0202
,
0000
0000
0000
0000
0000
0303
0001
0000
1000
0000
0001
0101
0000
0000
1100
0000
,
0100
0000
0100
1100
0000
0000
0100
0000
2000
0000
0000
0002
3000
0203
0000
0302
,
0000
0000
0000
0000
0000
0000
0000
0003
1000
0100
0010
0001
0010
0100
1000
0001
,
0100
0010
1000
0100
0010
0001
0010
0100
1000
0001
1000
0000
0001
0010
0000
0100
,
1000
0001
0100
0000
0010
1000
0000
1000
0010
1000
0100
0000
0100
1000
0000
0010
,
1000
0010
1000
0000
0001
0100
0000
0001
0100
0001
0010
0000
0100
1000
0000
1000
,
0100
0000
0010
0001
0000
0001
0010
0000
1000
0001
1000
0000
0100
1000
0000
1000
,
0100
0000
0100
1000
0000
1000
0001
0000
0100
0010
0100
0000
0100
0010
0000
0010
,
1000
0000
1000
0010
0000
0010
1000
0000
0100
0010
0100
0000
1000
0100
0000
0100
,
0010
0000
0010
0001
0000
0001
0010
0000
0010
0100
1000
0000
1000
0100
0000
0010
,
0001
0000
0001
0010
0000
0100
1000
0000
0100
0010
0001
0000
1000
0100
0000
0010
,
0001
0000
0001
0010
0000
0010
0001
0000
0010
0100
1000
0001
0100
0010
1000
0100
,
0010
0001
0010
0100
1000
0001
0010
0100
1000
0001
0100
0010
1000
0100
0010
0100
,
1000
0001
0010
0100
1000
0001
0100
0010
0100
0001
1000
0100
0010
0001
0010
0100
,
1000
0001
0100
0010
1000
0001
0010
0100
1000
0001
0100
0010
1000
0100
0010
0001
,
0010
0100
1000
0001
0010
0100
1000
0001
0100
0010
0100
0001
1000
0100
0010
0001
,
0010
0100
1000
0100
1000
0001
1000
0010
0100
0001
0100
0001
0010
0001
0100
0010
,
0100
0110
0010
1000
1001
1000
0001
1000
,
0001
0000
0000
0000
1001
0000
0000
0000
0001
0000
0000
0000
0100
0000
0010
1000
0010
0000
0100
0000
0001
0000
0100
0010
0100
0000
0010
0000
1000
0000
0100
0000
,
0010
0000
0000
0001
0000
0000
0010
0000
0000
0100
0000
0000
1000
0000
0000
0001
0000
0000
0100
0000
0000
0010
0000
0000
1000
0000
0100
0000
0010
0000
0001
0000
1000
0000
0010
0000
0100
0000
0001
0000
0010
0000
0100
0000
1000
0000
0010
0000
,
0100
0000
0001
0000
1000
0000
0100
0000
0010
0000
0001
0000
1000
0000
0010
0000
0100
0000
0001
0000
0100
0000
0010
0000
1000
0000
0000
0000
0000
0000
0001
0000
0000
0100
0000
0000
0001
0000
0000
0010
0000
0000
0001
0000
0000
0000
0000
0000
,
1000
0000
0001
0010
0001
0100
0010
0000
1000
0001
0100
0010
1000
0100
0010
0000
,
0001
0100
0010
0100
0001
1000
0100
0000
1000
0001
1000
0001
0100
0010
0100
0000
,
0001
0010
0001
1000
0010
0100
0001
0000
1000
0100
0010
0001
1000
0010
0100
0000
,
0001
0000
0010
0001
0100
0001
0100
0000
0010
0000
1000
0100
1000
0010
1000
0000
,
0001
0000
1000
0010
0100
0001
0100
0000
0010
0000
1000
0100
1000
0001
0100
0000
,
0010
0000
1000
0100
1000
0010
1000
0000
0001
0000
0100
0010
0100
0001
0100
0000
,
0010
0000
1000
0100
1000
0001
1000
0000
0101
0100
0010
0000
1010
1000
0010
0000
,
0101
0100
0001
0000
1010
1000
0010
0000
1000
0000
0001
1000
0000
0100
0010
0000
,
1000
0000
0001
1000
0010
1000
0100
0000
1000
0000
0001
1000
0000
0100
0010
0000
,
0001
0000
0001
1000
0000
1000
0100
0000
0100
0000
0010
0001
0000
0100
0010
0000
,
1000
0000
0001
1000
0000
1000
0100
0000
1000
0000
0001
1000
0000
0100
0010
0000
,
0001
0000
0001
1000
0000
1000
0100
0010
0100
0000
1000
0000
0100
0010
0001
0010
,
0100
0000
1000
0010
1000
0100
0010
0000
0001
0000
0100
0010
0100
0001
1000
0000
,
0001
0000
0000
0000
0010
0000
0100
0000
1000
0000
0001
0000
1000
0000
0100
0010
0100
0000
0010
0000
1000
0000
0001
1000
0010
0000
0100
0000
0010
0000
1000
0000
,
0001
0000
0000
0100
0000
0000
0010
0000
0000
1000
0000
0000
0001
0000
0000
0010
0000
0000
0100
0000
0000
1000
0000
0000
0001
0000
0100
0000
0001
0000
1000
0000
0100
0000
0010
0000
0100
0000
1000
0000
0001
0000
0100
0000
0010
0000
1000
0000
,
0001
0010
0100
1000
0010
0100
0001
1000
0100
0010
0001
1000
0001
0000
0000
0000
0000
0000
2000
0000
0000
0000
0000
0000
,
3002
0000
0103
0010
0100
0001
0100
0000
1010
0000
1000
0100
1000
0010
0100
0000
,
0101
0000
0010
1000
0100
1000
0010
0000
1010
0000
0010
0100
0002
0000
0000
0000
,
2003
0000
0000
0000
3002
0000
0000
0000
1003
0000
0001
0100
0010
0100
0001
0000
,
1000
0000
0100
0010
0100
1000
0001
0000
0100
0000
1000
0001
0200
0000
0000
0000
,
0320
0000
0000
0000
0230
0000
0000
0000
0301
0000
1000
0100
1000
0010
1000
0000
,
0001
0000
0100
0010
0000
0010
0100
0000
0001
0000
1000
0100
0000
0010
0001
0000
,
0001
0000
0010
0100
0000
1000
0010
0000
0100
0000
0001
0100
0000
0010
1000
0000
,
1000
0000
0100
0010
0000
0100
0001
0000
1001
0000
0000
0000
0002
0000
0000
0000
,
0203
0000
0000
0000
0320
0000
0000
0000
1030
0000
0100
0010
0000
0001
0100
0000
,
0010
0000
1000
0100
0000
0010
0001
0000
0100
0000
0000
0000
0002
0000
0000
0000
,
2003
0000
0000
0000
3002
0000
0000
0000
0103
0000
0010
1000
0000
0001
0010
0000
,
0001
0000
1000
0100
0000
0100
1000
0000
1000
0000
0000
0000
0002
0000
0000
0000
,
0203
0000
0000
0000
0310
0100
0010
0000
0100
0000
0001
1000
0000
0001
1000
0000
,
0010
0000
0100
0001
0100
0010
1000
0000
0100
0000
0010
0001
0000
0100
0010
0000
,
1000
0000
0001
1000
0000
1000
0100
0000
1000
0000
0001
1000
0000
0100
0010
0000
,
0001
0000
1000
0100
0000
1000
0100
0000
2100
0000
0000
0000
3002
0000
0000
0000
,
0203
0000
0000
0000
0302
0000
0000
0000
1003
0000
1000
0100
0000
0100
1000
0000
,
0100
0000
0100
0010
0000
0001
0100
0000
0001
0000
0000
0000
0002
0000
0000
0000
,
0000
0000
0003
0000
;
