#TITLE:Losing Grip;
#SUBTITLE:;
#ARTIST:Avril Lavigne;
#TITLETRANSLIT:;
#SUBTITLETRANSLIT:;
#ARTISTTRANSLIT:;
#GENRE:;
#CREDIT:;
#MUSIC:Losing Grip.ogg;
#BANNER:;
#BACKGROUND:;
#CDTITLE:;
#SAMPLESTART:68.213;
#SAMPLELENGTH:12.000;
#SELECTABLE:YES;
#OFFSET:0.120;
#BPMS:0.000=79.150;
#STOPS:;
#BGCHANGES:;
#FGCHANGES:;

//--------------- dance-single - ----------------
#NOTES:
     dance-single:
     :
     Beginner:
     2:
     0,0,0,0,0:
0000
0000
0000
0001
,
0000
1000
0000
0001
,
0000
0100
0000
0010
,
0000
1000
1000
0000
,
0000
0001
0000
1000
,
0000
0010
0000
0100
,
0000
0001
0000
1000
,
0000
0100
0000
0010
,
0000
0001
0000
1000
,
1000
0000
0001
0000
,
1001
0000
0000
1000
,
2000
0000
3000
0000
,
1001
0000
0000
0000
,
2000
3000
0000
0000
,
1001
0000
0000
0000
,
0010
0000
0000
0000
,
0200
0000
0300
0000
,
2000
0000
3000
0000
,
1001
0000
0100
0000
,
0010
0000
1000
0000
,
0100
0000
0010
0000
,
0001
0000
0100
0000
,
0010
0000
1000
0000
,
0010
0000
0100
0000
,
0001
0000
0100
0000
,
0010
0000
1000
0000
,
0001
0000
0100
0000
,
0010
0000
1000
0000
,
0001
0000
0100
0000
,
0010
0000
0000
0000
,
2002
0000
3003
0000
,
2000
0000
3000
0000
,
1001
0000
0000
0000
,
0110
0000
0000
0000
,
2002
0000
3003
0000
,
0002
0000
0003
0000
,
1000
0000
0000
0000
,
1001
0000
0000
0000
,
0001
0000
0000
0000
,
1000
0000
0000
0000
,
0001
0000
0000
0000
,
0100
0000
0010
0000
,
1001
0000
0000
0000
;

//--------------- dance-single - ----------------
#NOTES:
     dance-single:
     :
     Easy:
     5:
     0,0,0,0,0:
0000
0000
0000
1001
,
0001
0100
0020
2030
,
3001
0100
0010
1000
,
0001
1000
0001
0101
,
0100
0000
0010
0000
1000
0001
1000
0000
,
0010
0000
0000
0000
0100
0000
0000
0000
0001
0000
0000
0001
0000
0000
0001
0000
,
0000
0000
0000
0000
0000
0000
0000
0000
0010
0000
0000
0010
0000
0000
0010
0000
,
0000
0000
0000
0001
,
0100
0000
0010
1000
0010
0000
0100
0001
,
0100
0010
0000
0000
1000
0000
1001
0000
,
2001
0000
0000
0000
3001
0000
0000
0100
0000
0000
0000
0000
0010
0000
0000
0000
,
2000
0000
0000
0000
3001
0000
0000
0100
0000
0000
0000
0000
1010
0000
0000
0000
,
0200
0000
0000
0000
0301
0000
0000
0100
0000
0000
0000
0000
0010
0000
0000
0000
,
1000
0000
0001
0000
2000
0000
0000
3010
0000
0000
0000
0000
1000
0000
0000
0000
,
1001
0000
0000
0000
0002
0000
0000
0103
0000
0000
0000
0000
0200
0000
0000
0000
,
0301
0000
0000
0000
0002
0000
0000
1003
0000
0000
0000
0000
0010
0000
0000
0000
,
2000
0000
0000
0000
3001
0000
0000
0100
0000
0000
0000
0000
0002
0000
0000
0000
,
1003
0000
0000
0000
0001
0000
0000
0100
0000
0000
0000
0000
0010
0000
0000
0000
,
1000
0001
1000
0000
0010
0000
0100
0000
,
0001
0000
1000
0000
0010
0100
0001
0000
,
0010
0000
0100
0000
1000
1000
1000
0000
,
0010
0000
0100
0000
0001
0001
0001
0000
,
1000
0010
0001
0100
,
1000
0010
0002
0023
,
1030
0100
0010
0000
0100
1000
0001
0000
,
0100
0010
2000
3000
,
0001
0001
1000
0000
0010
0000
0100
0000
,
0001
2000
3000
0000
,
0001
0100
0001
0100
0001
0000
1000
0100
,
1000
0001
0000
0000
1000
0000
0001
0000
,
1001
0000
0000
0000
2000
0000
0000
0010
3000
0000
0000
0000
2000
0000
0000
0000
,
3001
0000
0000
0000
0100
0000
0000
0100
0000
0000
0000
0000
0002
0000
0000
0000
,
1003
0000
0000
0000
1001
0000
0000
0001
0000
0000
0000
0000
2000
0000
0000
0000
,
3010
0000
1000
0000
0010
0000
0000
1000
0000
0000
0000
0000
0001
0000
0000
0000
,
1001
0000
0000
0000
1000
0000
0000
0010
0000
0000
0000
0000
0200
0000
0000
0000
,
0301
0000
0000
0000
1000
0000
0000
1000
0000
0000
0000
0000
0010
0000
0000
0000
,
0100
0000
0000
0000
0200
0000
0000
0301
0000
0000
0000
0000
1001
0000
0000
0000
,
1000
0000
0000
0000
0001
0000
0000
0100
0000
0000
0000
0000
0001
0000
0000
0000
,
2000
0000
3002
0000
0103
0000
0010
2000
,
0000
0002
3003
0000
0100
0000
0000
0000
,
0020
0000
2030
0000
3001
0000
1000
0001
,
0000
1000
0000
0000
0001
0010
0100
1000
,
1001
0000
0000
0000
;

//--------------- dance-single - ----------------
#NOTES:
     dance-single:
     :
     Medium:
     9:
     0,0,0,0,0:
0000
0000
0000
0000
0000
0000
0000
1000
0000
0001
0000
1000
0000
0001
0000
1000
,
0000
0101
0002
2000
,
3003
0001
1000
0001
1000
0000
0000
0010
0000
1000
0000
0100
0000
1000
0000
0001
,
0000
0000
1000
0100
1000
0000
0000
0000
0002
0000
0000
0203
0000
0000
0310
0000
,
0000
0000
1000
0100
0000
1000
0000
0001
0000
0000
0000
0000
1001
0000
0000
0000
,
0001
0000
0100
0000
0010
0000
0000
0000
1000
0000
0000
0001
0000
0000
1000
0000
,
0010
0000
1000
0000
1001
0000
0000
0000
0001
0000
0000
0100
0000
0000
0010
0000
,
1000
0000
0100
0000
1100
0000
0010
0000
0001
0000
0100
0000
0010
0000
0000
1000
,
0000
0000
0001
0000
0100
0000
0010
0000
1000
0000
0001
0000
1000
0010
1000
0010
,
1000
0001
0000
0000
1000
0001
1001
1000
,
2002
0000
3003
0000
1002
0000
0000
0100
0000
0000
1003
0000
1000
0010
0000
0000
,
2000
0000
0000
0000
3001
0000
0000
0001
0000
0000
0100
0000
0010
0000
0000
0000
,
1000
0100
0000
1000
0010
0000
0000
1000
0000
0001
0000
1000
0000
0000
0000
0000
,
0010
0000
1000
0000
0010
0000
0000
0010
0000
0000
0000
0000
1000
0000
0001
0000
,
1001
0000
0000
0000
2000
0000
0000
3010
0000
0000
0000
0000
2000
0000
0000
0000
,
3002
0000
0000
0000
0103
0000
0000
0010
0000
0000
1000
0000
0010
0000
0000
0000
,
1000
0000
0000
0001
0000
0000
0000
1000
0000
0000
0010
0000
0100
0000
0000
0000
,
0001
0000
0000
0000
1000
0000
0000
0001
0000
0000
0100
0000
0010
0000
0000
0000
,
1000
0001
1000
0001
1000
0000
0000
0000
0001
0100
0001
0100
0001
0000
0000
0000
,
1000
0100
1000
0100
1000
0000
0000
0000
0001
0000
1000
0000
0010
0000
0100
0000
,
0010
1000
0010
1000
0000
0001
0000
1000
0000
0010
0000
1000
0000
0000
0001
1000
,
0000
0001
0000
0000
0000
0000
0000
1000
0100
0000
1000
0010
0000
1000
0100
0000
,
0000
0010
0001
0100
1000
0010
0001
0000
,
1000
0000
0010
0000
1000
0000
0000
0000
0001
0000
1000
0010
0000
1000
0001
0000
,
0000
0000
1000
0010
0000
1000
0000
0001
0000
0100
0000
0010
1000
0000
0001
0100
,
0000
0010
0000
0000
0000
0000
0000
1000
0001
0000
1000
0010
0000
1000
0001
0000
,
1000
0010
0100
0001
0100
0010
1000
0001
,
0100
0010
1000
0001
0010
0100
1001
0000
,
1000
0000
0001
0000
0100
0010
0100
0000
0001
0000
1000
0000
0010
0100
0010
1000
,
0001
1000
0000
0000
0001
0000
1000
0000
,
1001
0000
0000
0000
1001
0000
0000
0001
0000
0000
0100
0000
0110
0000
0000
0000
,
0010
0000
0000
0000
1010
0000
0000
1000
0000
0000
0001
0000
0101
0000
0000
0000
,
0100
0010
0000
1000
0000
0000
0001
1000
0000
0010
0000
1000
0000
0000
0000
0000
,
0001
0000
1000
0000
0010
0000
1000
0001
0000
1000
0010
0000
1000
0000
0001
0000
,
1001
0000
0000
0000
1010
0000
0000
0100
0000
0000
0001
0000
0101
0000
0000
0000
,
2000
0000
0000
0000
3010
0000
0000
0100
0000
0000
0001
0000
0101
0000
0000
0000
,
0010
0000
1000
0000
0010
0000
0000
0100
0000
0000
0001
0000
0100
0000
0000
0000
,
0010
0000
1000
0000
0001
0000
0000
1000
0000
0000
0001
0000
1000
0001
0000
0000
,
2000
0000
3002
0000
0103
0100
0010
1000
,
0000
0000
0001
0000
0000
0000
0000
0000
1000
0001
1000
0000
0001
0000
0000
0000
,
1000
0000
0001
0000
0100
0000
0001
1000
,
0000
0000
0010
0000
0000
0000
0000
0000
1000
0100
0010
0000
0001
0100
0010
0000
,
1001
0000
0000
0000
;

//--------------- dance-single - ----------------
#NOTES:
     dance-single:
     :
     Hard:
     10:
     0,0,0,0,0:
0000
0000
0000
0000
0000
0000
0000
0001
0000
1000
0000
0001
0000
1000
0000
0001
,
0100
0010
1000
0001
2000
3010
0200
0301
,
1000
0100
1000
0100
1000
0000
0001
0100
0000
0010
0000
1000
0000
0001
0000
1000
,
0001
0000
0100
0010
0100
0000
0000
0000
0001
0000
0100
0010
0000
1000
0010
0000
,
1010
0000
0100
0001
0000
0100
0000
0010
0000
0000
1000
0001
0100
0000
0001
1000
,
0010
1000
0010
0000
1100
0000
0000
0000
1000
0000
0010
1000
0000
0010
0100
0000
,
0100
0000
0001
0000
0101
0000
0100
0010
0100
0000
0010
1000
0000
1000
0010
0000
,
1000
0000
0001
0000
1001
0000
1000
0010
1000
0000
0010
0100
0001
0000
0100
0010
,
1000
0000
0100
0000
0010
0001
0010
0000
0100
0000
1000
0000
0001
0010
0100
1000
,
0010
0000
0100
0000
0000
0000
0001
1000
0001
0000
1000
0000
1010
0000
0010
0000
,
1001
0000
0000
0000
0110
0000
0000
1010
0000
0000
1000
0000
0001
0100
0000
0000
,
0002
0000
0003
0000
1001
0000
0000
1000
0000
0000
0010
0000
1000
0000
0000
0001
,
0100
0010
0000
1000
0010
0000
0100
0001
0000
0100
0000
0000
1010
0000
0000
0000
,
1000
0000
0001
0000
0101
0000
0100
0010
0200
0000
0000
0000
0310
0000
1010
0000
,
1100
0000
0000
0000
1001
0000
0000
0101
0000
0000
0000
0100
0010
0000
0010
1000
,
0200
0000
0300
0000
0011
0000
0000
0100
0000
0000
0010
0000
1010
0000
0000
1000
,
0001
1000
0010
1000
0001
0000
1000
0100
0000
0010
0001
0000
1100
0000
0010
0001
,
0100
0000
0000
0000
1010
0000
0000
1000
0000
0000
0010
0000
1000
0001
1000
0000
,
0001
0100
0010
1000
0100
1000
0001
0100
,
0010
0100
0001
0100
0100
0010
1000
0001
,
0001
0100
0010
1000
0001
0100
0000
0010
0000
1000
0000
0001
0100
0000
0100
0010
,
0000
0010
1000
0000
1010
0000
0100
0001
0100
0000
0010
1000
0000
0010
1000
0000
,
1001
0001
0100
1000
0010
0001
0101
0010
,
1000
0000
0001
0000
0101
0000
0100
0010
0100
0000
0010
1000
0000
0010
0100
0000
,
0010
0000
0100
0001
0000
0100
0000
0010
0000
1000
0000
0100
1000
0000
0001
0100
,
0010
0000
1000
0000
1100
0000
1000
0001
0100
0000
0010
1000
0000
0010
0100
0000
,
0010
0000
0100
0000
0101
0000
0001
0010
0001
0100
0000
0000
0010
0000
0010
0000
,
1000
0000
0100
0000
0011
0000
0001
0100
0001
0000
0010
0001
0100
0000
0010
1000
,
0100
0000
0010
0000
0001
1000
0001
0000
1000
0000
0100
0000
0010
0001
0010
0001
,
0100
0000
0010
0000
0000
0000
1000
0001
2000
0000
3020
0000
0230
0000
0301
0000
,
0101
0000
0000
0000
1001
0000
0000
1010
0000
0000
0000
0000
0100
0001
0000
0000
,
0200
0000
0300
0000
0110
0000
0000
0010
0000
0000
1000
0000
1010
0000
0000
1000
,
0001
1000
0000
0010
0100
0000
0001
0010
0000
0100
0000
0000
0011
0000
0000
0000
,
0102
0000
0100
0000
0103
0000
0010
1000
0000
0010
0100
0000
0101
0000
0110
0000
,
1001
0000
0000
0000
2001
0000
0000
3001
0000
0000
0100
0010
0100
0000
0001
0010
,
0000
0100
1000
0000
0101
0000
0000
0010
0000
0000
1000
0000
1001
0000
0000
0001
,
0100
0010
0100
0001
1000
0000
0100
0010
0000
0001
0100
0000
0010
0000
1000
0100
,
1000
0001
0000
0000
0101
0000
0010
1000
0000
0000
0010
0000
0010
0100
0000
0000
,
0002
0000
0000
0000
2003
0000
0000
0000
3010
0100
0010
0000
1000
0000
0001
0000
,
1000
0000
0100
0000
0010
0000
0000
0000
0001
1000
0001
0000
1010
0000
0000
0000
,
0200
0000
0320
0000
0230
0000
0310
1000
,
0001
0000
0100
0010
0100
0000
0000
0000
1000
0001
1000
0000
0010
0100
0010
0000
,
1001
0000
0000
0000
;

//--------------- dance-single - ----------------
#NOTES:
     dance-single:
     :
     Challenge:
     13:
     0.402987,0.526674,0.203168,0.054699,0,361,335,26,7,0,0,0.402987,0.526674,0.203168,0.054699,0,361,335,26,7,0,0:
0000
0000
0000
0000
0000
0000
0000
1000
0000
0100
0000
0010
0000
0001
0000
0100
,
0010
1000
0100
1000
0100
0010
0001
0100
0001
0010
0001
0010
0100
1000
0100
1000
,
0001
0100
0010
1000
0100
0010
0001
0100
0010
0100
0001
0100
0010
0100
0001
1000
,
0100
0010
0001
0100
0010
1000
0100
1000
0001
0010
0001
0100
0010
1000
0100
1000
,
1100
0000
0010
0001
0100
0010
1000
0100
1000
0001
0010
0001
1000
0100
0010
0001
,
0100
0001
0010
0001
1000
0010
0100
0001
1000
0100
0010
0001
0100
1000
0100
0001
,
1000
0010
0100
0001
1000
0100
0010
0001
0100
0001
0010
0100
1000
0010
0001
0010
,
1000
0100
0010
0001
0100
0010
1000
0100
1000
0001
0010
0001
1000
0100
0010
0001
,
1000
0100
1000
0010
1000
0100
1000
0010
0100
0001
0100
0010
1000
0001
1000
0001
,
1000
0010
0100
0001
0100
0010
1000
0100
1000
0010
0100
0001
1001
0000
1010
0000
,
2200
0000
3300
0000
2100
0000
0000
3002
0000
0000
0013
0000
0110
0100
0000
0000
,
2000
0000
3010
1000
1010
0000
0100
0001
0000
0001
0100
0000
0101
0000
0010
1000
,
1100
0100
0000
0010
0011
0000
0001
0100
0000
0100
0010
0000
0110
0000
0010
1000
,
0200
0000
0310
0000
0011
0000
0001
0100
0000
0100
0010
0000
1010
0000
1010
0000
,
1001
0000
0001
0100
0010
0000
0010
1000
0000
1000
0100
0010
0011
0000
0001
0100
,
0020
0000
1030
0001
1000
0000
0001
0100
0000
0100
0010
0000
1010
0100
0000
0001
,
1000
0100
0001
0100
0010
0000
0001
0100
0000
0100
0010
0000
1010
0000
1000
0100
,
0010
0001
0000
0010
0110
0000
0100
1100
0000
0000
1001
0000
0001
0100
0001
0100
,
0001
0010
0100
1000
0001
0010
0100
1000
0001
0010
0001
1000
0001
0010
0001
1000
,
0100
0000
1000
0000
0010
0000
0100
0000
0001
0000
1000
0000
0001
0100
0001
0100
0001
0000
1000
0000
0100
0000
0100
0000
0010
0000
0001
0000
1000
0010
1000
0010
,
1000
0010
0100
0001
0010
0001
0100
0010
1000
0100
0010
0001
0100
0010
1000
0100
,
1000
0001
0010
0100
1000
0010
0100
0001
0010
0001
0100
0010
0100
0001
0010
0001
,
1000
0010
0100
0001
0010
1000
0010
0001
0010
0100
1000
0010
0100
0001
0010
0100
,
1000
0010
0100
0001
1000
0100
0010
0001
1000
0100
1000
0010
1000
0100
0010
0001
,
0010
0001
0100
0010
1000
0100
1000
0001
0010
0100
1000
0010
1000
0010
1000
0100
,
0010
0001
0100
0010
1000
0100
1000
0100
1000
0010
0100
0001
0010
0100
1000
0010
,
0100
0001
1000
0100
0010
0001
0100
0010
1000
0001
0010
0100
1000
0010
0100
0001
,
0100
0010
1000
0100
1000
0100
0010
0001
0100
0010
1000
0100
0010
0001
0100
0010
,
2000
0000
0010
0000
3010
0100
0001
0000
1000
0000
1000
0000
0010
0100
0001
0010
,
0001
0000
0100
0010
1000
0100
0010
0001
0100
0000
0010
0000
1000
0000
0010
0000
,
1010
0000
1000
0010
1010
0000
0100
0001
0000
0001
0010
0000
0011
0001
0000
0000
,
0200
0000
0301
0100
0110
0000
0010
1000
0000
1000
0010
0000
1010
1000
0000
0010
,
0110
0100
0000
0001
0101
0000
0001
0100
0000
0100
0010
0000
1010
0000
0000
0000
,
1010
0000
1000
0000
0100
0000
0010
0010
0000
0100
0100
0000
1010
0000
0110
0000
,
0101
0000
0001
0010
0001
0000
0100
0010
0000
0010
1000
0010
1010
0000
0100
0001
,
0010
0001
0100
0010
0110
0000
0010
1000
0000
1000
0100
0000
1100
0010
0000
0001
,
0100
0010
1000
0010
0110
0000
0100
0001
0000
0001
0010
0000
0011
0000
0001
0100
,
0010
1000
0100
1000
1001
0000
0001
0100
0000
0100
0010
0000
1010
1000
0000
0010
,
0201
0000
0000
0301
0010
0000
0100
0010
0100
0010
0001
0000
0010
0100
0000
1000
,
0100
0000
0010
0001
0011
0000
0010
0000
0100
1000
0001
0100
0010
0000
1000
0000
,
0002
0000
0000
0103
0010
0000
1000
0100
0000
0010
0001
0000
0011
0000
0100
1000
,
0100
0000
0010
0001
0100
0000
0010
1000
0100
1000
0001
0000
0100
0010
0100
0000
,
1001
0000
0000
0000
;
