#TITLE:Let it Rain;
#SUBTITLE:;
#ARTIST:4 Strings;
#TITLETRANSLIT:;
#SUBTITLETRANSLIT:;
#ARTISTTRANSLIT:;
#GENRE:;
#CREDIT:;
#MUSIC:Let it Rain.ogg;
#BANNER:;
#BACKGROUND:;
#CDTITLE:;
#SAMPLESTART:7.836;
#SAMPLELENGTH:12.000;
#SELECTABLE:YES;
#OFFSET:-0.960;
#BPMS:0.000=137.120
,48.000=68.500
,72.000=137.120
;
#STOPS:;
#BGCHANGES:;
#FGCHANGES:;

//--------------- dance-single - ----------------
#NOTES:
     dance-single:
     :
     Beginner:
     2:
     0,0,0,0,0:
0000
0001
0000
1000
,
0000
0001
0000
0100
,
0000
0010
0000
1000
,
0000
0001
0000
1000
,
2000
0000
3000
0000
,
0002
0000
0003
0000
,
1000
0000
0001
0000
,
0100
0000
0010
0000
,
1000
0000
0001
0000
,
0100
0000
0010
0000
,
1000
0000
0100
0000
,
0010
0000
0100
0000
,
1001
0000
0000
0000
,
0001
0000
0000
0000
,
0100
0000
0000
0000
,
0100
0000
0000
0000
,
0010
0000
0100
0000
,
0001
0000
0100
0100
,
0100
0000
0010
0000
,
1000
0000
0001
0000
,
1000
0000
0100
0000
,
0010
0000
0001
0000
,
0100
0000
0010
0000
,
1000
0000
0000
0000
,
0001
0000
1000
0000
,
0010
0000
1000
0000
,
1001
0000
0010
0000
,
0100
0000
0001
0000
,
1000
0000
0010
0000
,
0100
0000
0001
0000
,
1001
0000
1000
0000
,
0001
0000
0100
0000
,
0010
0000
1000
0000
,
0100
0000
0010
0000
,
1001
0000
0001
0000
,
0100
0000
0010
0000
,
1000
0000
0001
0000
,
0100
0000
0010
0000
,
1001
0000
0000
0000
;

//--------------- dance-single - ----------------
#NOTES:
     dance-single:
     :
     Easy:
     5:
     0,0,0,0,0:
0000
0000
0000
0000
,
1000
0001
1000
0010
,
0200
0000
0000
0000
,
0310
1000
0001
1000
,
1001
0000
0000
0001
0000
1000
0000
0020
,
0000
0000
0030
0000
,
0100
0001
1000
0010
,
1000
0100
1000
0001
,
0100
0000
0000
0010
0000
1000
0000
0020
,
0000
0000
0130
0100
,
0010
0010
1000
0001
,
0100
0010
1000
0001
,
1001
2000
3000
0000
,
0200
0300
0000
0000
,
0010
2000
3000
0000
,
0010
0200
0000
0300
,
0010
1000
0001
0100
,
0010
0000
1000
0000
0100
0000
0010
0001
,
2000
0000
0000
0000
3010
0000
0000
0100
,
0000
0001
1000
0001
,
0200
0000
0000
0000
0310
0000
0000
1000
,
0000
0010
1000
0100
,
2000
0000
0000
0000
3001
0000
0000
0100
,
0000
0010
1000
0010
,
1000
0000
0000
0001
0000
0000
0200
0000
,
0000
0300
0010
1000
,
0002
0000
0000
0000
0203
0000
0000
0310
,
0000
0000
1000
0001
,
0200
0000
0000
0000
0310
0000
0000
1000
,
0000
0000
0001
1000
,
1002
0000
0000
0000
0103
0000
0000
0100
,
0000
0000
0010
0010
,
0200
0000
0000
0000
0301
0000
0000
0100
,
0000
0000
0010
1000
,
0002
0000
0000
0000
1003
0000
0000
0010
,
0000
0000
1000
0001
,
0100
0010
1000
0100
,
0010
0100
1000
1000
,
1001
0000
0000
0000
;

//--------------- dance-single - ----------------
#NOTES:
     dance-single:
     :
     Medium:
     7:
     0.309,0.339,0.059,0.154,0:
0000
0000
0000
0000
,
2000
3200
0320
0032
,
1003
0000
0001
0100
0010
0000
1000
0001
,
0200
0320
2030
3001
,
1001
0000
0000
0002
0000
0200
0000
0010
,
0000
0303
0000
0000
,
0001
0000
0000
2000
0002
0000
0010
0010
,
0000
3013
0000
0M00
0000
0M00
0000
0M00
,
0001
0000
1000
0010
0000
0010
0000
0010
,
1000
0001
0010
0000
0100
1000
0001
0000
,
1000
0000
0000
0000
0100
0000
0002
0200
,
0000
0010
0000
1000
0000
0010
0303
0000
,
0201
0000
0000
0000
0301
0000
0000
1000
0000
0000
0000
0000
0000
0000
0000
0000
,
0001
0000
0000
0000
0100
0000
0000
0010
0000
0000
0000
0000
0000
0000
0000
0000
,
0200
0000
0000
0000
0301
0000
0000
1000
0000
0000
0000
0000
0000
0000
0000
0000
,
0001
0000
0000
0000
1000
0000
0000
0010
0000
0100
0000
0001
0000
1000
0000
0010
,
1000
0000
0000
0001
0000
0100
0000
0010
0000
0000
1000
0000
0000
0010
0000
0000
,
0100
0000
0001
0100
0000
0010
0000
1000
0000
0100
0000
1000
0000
0000
0001
0000
,
2000
3200
2300
0200
,
0010
0001
0010
3301
,
0002
2003
3020
0200
,
1000
0001
1000
0331
,
0000
0000
0000
0002
0000
2000
0000
0020
,
0000
3033
0000
0000
,
1101
0000
0000
1011
,
0000
0000
0000
0000
1000
1000
0000
0001
,
2001
0000
0000
0000
0200
0000
0000
0001
,
0000
3300
0000
0000
,
0002
0000
0000
0000
0200
0000
0000
0010
,
0000
0303
0000
0000
,
2002
0000
0000
0000
0010
0000
0000
0010
,
3003
0000
1000
0001
,
2000
0000
0000
0000
0200
0000
0000
0010
,
0000
0001
0000
3310
0000
0000
0000
0000
,
1002
0000
0000
0000
0203
0000
0000
0310
,
0000
1000
0001
0100
,
2001
0000
0000
0000
0010
0000
0000
3010
,
0000
0000
1000
0000
0001
1000
0010
0000
,
1001
0000
0000
0000
;

//--------------- dance-single - ----------------
#NOTES:
     dance-single:
     :
     Hard:
     11:
     0.107,0.183,0.047,0,0:
0000
0000
0000
0000
,
1000
0100
0010
0001
0100
0010
1000
0001
,
2000
0000
3010
0200
0000
0301
0010
0100
,
1000
0010
0100
0001
1000
0100
0010
0000
,
1002
0000
0000
0000
0000
0000
0203
0000
0000
0000
0302
0000
0000
0000
0103
0010
,
0100
0001
1000
0100
1000
0001
0100
0010
,
0100
0010
1000
0001
1000
0000
0001
0000
0100
0000
0000
0000
0010
0000
2000
0000
,
0000
3002
0000
0203
0000
0320
0000
1030
,
0001
0010
0001
0010
0001
0000
2000
0000
0000
0000
3002
0000
0000
0000
1003
0000
,
0001
0010
0001
0000
0100
0000
0010
0000
1000
0100
0010
0000
0100
0000
1000
0000
,
0001
1000
0001
1000
0001
0000
0000
0000
0100
0000
0000
0000
0010
0000
0200
0000
,
0000
0302
0000
0103
0000
0100
0001
0000
,
1020
0000
0000
0000
2030
0000
0000
3001
0000
0000
0000
0000
MMMM
0000
0000
0000
,
0200
0000
0000
0000
0302
0000
0000
0103
0000
0000
0000
M000
0M00
00M0
000M
0000
,
1000
0000
0000
0010
0000
0010
0000
0200
0000
0000
0000
0000
0300
0000
0000
0000
,
0001
0000
0000
0000
1000
0010
0000
1000
0000
0100
0000
0010
0000
0001
0000
0000
,
1000
0100
1000
0001
0100
0010
1000
0100
0010
0100
1000
0000
0001
0100
0010
0000
,
1000
0000
0100
1000
0000
0010
0000
0100
0000
0001
0000
0100
0010
1000
0010
1000
,
0001
0000
1000
0100
1000
0000
0010
0000
0100
0000
0001
1000
0001
0000
0100
0000
,
0010
1000
0100
0010
0001
0010
0100
1000
,
0001
0000
1000
0010
1000
0000
0001
0000
0100
0000
0010
0000
1000
0000
0200
0000
,
0000
0320
0000
0032
0000
0103
0010
0000
,
1000
0100
0001
0100
1000
0010
0100
0001
,
0010
0100
1000
0010
0001
0010
1000
0100
,
0020
0000
0000
0032
0000
0000
1003
0010
,
0100
0001
1000
0100
0001
0100
0020
0032
,
0203
0000
0310
1000
0010
0000
0100
0001
,
1000
0100
0001
0100
1000
0001
0100
0010
,
0200
0000
0310
0001
0200
0000
0310
1000
,
0100
1000
0001
0010
0100
1000
0100
0010
,
0001
0000
1000
0001
1000
0000
0010
0000
1000
0000
0001
0100
0001
0000
0010
0000
,
0100
1000
0010
0100
0001
1000
0100
0010
,
0001
0100
0100
0010
1000
0100
0100
0010
,
0000
0001
0000
0100
0000
0010
0000
1000
,
0001
0010
1000
0010
0001
0100
0010
1000
,
0100
0010
0100
1000
0001
0100
0010
1000
,
0100
0010
0001
0100
0010
1000
0100
1000
,
0001
0010
0001
0100
0010
1000
0001
1000
,
1001
0000
0000
0000
;

//--------------- dance-single - ----------------
#NOTES:
     dance-single:
     :
     Challenge:
     16:
     0.443,0.47,0.226,0.226,0.03:
1000
0100
0010
0001
1000
0000
0001
0100
0010
1000
0100
0010
0001
0000
1000
0100
,
0010
0001
0010
0001
1000
0010
1000
0100
0010
0001
0100
0001
1000
0100
1000
0010
,
1000
0100
0010
0001
1000
0000
0001
0100
0010
1000
0001
1000
0010
0100
0001
0010
,
0100
1000
0001
0100
0010
1000
0001
0010
0001
0100
0010
1000
0100
1000
0001
0000
,
1001
0000
1000
0010
0100
0000
0001
0100
0010
0000
1000
0001
1000
0000
0001
0010
,
0100
1000
0001
0100
0001
0100
0010
1000
0100
1000
0001
0010
0001
0100
0010
1000
,
0001
0100
0001
0100
0001
0000
1000
0100
1000
0010
1000
0100
0010
0000
0001
0100
,
0001
0010
0100
1000
0001
0100
0010
1000
0100
0010
0001
1000
0010
0100
0001
1000
,
0001
0100
0001
0100
0001
0000
1000
0100
0010
0001
0100
0010
1000
0000
0001
0010
,
0001
1000
0010
0100
0010
1000
0001
0010
0001
1000
0010
0100
0010
1000
0001
1000
,
0001
0010
0001
0100
0010
0000
0100
0001
0010
0001
0100
0010
1000
0000
0001
0100
,
0010
1000
0010
0100
0001
1000
0100
0010
0100
1000
0001
0100
0010
0000
0000
0000
,
2MM1
0000
0000
0000
3002
0000
0000
2000
0000
0000
3003
0000
MMMM
0000
0000
0000
,
0020
0000
0000
0000
0230
0000
0000
0301
M000
0000
0000
000M
0000
0000
0M00
0000
,
0020
0000
0000
0M00
2030
0M00
0000
0M02
0000
0000
0000
0000
3003
0000
0000
0000
,
0001
0000
0000
0000
0100
0010
0000
1000
0000
0001
0000
1000
0000
0010
0000
1000
,
0001
0000
0100
0010
0100
0000
0010
1000
0010
0000
0100
0000
0001
0000
0100
0000
0010
0000
1000
0001
0100
0001
1000
0100
1000
0000
0001
0010
0100
1000
0010
0100
,
0002
0000
0000
0000
0010
0000
0013
0000
0000
0000
0100
0010
0100
0000
1000
0000
0000
0000
0001
0000
0010
0000
0100
0010
0001
0000
0100
0010
1000
0001
1000
0001
,
1000
0000
0010
1000
0010
0000
2000
0000
3200
0000
0320
0000
0032
0000
2003
0000
,
3100
0000
1000
0010
0100
0000
0001
0100
0010
0000
1000
0001
1000
0000
0010
1000
,
0010
0000
0100
0001
0100
0000
0020
0000
0000
0000
2030
0000
0000
0000
30M2
0000
,
0000
0000
M203
0000
0000
0000
032M
0000
0000
0000
1M30
0001
1000
0000
0001
0100
,
0010
0000
1000
0001
0100
0000
0010
0000
1010
0000
1000
0001
0100
0000
0110
0000
,
0010
0000
0100
0001
0100
0000
0010
1000
0010
0000
0100
0001
0100
0000
0010
1000
,
0100
0000
0010
0001
0100
0000
0010
0000
1010
0000
1000
0001
0100
0000
0110
0000
,
0010
0000
1000
0100
0010
0100
1000
0001
0100
0010
1000
0100
1000
0001
0010
0001
,
0010
0000
0100
1000
0001
0000
1000
0000
1100
0000
0100
0010
0001
0000
1000
0100
,
0010
0001
0010
0001
1000
0010
1000
0100
0010
0001
0100
0010
1000
0001
1000
0001
,
1000
0000
0010
0100
0001
0000
0100
0000
0101
0000
0010
1000
0001
0000
0100
0010
,
1000
0100
1000
0001
0010
0100
1000
0010
0100
0001
1000
0100
0010
0000
0400
0000
,
0310
0000
0001
0010
0001
0000
0100
0000
0020
0000
1030
0001
1000
0000
0010
0100
,
0001
0010
0001
0100
0010
1000
0100
0010
0001
0100
0010
1000
0100
0010
0001
1000
,
0020
0000
0130
0010
1000
0000
0010
0000
2000
0000
3010
0100
0010
0000
1000
0100
,
0010
0001
0100
0010
1000
0100
1000
0010
0100
0001
0100
0010
1000
0001
1000
0100
,
0020
0000
0130
0010
0100
0000
0010
0000
0200
0000
1300
0001
0100
0000
0010
1000
,
0100
1000
0001
0010
0100
1000
0010
0100
0001
0010
0100
1000
0010
1000
0100
1000
,
0001
0000
0100
0010
1000
0100
0010
0001
0200
0000
0310
0100
0010
0100
0001
1000
,
0010
0000
0000
0100
0000
0000
0001
0000
0000
0010
0000
0000
0100
0000
0000
0010
0000
0000
0001
0000
0000
1000
0000
0000
0010
0000
0000
0100
0000
0000
0001
0000
0000
1000
0000
0000
0001
0000
0100
0000
0010
0000
1000
0000
0010
0000
0100
0000
,
0010
0000
0000
0000
;
