#TITLE:Left, Right;
#SUBTITLE:;
#ARTIST:Crispy;
#TITLETRANSLIT:;
#SUBTITLETRANSLIT:;
#ARTISTTRANSLIT:;
#GENRE:;
#CREDIT:;
#MUSIC:Left Right.ogg;
#BANNER:;
#BACKGROUND:;
#CDTITLE:;
#SAMPLESTART:74.218;
#SAMPLELENGTH:12.000;
#SELECTABLE:YES;
#OFFSET:0.217;
#BPMS:0.000=138.000
,100.000=69.000
,103.000=138.000
;
#STOPS:100.000=0.870;
#BGCHANGES:;
#FGCHANGES:;

//--------------- dance-single - ----------------
#NOTES:
     dance-single:
     :
     Beginner:
     2:
     0.072,0.11,0.038,0,0,49,4,0,0,0,0,0.072,0.11,0.038,0,0,49,4,0,0,0,0:
0000
0000
0000
0000
,
1000
0000
0000
0000
,
0001
0000
0000
0000
,
1000
0000
0001
0000
,
0000
0000
0000
0000
,
1000
0000
0000
0000
,
0001
0000
0000
0000
,
1000
0000
0001
0000
,
0000
0000
0000
0000
,
1000
0000
0000
0000
,
0001
0000
0000
0000
,
1000
0000
0000
0000
,
0001
0000
0000
0000
,
0010
0000
0000
0000
,
0100
0000
0000
0000
,
0001
0000
1000
0000
,
0001
0000
0000
0000
,
1000
0000
0001
0000
,
1000
0000
0000
0000
,
0001
0000
0000
0000
,
0000
1000
0001
0000
,
0010
0000
0000
0000
,
0100
0000
0000
0000
,
0010
0000
0000
0000
,
0000
1000
0001
0000
,
0000
1000
0001
0000
,
0000
0000
0000
1000
,
0000
0000
0000
0001
,
0000
0000
0000
1000
,
0000
0000
0000
0010
,
0000
0000
0000
0100
,
0000
0000
0000
0010
,
0000
0000
0000
0001
,
0000
0000
0000
1000
,
0000
0000
0000
0001
,
0000
0000
0000
1000
,
0000
0000
0000
0100
,
0000
0000
0000
0010
,
0000
0000
0000
0100
,
0000
0000
0000
1000
,
0000
0000
0000
0001
,
0000
0000
0000
1000
,
0000
0001
0000
0000
,
0000
0000
0000
0000
,
0000
0000
0000
0000
,
1000
0001
0000
0000
,
0000
0000
0000
0000
,
0000
0000
0000
0000
,
0000
0000
0000
0000
,
1000
0001
0000
1000
,
0000
0001
0000
0000
,
0000
0000
0000
0000
,
0000
0000
0000
0000
,
1000
0001
0000
0010
,
0000
0100
0000
0010
,
0000
0001
0000
1000
,
0000
0001
0000
0000
,
1000
0001
0000
1000
,
0000
0001
0000
0000
;

//--------------- dance-single - ----------------
#NOTES:
     dance-single:
     :
     Easy:
     5:
     0.269,0.333,0.095,0.228,0,164,10,24,0,0,0,0.269,0.333,0.095,0.228,0,164,10,24,0,0,0:
0000
0000
0000
0000
,
1000
0000
0000
0000
,
0001
0000
0000
0000
,
1000
0000
0001
0000
,
0010
0000
0001
0000
,
1000
0000
0000
0000
,
0001
0000
0000
0000
,
1000
0000
0001
0000
,
1000
0000
0010
0000
,
1000
0001
1000
0000
,
0001
1000
0001
0000
,
1000
1000
0001
0000
,
0001
0001
1000
0000
,
0010
0010
0010
0000
,
0100
0100
0100
0000
,
1000
0001
1000
0001
,
1000
0000
0000
0001
,
1000
0000
0001
0000
,
1000
1000
0010
0000
,
0100
0100
0010
0100
,
0000
1000
0001
0000
,
0010
0001
0100
0010
,
1000
0100
0010
0001
,
0100
0010
1000
0100
,
0010
1000
0001
0000
,
1000
1000
0001
1000
,
0001
0100
0010
1000
,
0100
0010
0100
1000
,
0001
0100
0010
1000
,
0100
0010
0100
1000
,
0001
0100
0010
0100
,
0001
1000
0010
0100
,
0001
1000
0100
0010
,
0000
0010
0000
0001
,
1000
0001
0000
0100
,
0010
0100
0000
1001
,
0000
1001
0000
1000
,
0001
1000
0000
0010
,
0010
0010
0000
0100
,
0000
0001
0000
1000
,
0001
0001
0000
0001
,
0001
1000
0000
1000
,
0000
0001
0000
1000
,
0001
0100
0000
0010
,
0010
0010
0000
0000
,
1000
0001
0000
1000
,
0010
0010
0000
0100
,
0001
0001
0000
1000
,
0001
1000
0000
0000
,
1000
0001
0000
1000
,
0000
0001
0000
1000
,
0100
0010
0001
0100
,
0100
0010
0010
0000
,
1000
0001
0000
1000
,
0100
0010
0001
1000
,
0010
0100
0001
1000
,
1000
0001
0001
0001
,
1000
0001
0000
1000
,
0000
0001
0000
0000
;

//--------------- dance-single - ----------------
#NOTES:
     dance-single:
     :
     Medium:
     8:
     0.411,0.444,0.275,0.076,0,266,29,8,0,0,0,0.411,0.444,0.275,0.076,0,266,29,8,0,0,0:
0000
0000
0000
0000
,
1000
1000
1000
1000
,
0001
0001
0001
0001
,
1000
1000
0001
0001
,
1000
0010
0100
0001
,
1000
1000
1000
1000
,
0001
0001
0001
0001
,
1000
1000
0001
0001
,
1000
0000
0001
0000
0100
0000
0001
0001
,
1000
0000
0100
0000
1000
0000
1000
1000
,
0001
0000
0100
0000
0010
0000
1000
0001
,
1000
0001
0000
0000
0000
1000
0001
1000
,
0001
1000
0001
1000
0000
0000
0010
0010
,
0010
0000
0100
0000
0001
0000
0100
0100
,
0100
0000
0010
0000
1000
0000
0100
0010
,
0001
0000
0010
0000
0100
0000
1000
0001
,
0200
0000
0000
0000
0310
0000
0001
0001
,
1000
0000
1000
1000
0001
0000
0000
0000
,
0100
0010
0100
0010
0000
1000
0000
0000
,
0100
0010
0001
0100
0010
1000
0001
0000
,
0000
0000
1000
0000
0001
0000
0100
0010
,
0100
0001
0100
0010
0100
0000
0000
0000
,
0001
1000
0001
1000
0000
0010
0000
0000
,
1000
0100
0000
1000
0100
0000
0010
0000
,
0001
1000
0001
1000
,
1001
1000
0001
1000
,
0100
1000
0000
0100
1000
0000
0010
0000
,
0100
0010
0000
0100
0010
0000
1000
0000
,
0001
0100
0000
0010
1000
0000
0100
0000
,
0010
0001
0000
0100
0010
0000
1000
0000
,
0100
0010
0000
0100
1000
0000
0001
0000
,
0100
0010
0000
1000
0100
0000
0010
0000
,
0100
1000
0000
0001
0100
0000
0010
0000
,
1000
0100
0010
0001
0100
0000
1010
0000
,
1000
0000
0010
1000
0010
0000
0100
0000
,
0001
0000
0010
0001
0010
0000
0001
0000
,
1000
0000
0010
1000
0010
0000
0100
0000
,
0001
0000
1000
0001
1000
0000
0010
0000
,
0100
0000
0001
0010
0001
0000
1000
0000
,
0010
0000
0100
0001
0100
0000
0010
0000
,
1000
0000
0100
0010
0100
0000
1000
0000
,
0001
0000
0100
0010
0100
0000
1000
0000
,
0001
0000
0001
0000
0000
0000
1000
0001
,
1000
0001
0000
1000
0000
0000
0010
0100
,
0010
0100
0010
0000
1000
0000
0000
0000
,
1000
0000
0001
0000
0100
0010
0100
0000
,
0001
1000
0001
0100
0010
0000
1000
0100
,
1000
0100
0000
0010
0000
0000
0001
0000
,
0100
0010
0100
0000
0001
0000
1000
0000
,
1000
0001
1000
1010
,
1000
0000
0101
0000
0001
0000
0100
0010
,
0100
0010
0000
1000
0000
0000
0001
0100
,
0001
0100
0001
0000
1000
0000
0010
0000
,
1000
0000
0001
0000
0100
0010
0100
0000
,
0001
1000
0001
0000
1000
0000
0100
0010
,
0100
0010
0000
0100
0000
0000
0001
1000
,
0001
1000
0001
0000
0100
0000
0010
0000
,
1000
0001
0000
2000
,
3000
0001
0000
0000
;

//--------------- dance-single - ----------------
#NOTES:
     dance-single:
     :
     Hard:
     11:
     0.533,0.666,0.133,0.351,0.152,342,14,37,26,0,0,0.533,0.666,0.133,0.351,0.152,342,14,37,26,0,0:
0000
0000
0000
0000
,
2000
0000
3000
0000
,
0002
0000
0003
0000
,
1000
0100
1000
0100
0001
0100
0001
0100
,
1000
0010
0020
0000
0130
0001
0002
0000
,
1003
0100
1000
0100
1000
0010
0100
0000
,
0001
0010
0001
0010
0001
0100
0010
0000
,
1000
0100
1000
0100
0001
0100
0001
0100
,
1000
0010
0020
0000
0130
0001
0010
0100
,
2000
0000
3100
0000
0100
0000
0100
0010
,
0002
0000
0013
0100
0000
0000
1000
0001
,
0100
0010
1000
0100
0000
0010
0001
1000
,
0001
0100
0010
1000
0000
0000
0001
0100
,
0010
0010
0010
0010
0000
0000
0100
0001
,
0100
0100
0100
0100
0000
0000
1010
1000
,
0020
0000
0230
0000
0302
0000
1003
0010
,
0100
0001
0100
0010
1000
0100
0010
0100
,
1000
0010
0010
0100
0001
0010
0100
1000
,
0100
0010
0001
0100
0010
1000
0100
0010
,
0001
0001
0100
0010
0010
1000
0100
0000
,
0000
0000
1000
0000
0001
0100
0010
1000
,
0100
0010
0001
0100
0010
1000
0100
0010
,
0100
1000
0001
0100
0010
0100
0001
0100
,
0010
0010
0100
0001
0001
0100
0010
0000
,
1000
0000
1000
0000
0001
1000
0010
0000
,
1010
0000
2000
3000
0002
0003
1000
0100
,
0100
0010
0001
0001
0100
0010
1000
0100
,
0100
0010
0001
0001
0100
0010
1000
0100
,
0100
0010
0001
0001
0100
0010
1000
0100
,
0100
0010
0001
0001
0100
0010
1000
0100
,
0100
0010
0001
0001
0100
0010
1000
0100
,
0100
0010
0001
0001
0100
0010
1000
0100
,
0100
0010
0001
0001
0100
0010
1000
0100
,
0100
1000
0010
0010
0100
0001
1000
0100
,
1000
0000
0010
0000
0100
0010
0100
0000
0010
0000
1000
0000
0001
0000
0100
0000
,
0010
0000
1000
0000
0100
0010
0100
0000
1000
0000
0001
0000
0100
0000
0010
0000
,
1000
0000
0001
0000
0100
0010
0100
0000
0010
0000
1000
0000
0010
0000
0100
0000
,
0001
0000
1000
0000
0010
0100
0010
0000
1000
0000
0001
0000
0100
0000
0010
0000
,
1000
0000
0100
0000
0010
0100
0010
0000
0100
0000
0010
0000
0100
0000
1000
0000
,
0010
0000
0100
0000
0001
0100
0010
0000
1000
0000
0010
0000
0100
0000
0001
0000
,
1000
0000
0100
0000
0010
0000
0001
0100
0010
0000
1000
0000
0100
0000
0010
0000
,
0001
0010
0100
1000
0001
0100
1000
0000
,
1000
0100
0001
0000
0110
0000
0100
0001
,
0100
0010
1000
0100
0010
0001
0100
0100
,
0010
1000
1000
0001
0100
0000
1010
0000
,
1000
0000
0001
0001
1000
0010
0100
0001
,
0001
0100
0010
0000
1010
0000
1000
0001
,
0100
0010
1000
0010
0100
0001
0010
0010
,
0100
1000
1000
0001
0100
0000
0110
0000
,
1000
0000
0001
0000
1000
0001
2000
0000
,
3001
1000
0002
0000
0013
0000
0100
0010
,
0001
0010
0100
1000
0010
0100
0001
0001
,
0100
0010
0010
1000
0100
0000
1100
0000
,
1000
0000
0001
0100
0010
1000
0100
1000
,
0100
1000
0010
0100
0010
0100
0001
0010
,
0001
1000
0010
0100
0001
0100
0010
0010
,
0100
0001
0001
1000
0010
0000
1001
0000
,
1000
0001
0000
1000
,
0000
0001
0000
0000
;

//--------------- dance-single - ----------------
#NOTES:
     dance-single:
     :
     Challenge:
     16:
     0.73,0.889,0.114,0.047,0.494,521,12,5,0,0,0,0.73,0.889,0.114,0.047,0.494,521,12,5,0,0,0:
0000
0000
0000
0000
,
2000
3100
0010
0001
0100
0010
0100
0100
,
0002
0103
0010
1000
0100
0010
0001
0100
,
2000
3100
0001
0010
0002
0103
0010
0100
,
0001
1000
1000
0100
0010
0001
0001
0100
,
2000
3100
0001
0100
0010
1000
0100
0010
,
0002
0103
0010
1000
0100
0010
0001
0001
,
2000
3100
1000
0100
0002
0103
0010
0001
,
1000
0010
0010
0100
0001
0010
0010
0100
,
2000
3010
0100
0001
0100
0010
1000
0100
,
0002
0103
0010
0001
0100
0010
1000
0100
,
0010
0001
0100
0010
1000
0001
0010
0100
,
1000
0010
0100
0001
0010
0001
1000
0100
,
0010
0010
0010
0010
0100
1000
0001
0010
,
0100
0100
0100
0100
0010
0001
0100
0010
,
1010
0000
1001
0000
0101
0000
0100
0001
,
1000
0100
0010
0001
0100
0010
1000
0100
0010
0001
1000
0010
0100
0001
1000
0100
,
1000
0010
0100
0001
1000
0100
1000
0100
0001
0100
1000
0010
0100
0001
1000
0100
,
0010
0001
0100
0010
0100
0001
0010
0100
1000
0001
0100
0010
0100
0001
1000
0100
,
0010
0001
0100
0010
1000
0100
1000
0010
1000
0001
0100
0010
1000
0100
0010
0001
,
1000
0010
0100
0001
1000
0100
1000
0100
0001
0100
0010
0001
0100
0010
1000
0100
,
0010
0100
1000
0001
0100
0010
0100
0001
1000
0100
1000
0001
0100
0010
1000
0100
,
0010
0001
0100
0010
0100
0001
1000
0010
0100
0001
0010
0001
0100
0010
1000
0001
,
0010
0100
0010
0001
0100
0010
1000
0100
0010
0001
0100
0010
0100
0001
1000
0100
,
0010
0001
0100
0010
1000
0000
0000
0000
0001
0000
0100
0000
0100
0000
0000
0000
,
MM1M
0000
2000
3000
0002
0003
1000
0100
,
01M0
0001
0010
0M10
1000
0001
1000
0100
,
M100
0010
1000
100M
0100
0001
1000
0010
,
0M10
0001
0100
01M0
1000
0001
0010
0100
,
M100
0001
0010
001M
1000
0100
1000
0010
,
0M10
0001
0100
010M
0010
0001
0100
0010
,
M010
0001
0100
01M0
1000
0010
1000
0100
,
M100
0000
0001
0000
0100
0000
M100
0000
0010
0000
0001
0000
1000
0010
0100
0001
,
1000
0100
0010
0100
1000
0001
0100
0010
0100
0001
1000
0001
2000
0000
3100
0000
,
2000
0000
3010
0000
0100
0001
0100
0000
0010
0000
0100
0000
0002
0000
0013
0000
,
2000
0000
3010
0000
0001
0100
0010
0000
1000
0000
0100
0000
0020
0000
0031
0000
,
0200
0000
0310
0000
0100
0001
0010
0000
0100
0000
1000
0000
0002
0000
0013
0000
,
2000
0000
3010
0000
0001
1000
0001
0000
0100
0000
0010
0000
2000
0000
3100
0000
,
0002
0000
0103
0000
1000
0001
1000
0000
0001
0000
0100
0000
0020
0000
1030
0000
,
0200
0000
0310
0000
0100
0010
0001
0000
0100
0000
0010
0000
2000
0000
3001
0000
,
0200
0000
0310
0000
0100
0010
0100
0000
0001
0000
0001
0000
2000
0000
3100
0000
,
0002
0103
1000
0010
0100
0001
2000
3010
,
0100
0100
0002
0103
0101
0010
1000
0100
,
0010
0002
0000
1003
1001
0001
0100
0100
,
0010
1000
1000
0100
0010
0000
0011
0000
,
1000
0000
0001
0100
0010
1000
0100
0010
,
0001
0100
0020
0030
0110
0000
0100
0010
,
0100
0010
0000
0100
0010
0000
0100
0100
,
0001
0010
0100
1000
0001
0000
1000
0001
,
1000
0000
0001
0000
1000
0001
2000
0000
,
3001
1000
0002
0000
0103
0000
0100
0010
,
1000
0020
0000
0130
0000
0000
0001
0001
,
0100
0010
0010
1000
0100
0000
0110
0000
,
1000
0000
0000
0000
0001
0000
0100
0000
0010
0000
1000
0000
0010
1000
0001
0100
,
0010
1000
0100
0010
0100
1000
0001
0100
0010
1000
0001
0010
0001
1000
0100
1000
,
0001
0100
0010
0100
0001
0010
0100
0010
0001
0100
0010
0100
0001
0010
0001
0100
,
0001
0010
0100
0010
0001
0100
0010
1000
0100
0010
0001
0100
0001
0000
0000
0000
,
1000
0001
0000
1000
,
0000
0001
0000
0000
;

//--------------- dance-double - ----------------
#NOTES:
     dance-double:
     :
     Challenge:
     16:
     0,0,0,0,0:
00000000
00000000
00000000
00000000
,
00010000
01000000
00100000
10000000
00010000
01000000
00001000
00010000
,
00000100
00001000
00000010
00000100
00000001
00000010
00000100
00010000
,
01000000
00100000
00010000
00100000
00000010
00001000
00000001
00000100
,
00000010
00001000
00001000
00000100
00010000
01000000
01000000
00100000
,
10000000
01000000
00010000
01000000
10000000
00001000
00010000
00000100
,
00001000
00000100
00000001
00000100
00000010
00000100
00001000
00010000
,
00100000
10000000
00100000
00010000
00001000
00000100
00000010
00000100
,
00000001
00000100
00000100
00001000
00000100
00010000
00010000
00001000
,
00110000
00010000
10000000
00100000
01000000
00010000
10000000
00010000
,
00001000
00000001
00001000
00000100
00000010
00000001
00000100
00000010
,
00001000
00000001
00000010
00000100
00010000
00001000
00010000
00001000
,
00010000
00001000
00001000
00010000
00000100
00001000
00001000
00010000
,
00000010
00100000
00000010
00100000
00000010
00010000
00001000
00010000
,
00000100
01000000
00000100
01000000
00001000
00010000
00001000
01000000
,
00010000
10000000
01000000
10000000
00010000
00100000
00001000
00010000
,
00001000
00010000
00000100
00001000
00000001
00000010
00000100
00010000
00001000
00010000
00000100
00001000
00000010
00010000
00001000
01000000
,
00100000
10000000
01000000
00100000
00001000
00010000
00000100
00001000
00000001
00000100
00000010
00001000
00000001
00001000
00000100
00001000
,
00000001
00000100
00000010
00001000
00000100
00010000
00001000
00010000
00000010
00000100
00000001
00010000
00000100
00001000
00000010
00010000
,
00001000
00010000
00000100
00001000
00000010
00010000
00001000
00100000
00001000
00010000
00000100
00010000
00000010
00000100
00000010
00010000
,
00001000
00100000
00010000
10000000
01000000
00100000
00001000
00010000
00000010
00000100
00000001
00000100
00000010
00010000
00001000
00100000
,
00001000
01000000
00100000
10000000
01000000
00100000
01000000
10000000
00100000
01000000
00001000
00010000
00001000
01000000
00100000
10000000
,
00010000
00100000
00001000
00100000
00001000
00010000
00000100
00001000
00000010
00001000
00000100
00000010
00000001
00001000
00000100
00001000
,
00000010
00001000
00000100
00010000
00001000
00100000
00010000
10000000
01000000
00100000
00001000
00010000
00001000
01000000
00100000
10000000
,
00010000
00100000
00000010
00010000
,
00010000
00000000
00100000
00000000
00000100
00000000
00010000
00001000
,
00001000
00010000
00000100
00000100
00010000
00001000
00100000
00010000
,
00010000
10000000
01000000
01000000
00100000
00010000
00100000
00001000
,
00001000
00010000
00000100
00000100
00001000
00000010
00000100
00000001
,
00000001
00000100
00000010
00000010
00001000
00000100
00010000
00010000
,
00001000
00100000
00100000
00010000
01000000
00100000
10000000
01000000
,
01000000
10000000
00100000
00100000
01000000
00010000
00100000
00001000
,
00001000
00000000
00010000
00000000
00000100
00000000
00000100
00000000
00001000
00000000
00000010
00000000
00000100
00000001
00001000
00000100
,
00010000
00001000
00010000
00000010
00010000
00001000
00100000
00010000
10000000
01000000
10000000
00100000
01000000
00000000
00010000
00000000
,
00100000
00000000
00000010
00000000
00001000
00000001
00001000
00000000
00000100
00000000
00010000
00000000
00001000
00000000
01000000
00000000
,
00010000
00000000
00100000
00000000
00001000
00010000
00001000
00000000
00010000
00000000
00001000
00000000
00010000
00000000
00000010
00000000
,
00000100
00000000
00000001
00000000
00010000
00001000
00010000
00000000
00000100
00000000
00010000
00000000
00001000
00000000
01000000
00000000
,
00010000
00000000
10000000
00000000
00010000
01000000
00010000
00000000
00100000
00000000
00001000
00000000
00010000
00000000
00000100
00000000
,
00001000
00000000
00000010
00000000
00000100
00000001
00000100
00000000
00000010
00000000
00001000
00000000
00001000
00000000
00000100
00000000
,
00010000
00000000
00001000
00000000
01000000
00100000
01000000
00000000
00001000
00000000
01000000
00000000
00100000
00000000
10000000
00000000
,
00100000
00000000
10000000
00000000
00010000
10000000
00010000
00000000
00100000
00000000
00001000
00000000
00010000
00000000
00000100
00000000
,
00001000
00000000
00000001
00000000
00000100
00000010
00001000
00000000
00000100
00000000
01000000
00000000
00010000
00000000
01000000
00000000
,
00001000
00000000
00010000
00000000
00000100
00001000
00000010
00000000
00000100
00000000
00000001
00000000
00000100
00000000
00000010
00000000
,
00001000
00000000
00000100
00000000
00010000
00001000
00010000
00000000
00001000
00000000
01000000
00000000
00100000
00000000
00100000
00000000
,
10000000
00100000
00100000
01000000
00010000
00000000
10000000
00010000
,
00100000
00000000
00000010
00001000
00000010
00000100
00000001
00000100
,
00001000
00010000
00100000
10000000
00100000
01000000
10000000
00100000
,
01000000
00001000
00010000
00000100
00100000
00001000
00010000
00010000
,
00001000
00100000
00100000
00010000
10000000
00000000
00010000
01000000
,
00100000
00000000
00000010
00000000
00100000
00010000
10000000
00000000
,
00010000
00000000
00100000
00000000
00000010
00001000
00000010
00000000
00001000
00000000
00000010
00000000
00001000
00000000
00000010
00000000
,
00010000
00000000
00001000
00000000
00100000
00010000
00100000
00000000
00010000
00000000
10000000
00000000
01000000
00000000
01000000
00000000
,
10000000
00100000
01000000
00010000
10000000
00000000
00010000
01000000
,
00100000
00000000
00000000
00000000
00000010
00000000
00001000
00000000
00000010
00000000
00000000
00000000
00010000
00001000
00010000
00001000
,
01000000
00100000
10000000
01000000
00100000
00001000
00010000
00000100
00100000
00001000
00010000
00001000
01000000
00010000
00100000
00001000
,
01000000
00100000
00010000
00100000
00000100
00001000
00000001
00000100
00000010
00010000
00001000
00100000
00010000
01000000
00100000
10000000
,
01000000
00100000
00010000
00100000
01000000
10000000
00100000
01000000
00001000
00010000
00000100
00001000
00000010
00000000
00000000
00000000
,
00100000
00000010
00000000
01000000
,
00000000
00000001
00000000
00000000
;
