#TITLE:Kill the Lights;
#SUBTITLE:;
#ARTIST:The Birthday Massacre;
#TITLETRANSLIT:;
#SUBTITLETRANSLIT:;
#ARTISTTRANSLIT:;
#GENRE:;
#CREDIT:;
#MUSIC:Kill The Lights.ogg;
#BANNER:;
#BACKGROUND:;
#CDTITLE:;
#SAMPLESTART:80.829;
#SAMPLELENGTH:12.000;
#SELECTABLE:YES;
#OFFSET:2.090;
#BPMS:0.000=145.000
,71.000=72.500
,86.000=145.000
,184.000=72.500
,199.000=145.000
;
#STOPS:;
#BGCHANGES:;
#FGCHANGES:;

//--------------- dance-single - ----------------
#NOTES:
     dance-single:
     :
     Beginner:
     3:
     0,0,0,0,0:
0000
0000
0000
0000
,
0000
0000
0000
0000
,
0000
1000
0000
0001
,
0000
0100
0000
0000
,
0000
0000
0001
0000
,
1000
0000
0001
0000
,
0000
0000
0100
0000
,
0010
0000
1000
0000
,
0000
0000
0001
0000
,
1000
0000
0000
0000
,
0001
0000
0001
0000
,
1000
0000
0000
0000
,
0001
0000
0100
0000
,
0010
0000
1000
0000
,
0100
0000
1000
0000
,
0000
0000
0000
0000
,
0010
0000
1000
0000
,
0001
0000
0000
1001
,
0000
1000
0000
0010
,
0000
0100
0000
0110
,
0000
1000
0000
0001
,
0000
0100
0000
0000
,
0001
0000
1000
1000
,
0000
0010
0000
0100
,
0000
0000
0000
0001
,
0001
0000
1000
1000
,
0000
0000
0000
0010
,
0010
0000
1000
1000
,
0000
0010
0000
0000
,
0000
0000
1000
0000
,
1001
0000
0001
0000
,
0100
0000
0010
0000
,
1000
0000
0001
0000
,
0100
0000
0010
0000
,
1001
0000
0100
0000
,
0010
0000
1000
0000
,
0100
0000
0010
0000
,
0001
0000
0100
0000
,
0010
0000
1000
0000
,
0100
0000
0010
0000
,
0001
0000
0100
0000
,
0010
0000
1000
0000
,
1001
0000
0100
0000
,
0100
0000
0010
0000
,
1000
0000
0001
0000
,
1000
0000
0010
0000
,
1001
0000
0100
0000
,
0001
0000
1000
0000
,
0110
0000
0100
0000
,
0010
0000
1000
0000
,
0000
1001
0000
0010
,
0000
0100
0000
0001
,
0001
0000
0000
1000
,
0000
0010
0000
0100
,
0100
0000
0010
0000
,
1000
0000
0010
0000
,
0100
0000
0010
0000
,
1000
0000
0000
0010
,
0000
0110
0000
0000
;

//--------------- dance-single - ----------------
#NOTES:
     dance-single:
     :
     Easy:
     4:
     0.206,0.24,0.016,0.063,0:
0000
0000
0000
0000
,
0000
0000
0000
0000
,
1000
0001
1000
0001
,
0001
0100
0100
0010
,
1000
0000
0001
0100
,
0010
1000
0001
0010
,
0100
0000
1000
0001
,
0100
0010
1000
0001
,
0010
0000
0100
1000
,
0001
0100
0010
0000
,
0000
1000
0001
1000
,
1000
0100
0100
0001
,
0001
0000
0001
0100
,
1000
0001
1000
0001
,
0100
0000
0010
1000
,
0001
1000
0100
0010
,
0001
0100
0010
1000
,
0001
0000
0000
1001
,
1000
1000
0000
0001
0000
0100
0000
0000
,
0000
0010
1000
0100
0001
0100
0000
0000
,
1000
1000
0000
0001
0000
0100
0000
0000
,
0000
0001
1000
0001
0100
0000
0001
0000
,
0000
0000
1000
0002
,
0000
0003
0200
0000
0000
0300
0010
0000
,
0000
0000
0000
1000
,
0001
0100
0010
0010
,
0000
0000
0000
1000
,
0100
0001
0100
1000
,
1000
0001
0000
1000
,
0000
0001
0000
2000
,
0000
3001
0000
0100
,
0000
0010
0000
1000
,
0000
0001
1000
0001
,
0100
0000
0000
0000
0000
0000
0000
0010
,
0000
0000
1000
0001
,
1000
0000
0000
0000
0000
0000
0000
0100
,
0000
0010
0001
1000
,
0001
0000
0000
1000
0000
0100
0000
1000
,
0000
0000
0001
0100
,
1000
0000
0001
0100
,
1000
0000
0001
0010
,
0100
0000
0001
0010
,
0100
0000
1000
0001
,
1000
0000
0100
0010
,
0100
0000
0000
0001
0000
0000
0000
1000
,
0000
0000
0000
0100
0000
0000
0000
0010
,
0000
1000
0001
1000
,
0010
1000
0001
0100
,
0010
1000
0002
0003
,
2000
3000
0200
0300
,
0000
0010
0001
0001
,
0100
0100
1000
1000
,
0100
0000
0001
0001
,
0010
0010
1000
1000
,
0010
0000
0001
0000
,
1000
0000
0001
0000
,
0100
0000
0010
1000
,
0001
0100
0100
0010
,
0010
2002
0000
0000
,
0000
0000
0000
0000
,
0000
0000
0000
0000
,
3003
0000
0000
0000
;

//--------------- dance-single - ----------------
#NOTES:
     dance-single:
     :
     Medium:
     7:
     0.317,0.39,0.024,0.205,0.031:
0000
0000
0000
0000
,
0000
0000
0000
0000
,
1000
1000
0001
0001
,
0100
0100
0010
0010
,
2000
0000
3001
0100
,
0010
1000
0001
0010
,
0200
0000
1300
0001
,
0100
0010
1000
0001
,
0020
0000
0130
1000
,
0001
0000
1000
0001
1000
0001
1000
0000
,
0100
0010
0010
0001
,
0100
0010
1000
0001
,
1001
0000
0100
0010
,
0001
0000
0100
0001
0100
0001
0100
0000
,
0001
1000
0100
0010
,
0001
0100
0010
1000
,
0001
0010
0100
1000
,
0001
1000
0000
1001
,
1000
0200
0000
0320
0000
0032
0000
0003
,
0000
1000
0001
0100
0010
2000
0000
3000
,
0001
0200
0000
0320
0000
2030
0000
3000
,
0000
0001
0100
0010
1000
0000
0001
0000
,
1000
0000
0001
0000
0010
0100
0010
0000
,
0001
0000
1000
0000
0010
0100
0010
0000
,
1000
0000
0001
0000
0010
0001
0010
0000
,
0001
0000
1000
0000
0010
0100
0010
0000
,
1000
0000
0001
0000
0010
0100
0010
0000
,
0001
0000
0100
0000
0010
1000
0010
0000
,
1000
0000
0001
0000
0010
0100
0010
0000
,
0001
0000
1000
0000
0001
0000
1000
0002
,
0000
1003
0010
0100
,
0001
1000
0000
0100
0000
0010
0000
0001
,
0000
0100
0010
1000
,
0001
1000
0000
0100
0000
0010
0000
0001
,
0000
0000
1000
0001
,
0100
0010
0000
1000
0000
0001
0000
0010
,
0000
0100
1000
0001
,
0010
0000
0100
0010
0000
0001
1000
0001
,
1000
0000
0100
0000
0010
0001
0010
0000
,
0001
0000
0100
0010
0000
2000
0000
3000
,
0001
0100
0000
0020
0000
2030
0000
3002
,
0000
0203
0000
0320
0000
2030
0000
3002
,
0000
0003
0000
0000
1000
0000
0100
0000
,
0010
0001
0000
0100
0000
0010
0000
0000
,
2000
0000
3001
0100
0000
0000
0010
2000
,
0000
3000
0001
0100
0000
0000
0010
1000
,
0002
2003
3020
0230
,
0301
0001
1000
0000
0010
1000
1001
0000
,
1000
0000
0001
1000
0000
0000
0000
0000
0001
1000
0000
0001
0000
0000
0000
0000
,
1000
0100
0000
1000
0000
0001
0000
1000
0000
0000
0001
1000
0001
0000
0000
0000
,
1000
0001
1000
0000
0010
0000
0100
0000
,
0001
0000
0010
0000
0100
0000
1000
0001
,
1000
0010
0100
0001
,
0010
0000
0100
0000
1000
0000
0001
1000
,
0001
0000
0000
1000
0100
1000
0000
0001
,
0100
0001
0000
1000
0001
1000
0000
0001
,
0010
0001
0010
0000
0010
0000
0001
0000
,
0001
0000
0100
0000
0100
0000
0010
1000
,
0010
1000
0020
0000
0000
0000
0000
0000
,
0000
0000
0000
0000
,
0000
0000
0000
0000
,
0000
0000
0000
0000
,
0030
0000
0000
0000
;

//--------------- dance-single - ----------------
#NOTES:
     dance-single:
     :
     Hard:
     10:
     0.444,0.539,0.157,0.299,0.106:
0000
0000
0000
0000
,
0000
0000
0000
0000
,
1000
0010
0100
0001
,
0010
0100
1000
0010
,
1000
0000
0001
1000
0001
1000
0001
0000
,
0100
0100
0010
0010
,
1000
0000
0001
0100
0001
0100
0002
0000
,
2003
3020
0230
0302
,
0013
0100
1000
0100
2000
0000
3200
0000
,
0320
0000
0000
0000
0031
0000
0010
0100
0010
0000
0001
1000
0001
0000
0000
0000
,
2000
3100
0020
0130
,
0002
0103
2000
3100
,
2002
3003
1000
1100
,
0010
0000
0001
0100
0010
1000
0010
0000
,
1001
0000
0000
0000
2000
0000
3100
0010
,
0002
0000
0103
0010
2000
0000
3001
0100
,
0020
0000
1030
0100
0020
0000
0031
0010
,
0100
1000
0001
0001
0000
0000
1001
0000
,
1000
0000
0001
0000
1000
0100
1000
0000
1001
0000
0100
0000
0010
0000
0000
0000
,
1001
0000
0010
0000
0001
1000
0001
0000
0010
0000
0100
0000
2001
0000
0000
0000
,
3001
0000
1000
0000
0100
1000
0100
0000
1000
0000
0100
0000
1001
0000
0000
0000
,
1100
0000
0010
0001
1000
0000
1000
0000
0001
1000
0001
1000
0001
1000
0001
0000
,
0000
0000
1100
0000
0001
0010
0001
0000
,
1000
0000
1001
0000
0100
0010
0100
0000
,
0001
0000
1001
0000
0010
0100
0010
0000
,
2000
3200
0320
0032
,
0203
0000
0310
0000
0001
0001
0100
0000
,
0002
0203
0320
2030
,
3002
0000
0103
0000
0010
1000
0010
0000
,
1000
0000
0000
0000
0001
0000
0000
0000
0100
0000
0001
1000
0001
1000
0001
1000
,
0001
0000
1000
0000
0001
0100
0001
0010
,
0001
0010
0100
1000
0100
0010
0100
0010
,
0100
0000
1001
0000
0010
0100
0010
1000
,
0100
0010
0100
1000
0001
0100
0010
1000
,
0010
0000
1001
0000
0001
0010
0100
1000
,
0001
0010
0100
1000
0100
0010
0001
0010
,
0001
0000
1001
0000
0001
0010
0100
1000
,
0100
0010
0001
0100
0010
0100
0001
0010
,
0001
0000
1001
0000
0100
1000
0100
0000
,
0010
0000
0001
0000
0100
0010
0100
0000
,
0001
0000
1000
0000
0100
0010
0100
0000
,
0010
0000
0001
0000
0100
0010
0100
0000
,
0001
0000
1000
0000
1000
0100
0001
0000
,
0001
0000
0001
0000
0001
0100
1000
0000
,
2000
0000
3001
0200
0000
0000
0310
2000
,
0000
0000
3100
0020
0000
0031
0010
0001
,
0001
0000
0000
0000
1002
0000
0000
0000
1003
1000
0000
0000
2001
0000
0000
0000
,
3010
0000
0000
0000
1001
0000
0000
0000
1000
0100
0000
0010
0000
0001
0000
0000
,
1001
0000
0100
0020
0000
0000
0000
0000
0031
1000
0000
0001
1000
0000
0000
0000
,
0100
1000
0000
0100
0000
0010
0000
0100
0000
0000
1000
0001
0000
0000
1000
0001
,
1000
0001
1000
0001
1000
0000
0000
0000
0100
0000
0000
0000
0001
0000
0100
0000
,
1000
0000
0001
0000
1000
0000
0001
0010
,
0001
0000
1000
0000
0001
0100
0001
0100
,
0001
0100
0010
1000
0010
1000
0010
1000
,
0010
1000
0000
0100
0010
0100
0000
0010
,
0001
0010
0000
0001
0100
0001
0000
0010
,
1000
0010
0000
1000
0100
1000
0100
0010
,
0001
0100
1000
0100
0010
0100
0001
0100
,
1000
0100
0002
0000
0000
0000
0000
0000
,
0000
0000
0000
0000
,
0000
0000
0000
0000
,
0000
0000
0000
0000
,
0000
0003
0000
0000
;

//--------------- dance-single - ----------------
#NOTES:
     dance-single:
     :
     Challenge:
     12:
     0,0,0,0,0:
0000
0000
0000
0000
,
0000
0000
0000
0000
1000
0000
0001
0100
0001
0000
1000
0100
1000
0000
0000
0000
,
0001
0100
0001
0010
0001
1000
0100
0010
,
0001
0100
0010
1000
0100
1000
0001
0010
,
0100
0000
1000
0100
1000
0010
0100
0001
,
0010
0001
1000
0100
0010
0001
0100
0010
,
1000
0000
0001
0000
0100
0010
0100
0001
,
0010
0001
1000
0100
0001
0100
1000
0010
,
0100
0000
0001
0000
1000
0100
0010
0001
,
0100
0000
0010
0000
1000
0000
0001
0100
0010
0000
1000
0001
0100
0000
0000
0000
,
1001
0000
0001
1000
0100
0010
0001
0100
,
0010
1000
0001
0010
0100
1000
0010
0100
,
0101
0000
0001
0000
1000
0100
0001
0100
,
1000
0010
0100
0001
0100
0001
0100
0010
,
1000
0000
1010
0000
0010
0100
0001
0010
,
0001
0100
0010
1000
0100
0010
0001
0100
,
0010
1000
0001
0010
0100
1000
0010
0100
,
0001
0010
0001
0100
0010
1000
2001
0000
,
3001
0000
0100
0000
0001
0010
0001
0000
0100
0000
0010
0000
1000
0100
1000
0000
,
1001
0000
0001
0000
0100
0010
0100
0000
0101
0000
0001
0000
1000
0100
1000
0000
,
1100
0000
1000
0000
0001
0100
0001
0000
1001
0000
1000
0000
0010
0100
0001
0000
,
1001
0000
1000
0000
0100
0000
0010
0000
0001
0000
1000
0100
0010
0100
1000
0100
,
0010
0100
1100
0000
1000
0001
1001
0000
,
0001
0100
1000
0000
0100
0001
0100
0000
,
0010
1000
0100
0001
0100
1000
0010
0000
,
0101
0110
1010
1010
,
1000
0100
0001
0100
1000
0010
0100
0001
,
0010
0100
1000
0010
0100
0001
0010
0001
,
1000
0010
1000
0100
1000
0010
0100
0001
,
0010
0000
0001
0000
0100
0000
0010
0000
1000
0000
0001
0100
0010
1000
0100
1000
,
0010
1000
0100
1000
0010
1000
0100
1000
,
0001
0010
0001
0100
0001
0010
0001
1000
,
0100
0001
0100
1000
0010
0100
0001
0010
,
0100
0010
0001
1000
0010
0100
0001
1000
,
0001
0010
1000
0010
0001
0100
0010
1000
,
0100
0001
0100
1000
0010
0100
0001
1000
,
0100
0001
0100
1000
0010
0100
0001
0010
,
0001
1000
0100
0010
0001
1000
0001
0100
,
0101
0000
0010
1000
0100
1000
0010
1000
,
0100
1000
0001
0010
0001
0100
0001
0010
,
0001
0100
0010
0100
0001
0010
0001
1000
,
0100
0010
0001
0100
0010
1000
0001
0010
,
0100
0000
1100
0000
1000
0001
1000
0010
,
1000
0001
0010
0001
0100
0010
0100
0001
,
1000
0010
0100
0001
0100
0010
1000
0100
,
0010
0001
0010
0001
0100
0010
0100
0010
,
1001
0000
0000
0000
1001
0000
0000
0000
0001
0100
0000
0000
1010
0000
0000
0000
,
1000
0000
0010
0000
0100
0000
0001
0000
0100
0010
0000
1000
0000
0001
0000
0000
,
0100
0000
0010
1000
0001
0000
0100
0000
0010
1000
0000
0001
0100
0000
0001
0000
,
1000
0100
0000
0010
0000
0001
0000
0100
0010
0000
1000
0001
1000
0000
0001
0010
,
0100
1000
0010
0100
0001
0000
1000
0000
0100
0000
0001
0000
0100
0000
1000
0000
,
0010
0100
0001
0010
1000
0010
0001
0100
,
0010
1000
0001
0100
0001
0100
1000
0100
,
1000
0100
0001
0010
1000
0010
0100
0010
,
0001
0020
0000
0031
1000
0200
0000
0310
,
0001
0200
0000
0310
1000
0200
0000
0310
,
0001
0100
0010
1000
0100
0001
0100
1000
,
0010
0100
0001
0010
0100
1000
0100
0010
,
0100
0010
1001
0000
0000
0000
0000
0000
;
