#TITLE:It's Thanksgiving;
#SUBTITLE:;
#ARTIST:Nicole Westbrook;
#TITLETRANSLIT:;
#SUBTITLETRANSLIT:;
#ARTISTTRANSLIT:;
#GENRE:;
#CREDIT:;
#MUSIC:It's Thanksgiving - Nicole Westbrook (Lyrics on screen).ogg;
#BANNER:;
#BACKGROUND:;
#CDTITLE:;
#SAMPLESTART:43.960;
#SAMPLELENGTH:12.000;
#SELECTABLE:YES;
#OFFSET:0.120;
#BPMS:0.000=128.000;
#STOPS:;
#BGCHANGES:;
#FGCHANGES:;

//--------------- dance-single - ----------------
#NOTES:
     dance-single:
     :
     Beginner:
     1:
     0,0,0,0,0:
0000
0000
0000
0000
,
0000
0000
0000
0000
,
0000
1000
0000
0000
,
0000
0001
0000
0000
,
0000
0110
0000
0000
,
0000
0100
0000
0000
,
0000
0001
0000
0000
,
0000
1000
0000
0000
,
0000
0001
0000
0000
,
0000
1000
0000
0000
,
0000
0010
0000
0000
,
0000
0100
0000
0000
,
1001
0000
0000
0000
,
0001
0000
0000
0000
,
1000
0000
0000
0000
,
0001
0000
0000
0000
,
0100
0100
0000
0000
,
0000
0010
0000
0000
,
0000
1000
0000
0000
,
0000
0001
0000
0100
,
0000
0001
0000
0000
,
0000
0100
0000
0000
,
0000
0010
0000
0000
,
0000
1000
0000
0000
,
0000
0001
0000
0000
,
0000
0000
0000
0000
,
0000
0100
0000
0000
,
0000
0000
0000
0000
,
0000
1000
0000
0000
,
0000
0000
0000
0000
,
0000
0010
0000
0000
,
0000
1000
0000
0000
,
0000
0001
0000
0000
,
0000
1000
1000
0000
,
0000
0010
0000
0000
,
0000
0100
0100
0000
,
0000
0001
0000
0000
,
0000
0100
0100
0000
,
0000
0010
0000
0000
,
0000
1000
0000
0000
,
0000
0001
0000
0000
,
0000
0100
0000
0000
,
0000
0010
0000
0000
,
0000
0100
0000
0000
,
0000
0001
0000
0000
,
0000
0010
0000
0000
,
0000
0001
0000
0000
,
0000
0100
0000
0000
,
0000
1001
0000
0000
;

//--------------- dance-single - ----------------
#NOTES:
     dance-single:
     :
     Easy:
     2:
     0.182,0.237,0.088,0.088,0:
0000
0000
0000
0000
,
0000
0000
0000
0000
,
0000
2000
0000
0000
,
0000
3002
0000
0000
,
0003
1001
0000
0000
,
0000
2000
0000
0000
,
0000
3001
0000
0000
,
0000
0100
0000
0000
,
0000
0000
1000
0000
0000
1000
0000
0000
,
0000
0000
0001
0000
0000
0001
0000
0000
,
0000
0000
0100
0000
0000
0100
0000
0000
,
0010
1000
0001
0100
,
0010
0000
1000
0000
0000
1000
0000
0000
,
0000
0000
0001
0000
0000
0001
0000
0000
,
0000
0100
0000
0100
,
0000
0010
0000
1000
,
0000
0001
0000
1000
,
0000
0001
0000
0100
,
0000
0010
0000
1000
,
0000
2002
0000
0000
,
3003
1000
0000
0001
,
0000
0100
0000
0010
,
0000
1000
0000
0001
,
0000
2000
0000
3000
,
0000
0001
0000
0001
,
0000
1000
1000
0000
,
1001
0000
1000
0000
,
0010
0000
1000
0000
,
0001
0000
1000
0000
,
0001
0000
0100
0000
,
0010
1000
0010
1000
,
0001
0100
0001
1000
,
0001
2000
0000
0000
,
3010
0100
0001
0000
,
1001
0000
1000
0000
,
0010
0000
0100
0000
,
0001
0000
1000
0000
,
0001
0100
0020
0000
,
1030
0000
0001
0000
,
0100
0000
0010
0000
,
1000
1000
1000
1001
,
0000
0001
0001
1001
,
0000
1000
0000
0001
,
0000
0100
0000
0010
,
0000
0100
0100
0110
,
0000
1000
1000
1001
,
0000
0000
1000
0001
,
1000
0000
0001
1000
,
0001
0000
0000
0000
;

//--------------- dance-single - ----------------
#NOTES:
     dance-single:
     :
     Medium:
     4:
     0.282,0.342,0.165,0.154,0.005:
0000
0000
0000
0000
,
0000
0000
0000
0000
,
0000
0000
1000
0000
0000
0001
0000
0000
,
1000
0000
0010
0000
0000
0100
0000
0000
,
1000
0000
1001
0000
0000
1000
0000
0000
,
0010
0000
0100
0000
0000
0001
0000
0000
,
1000
0000
0010
0000
0000
0100
0000
0000
,
0001
0000
1000
0000
0000
0010
0000
0000
,
0100
0001
1000
0010
,
0100
0100
0001
1000
,
0010
0100
0100
0001
,
2000
3020
0230
0301
,
1001
0000
0010
0000
0000
0010
0000
0000
,
1001
0000
0100
0000
0000
0100
0000
0000
,
1001
0000
1000
0000
0000
0010
0000
0000
,
1001
0000
0010
0000
0000
0100
0000
0000
,
1001
1000
0000
0001
,
0000
1000
0000
0000
0000
0000
0010
0000
,
0000
0200
0000
0000
0300
0000
0001
0000
,
1000
0010
0010
0100
,
0100
1001
0000
0010
,
0000
1000
0000
0000
0000
0000
0001
0000
,
0000
2000
0000
0000
3000
0000
0001
0000
,
0000
0000
2000
0000
0000
3010
0000
0000
,
0100
0001
0001
1000
,
0010
0100
0001
0000
,
1001
1000
0010
0100
,
0000
0001
1000
0000
,
1001
1000
0010
0200
,
0000
0301
0001
1000
,
0010
0100
0100
0001
,
0001
1000
0001
0100
,
0001
0000
0000
0000
1000
0000
0000
0001
0000
0000
1000
0000
0000
0000
0000
0000
,
0010
0100
0001
0000
,
1001
1000
0000
0001
0000
0100
0000
0000
,
0010
0000
1000
0000
0001
0100
0000
0000
,
0010
0000
1000
0000
0000
1000
0000
0000
,
0002
0203
0310
0000
,
1001
1000
0000
0001
0000
0100
0000
0000
,
0010
0000
1000
0000
0001
1000
0000
0000
,
0010
1000
0001
1001
,
0010
0100
0001
1001
,
0000
1000
0000
1000
0000
1000
0000
0000
,
0001
0000
0100
0000
0010
1000
0000
0000
,
0001
0100
0001
1001
,
0010
0100
0010
1001
,
0000
0000
2000
3002
,
0203
0300
0020
2030
,
3001
0000
0000
0000
;

//--------------- dance-single - ----------------
#NOTES:
     dance-single:
     :
     Hard:
     7:
     0.445,0.45,0.187,0.34,0.132:
0000
0000
0000
0000
,
0000
0000
1000
0000
0000
0001
0000
0000
,
0100
0000
0010
0000
0000
1000
0000
0000
,
0001
0000
0100
0000
0000
0010
0000
0000
,
0001
0000
0000
0000
1001
0000
0000
1000
0000
0000
0001
0000
0000
1000
0000
0000
,
0001
0000
0100
0000
0010
0000
0000
1000
0000
0000
0010
0000
0000
0100
0000
0000
,
0001
0000
1000
0000
0001
0000
0000
0001
0000
0000
0100
0000
0000
0100
0000
0000
,
0010
0000
1000
0000
0010
0000
0000
1000
0000
0000
0001
0000
0000
0100
0000
0000
,
0010
0000
1000
0000
1001
0000
0000
0001
0000
0000
0100
0000
0000
0000
0000
0000
,
0010
0000
0000
0000
1000
0000
0000
0001
0000
0000
0200
0000
0000
0000
0000
0000
,
0310
0000
0000
0000
1000
0000
0000
0010
0000
0000
0200
0000
0000
0000
0000
0000
,
0301
1000
0010
0100
,
1001
0000
0000
0000
1000
0000
0000
1000
0000
0000
1000
0000
0000
0000
0000
0000
,
1001
0000
0000
0000
1000
0000
0000
0010
0000
0000
1000
0000
0000
0000
0000
0000
,
1001
0000
1000
0000
0010
0000
0000
1000
0000
0000
0001
0000
0000
1000
0000
0000
,
0010
0000
0100
0000
0010
0000
0000
1000
0000
0000
0001
0000
0000
1000
0000
0000
,
1001
0000
0000
0000
1000
0000
0000
0000
0000
0000
0010
0000
0100
0000
0000
0100
,
0000
0000
0200
0000
0000
0000
0000
0000
0000
0000
0301
0000
1000
0000
0000
0010
,
0000
2000
0001
3000
0001
1000
0001
0100
,
0010
2000
3010
0200
,
0301
0000
0000
0000
1000
0000
0000
0000
0001
0000
0100
0000
0010
0000
0000
1000
,
0000
0000
0010
0000
0100
0000
0000
0001
0000
0000
0010
0000
0100
0000
0000
1000
,
0000
0100
0010
0000
0002
0000
1003
0000
,
0010
0000
0200
0000
0000
0301
0000
0000
,
1001
2000
3020
0230
,
0302
0013
0110
0100
,
1100
0000
1000
0001
1000
0001
1000
0000
,
1010
2000
3020
0230
,
0302
0023
0230
2300
,
3100
0010
0100
0010
0001
0010
0001
0010
,
0100
1000
0001
0100
0001
0100
0010
1000
,
0010
1000
0100
0001
0100
1000
0010
0001
,
0010
0000
1000
0000
0001
0000
0000
1000
0000
0000
0001
0000
0000
0000
0001
0000
,
2000
0010
3001
0000
,
1001
1000
0000
1000
0000
1000
0000
0010
,
0100
0001
1000
0001
1000
0001
0000
0000
,
1001
0000
0000
0000
1000
0000
0000
0001
0000
0000
1000
0000
0000
0000
0010
0000
,
0200
0302
1003
0000
,
0001
0010
0000
0100
1000
0100
0000
0100
,
0010
0001
0100
0010
1000
0001
0000
0001
,
0100
0010
2000
0000
3010
0000
1001
0000
,
0001
1000
0020
0000
0130
0000
1001
0000
,
1000
0010
0000
1000
0100
0010
0000
0001
,
0010
0100
0010
1000
0010
0001
0000
1000
,
0100
0010
0001
0000
1000
0000
1001
0000
,
1000
0010
0200
0000
0301
0000
1001
0000
,
1010
0010
0000
0100
0002
0000
2003
0000
,
3020
0000
0030
1000
0002
0000
0203
0000
,
0320
0030
0000
0000
;

//--------------- dance-single - ----------------
#NOTES:
     dance-single:
     :
     Challenge:
     9:
     0.544,0.82,0.318,0.395,0.307:
0000
0000
0000
0000
,
0000
0000
0000
0000
1000
0000
0000
0001
0000
0000
1000
0000
0000
0001
0000
0000
,
0100
0000
0010
0000
0100
0000
0000
0010
0000
0000
1000
0000
0000
0010
0000
0000
,
1000
0000
0001
0000
0100
0000
0000
0100
0000
0000
0010
0000
0000
0010
0000
0000
,
1000
0000
0100
0000
1100
0000
0000
1000
0000
0000
0001
0000
0000
1000
0000
0000
,
0001
0000
0100
0000
0010
0000
0000
1000
0000
0000
0010
0000
0000
0100
0000
0000
,
0001
0000
1000
0000
0001
0000
0000
0001
0000
0000
0100
0000
0000
0100
0000
0000
,
0010
0000
1000
0000
0010
0000
0000
1000
0000
0000
0001
0000
0000
0100
0000
0000
,
0010
0000
1000
0000
1001
0000
0000
0001
0000
0000
0200
0000
0310
1000
0000
0010
,
1000
0000
0001
0000
0010
0000
0000
1000
0000
0000
0010
0000
1000
0001
0000
1000
,
0001
0000
1000
0000
0100
0000
0000
0010
0000
0000
0001
0000
1000
0001
0000
1000
,
0020
0000
0000
0000
0130
0000
0000
0100
0000
0000
0001
0000
0000
1000
0000
0001
,
1001
0000
0000
0000
1000
0000
0000
1000
0010
0000
1000
0000
0001
0000
0000
0000
,
1001
0000
0000
0000
1000
0000
0000
0010
1000
0000
0010
0000
1000
0000
0000
0000
,
1001
0000
1000
0000
0010
0000
0000
1000
0000
0000
0001
0000
0000
1000
0000
0000
,
0010
0000
0100
0000
0010
0000
0000
1000
0000
0000
0001
0000
0000
1000
0000
0000
,
1001
0000
0000
0000
1000
0000
0000
0000
0000
0000
0010
0000
0100
0000
0000
0100
,
0000
0000
0200
0000
0001
0000
0000
0001
0000
0000
0301
0000
1000
0000
0000
0010
,
0000
2000
0001
3000
1001
1000
0001
0100
,
0010
2000
3010
0200
,
0301
0000
0000
0000
1000
0000
0000
0000
0001
0000
0100
0000
0010
0000
0000
1000
,
0000
0000
0010
0000
0100
0000
0000
0001
0000
0000
0010
0000
0100
0000
0000
1000
,
0000
0100
0010
0000
0002
0000
1003
0000
,
0010
0000
0200
0000
0000
0301
0000
0000
,
1001
2000
3020
0230
,
0302
0013
0110
0100
,
1100
0000
1000
0001
1000
0001
1000
0000
,
1010
2000
3020
0230
,
0302
0023
0230
2300
,
3100
0010
0100
0010
0001
0010
0001
0010
,
0100
0000
1000
0000
0001
0010
0001
0010
0100
1000
0100
1000
0001
0100
0001
0100
,
0010
1000
0010
1000
0001
0010
0100
1000
0100
0010
0001
1000
0100
0010
0100
1000
,
0001
0010
0100
1000
0001
0000
0000
1000
0010
0000
0100
0000
0001
0000
0001
0000
,
2001
0010
3001
MMMM
,
1001
1000
0M00
1000
0000
1000
0000
0010
,
0110
0100
0001
1000
1001
1000
0000
0010
,
1010
0000
0000
0000
1000
0000
0000
0001
1000
0000
0001
0000
0000
0000
0010
0000
,
0210
2300
3001
MMMM
,
1001
0010
0000
0010
0M00
0010
0000
0010
,
1010
1000
0100
0010
0011
1000
0000
0001
,
0100
0010
2000
0000
3010
0000
2002
3003
,
0001
1000
0020
0000
0130
0000
2002
3003
,
1010
0010
0000
1000
0M00
0001
0000
0100
,
1010
1000
0010
1000
1010
0001
0000
1000
,
1010
0010
1000
0000
1001
0000
0002
0003
,
1000
0010
0200
0000
0301
0000
1001
0000
,
1010
0010
0000
0100
0002
0000
2003
0000
,
3020
0000
0030
1000
0002
0000
0203
0000
,
0320
0030
0000
0000
;
