#TITLE:Infinite Dimensions;
#SUBTITLE:;
#ARTIST:Ephexis Krater;
#TITLETRANSLIT:;
#SUBTITLETRANSLIT:;
#ARTISTTRANSLIT:;
#GENRE:;
#CREDIT:;
#MUSIC:Infinite Dimensions.ogg;
#BANNER:;
#BACKGROUND:;
#CDTITLE:;
#SAMPLESTART:32.027;
#SAMPLELENGTH:15.000;
#SELECTABLE:YES;
#OFFSET:1.225;
#BPMS:0.000=90.130
,18.000=180.260
;
#STOPS:50.000=0.999
,81.500=0.333
;
#BGCHANGES:;
#FGCHANGES:;

//--------------- dance-single - ----------------
#NOTES:
     dance-single:
     :
     Beginner:
     4:
     0,0,0,0,0:
0000
0000
0000
0000
,
0000
0000
0000
0000
,
0001
0000
1000
0000
,
0001
0000
0100
0000
,
0010
0000
1001
0000
,
0001
0000
0100
0000
,
0010
0000
1001
0000
,
1000
0000
0010
0000
,
0100
0000
1001
0000
,
0100
0000
1001
0000
,
0100
0000
1001
0000
,
1001
0000
0110
0000
,
0100
0000
0000
1000
,
1000
1000
0000
0010
,
0010
0010
0000
0100
,
0100
0100
0000
0001
,
0001
0001
0000
0100
,
0100
0100
0000
0010
,
0000
0010
0000
1000
,
0000
0001
0000
1000
,
1000
1000
0001
0000
,
0001
0000
0100
0000
,
0100
0000
0010
0000
,
1000
0000
0001
0000
,
1000
0000
0010
0000
,
0100
0000
0001
0000
,
1000
0000
0100
0000
,
0010
0000
0001
0000
,
0100
0000
1001
0000
,
0001
0000
0100
0000
,
0010
0000
1000
0000
,
0100
0000
0010
0000
,
0001
0000
0100
0000
,
0010
0000
1000
0000
,
0001
0000
0100
0000
,
0010
0000
1000
0000
,
0001
0000
1001
0000
,
1000
0000
0010
0000
,
0100
0000
0001
0000
,
0010
0000
0001
0000
,
0100
0000
0010
0000
,
1000
0000
0001
0000
,
0100
0000
0010
0000
,
1000
0000
0001
0000
,
1000
0000
0001
0000
,
0000
0000
1001
0000
,
0010
0000
0001
0000
,
0100
0000
0010
0000
,
1000
0000
0100
0000
,
0010
0000
0100
0000
,
1000
0000
0001
0000
,
0100
0000
0010
0000
,
1000
0000
0001
0000
,
1000
0000
1001
0000
,
0010
0000
0100
0000
,
0001
0000
1000
0000
,
0100
0000
0010
0000
,
0001
0000
0110
0000
,
0100
0000
0001
0000
,
1000
0000
0001
0000
,
1000
0000
0001
0000
,
0001
0000
1000
1000
,
1000
1000
1000
1000
,
1000
1000
1000
0000
,
0000
0000
0000
0000
,
0000
0000
0000
0000
,
0000
0000
0000
0000
,
0000
0000
0001
0001
,
0001
0000
0100
0100
,
0100
0000
0010
0010
,
0010
0000
1000
1000
,
1000
0000
0001
0000
,
0001
0000
0100
0000
,
0100
0000
0010
0000
,
0010
0000
1000
0000
,
0000
0000
1000
0000
,
0001
0000
1001
0000
,
0100
0000
0010
0000
,
0100
0000
0001
0000
,
1000
0000
0100
0000
,
0010
0000
0001
0000
,
0100
0000
0010
0000
,
1000
0000
0001
0000
,
0100
0000
0010
0000
,
1000
0000
1001
0000
;

//--------------- dance-single - ----------------
#NOTES:
     dance-single:
     :
     Easy:
     7:
     0.335,0.353,0.109,0.033,0:
0000
0000
0000
0000
,
0000
0000
0000
0000
,
1000
0001
1000
0010
,
1000
0010
0100
0001
,
1000
0010
1001
1000
,
0010
0000
0100
0001
,
1000
0000
1001
0001
,
1000
0000
0010
1000
,
0001
0000
1001
0001
,
1000
0010
1010
0001
,
1000
0010
1010
0000
,
1001
0000
1010
2000
,
0000
3000
1001
0001
,
0100
1000
0100
0001
,
0010
1000
0010
0001
,
0100
0010
1000
0100
,
0010
0001
0100
0010
,
1000
0010
1000
0001
,
0100
0001
0100
0010
,
1000
0010
0001
0100
,
1000
0100
0001
0100
,
1000
0000
1000
0100
,
0001
0000
0010
1000
,
0010
0000
0100
0001
,
0100
0000
0001
0100
,
1000
0000
0100
0010
,
1000
0000
0001
0100
,
0010
1000
0100
0010
,
0001
0100
0010
0010
,
1000
0000
0010
0010
,
0001
0000
0010
0010
,
1000
0000
0100
0100
,
0001
0000
1000
0010
,
0100
0001
0001
1000
,
0010
1000
1000
0100
,
0001
0100
1000
1000
,
0010
0001
0010
1000
,
0100
0000
0010
0001
,
0100
0000
0010
1000
,
0001
0000
1000
0010
,
1000
1000
0001
0001
,
1000
0010
1000
0001
,
0100
0010
1000
1000
,
1000
1000
0001
1000
,
0001
0000
0000
0000
0000
0000
0000
0000
0000
0000
0000
0000
0000
0000
0000
0000
0000
0000
0000
0000
0000
0000
0000
0000
0000
0000
0000
0000
0000
0000
0000
0000
0000
0000
0000
0000
0000
0000
0000
0000
0000
0000
0000
0000
0000
0000
0000
0000
1000
0000
0000
0000
0000
0000
0000
0000
0000
0000
0000
0000
0000
0000
0000
0000
0000
0000
0000
0000
0000
0000
0000
0000
0000
0000
0000
0000
0000
0000
0000
0000
0000
0000
0000
0000
0000
0000
0000
0000
0000
0000
0000
0000
0000
0000
0000
0000
0002
0003
0000
0000
0000
0000
0000
0000
0000
0000
0000
0000
0000
0000
0000
0000
0000
0000
0000
0000
0000
0000
0000
0000
0000
0000
0000
0000
0000
0000
0000
0000
0000
0000
0000
0000
0000
0000
0000
0000
0000
0000
0000
0000
0000
0000
0000
0000
1000
0000
0000
0000
0000
0000
0000
0000
0000
0000
0000
0000
0000
0000
0000
0000
0000
0000
0000
0000
0000
0000
0000
0000
0000
0000
0000
0000
0000
0000
0000
0000
0000
0000
0000
0000
0000
0000
0000
0000
0000
0000
0000
0000
0000
0000
0000
0000
,
0001
0000
1010
0001
,
1000
0000
0001
0100
,
1000
1000
0100
0001
,
0010
0010
1000
0010
,
0001
0001
0100
0010
,
1000
0100
0010
0010
,
0001
0001
0100
0100
,
0010
0010
1000
0001
,
1000
0000
1001
0010
,
1000
0000
0001
1000
,
0010
0010
1000
0001
,
0100
0100
1000
0100
,
0001
0001
0100
0010
,
1000
0100
0010
0001
,
0100
0010
2000
0000
,
0000
0000
3001
0000
,
0001
0000
0100
0100
,
0100
0100
0010
0010
,
0010
0010
2000
0000
,
0000
0000
0000
0000
,
0000
0000
0000
0000
,
0000
3000
0000
0000
,
0000
0000
1001
0000
,
1000
0100
0001
0000
0000
0000
0000
0000
,
0001
0100
1000
0000
0000
0000
0000
0000
,
1000
0010
0001
0000
0000
0000
0000
0000
,
0001
0010
1000
0000
0000
0000
0000
0000
,
1000
0001
0100
0100
,
0010
1000
0100
0100
,
0010
0001
0100
1000
,
0100
0001
1000
0000
,
0001
0000
1001
0000
,
0010
0010
0000
0000
,
0001
0000
0000
1000
0000
0000
0000
0000
,
0010
0000
0000
0100
0000
0000
0000
0000
,
0100
0000
0000
0010
0000
0000
0000
0000
,
0001
0000
0000
1000
0000
0000
0000
0000
,
0010
0000
1000
0100
,
0001
0100
1000
0000
,
0000
0000
1001
0000
;

//--------------- dance-single - ----------------
#NOTES:
     dance-single:
     :
     Medium:
     11:
     0.546,0.532,0.142,0.184,0:
0000
0000
0000
0000
,
0000
0000
0000
0000
,
1000
0001
1000
0010
,
1000
0000
0010
0000
1000
0010
1000
0000
,
0001
0100
0001
0000
1001
0000
1000
0000
,
1000
0000
1000
0000
1000
0100
0001
0000
,
0001
0000
0001
0000
0001
0100
1000
0000
,
1000
0000
1000
0000
1000
0010
0001
0000
,
0001
0000
0001
0000
0001
0010
1000
0000
,
1000
0010
1000
0000
0001
0100
0001
0000
,
1000
0010
1000
0000
1001
0000
0001
0000
,
0101
0100
2002
0000
,
0000
0000
3003
0000
1001
0000
1000
0010
,
0001
0000
0010
0000
1000
0000
0001
0100
,
1000
0000
0100
0000
0001
0000
1000
0010
,
0001
0000
0010
0000
1000
0000
1000
0100
,
0001
0000
0100
0000
1000
0000
0010
1000
,
0010
0000
1000
0000
0001
0000
0100
0010
,
0100
0000
0001
0000
1000
0000
0100
0010
,
0100
0001
0100
0010
0100
1000
0010
0100
,
0001
1000
0001
0100
1001
0000
1000
0000
,
0001
0100
0010
0000
1000
0000
0010
0000
,
1000
0100
0001
0000
0100
0000
0010
0000
,
0001
0100
1000
0000
0100
0000
0010
0000
,
1000
0100
0001
0000
1000
0100
0001
0100
,
1000
0000
1001
0000
0001
0010
1000
0010
,
0001
0000
1001
0000
1000
0100
0001
0100
,
0010
0001
1000
0001
1000
0100
0010
0000
,
0001
0010
0100
0000
1001
0000
0100
0000
,
0020
0000
0032
0000
1003
0100
0001
0000
,
0200
0000
2300
0000
3001
0010
0001
0000
,
0020
0000
0230
0000
1300
0010
1000
0000
,
0002
0000
2003
0000
3001
0100
0001
0000
,
2000
0000
3020
0000
0130
0001
1000
0000
,
0002
0000
0203
0000
0310
1000
0100
0000
,
0020
0000
0032
0000
1003
0100
1000
0000
,
0001
0000
1000
0000
0010
1000
0010
0000
,
1000
0000
0001
0000
1000
0100
0001
0000
,
0100
0000
1000
0000
0001
0010
0100
0000
,
1000
0000
0100
0000
0001
0100
1000
0000
,
0010
0000
0100
0000
0001
0100
1000
0000
,
0100
0000
0001
0000
0010
0001
0010
0001
,
1000
0100
1000
0100
0001
0100
1000
0100
,
0001
0010
1000
0010
0002
0000
0000
0000
,
0000
0000
1003
0000
1000
0010
1000
0010
,
0100
0001
1000
0000
1001
0000
1000
0000
,
0010
0100
0001
0010
,
0100
0000
1000
0000
0001
0100
1000
0000
,
0100
0000
0001
0000
1000
0010
0001
0000
,
0010
0000
1000
0000
0100
1000
0100
0000
,
0010
0000
0100
0000
0001
0100
0001
0000
,
0100
0000
0010
0000
1000
0001
0100
0000
,
0010
0000
1000
0000
0100
0001
0100
0000
,
1001
0000
1000
0000
0010
1000
0010
0000
,
1000
0000
0001
0000
0100
0001
0100
0000
,
0001
0000
0010
0000
0001
1000
0010
0000
,
0100
0000
0010
0000
1000
0100
0001
0000
,
0100
0000
1000
0000
1000
0010
0000
0001
,
0010
0000
1000
0000
0100
0010
0100
0000
,
0010
0000
0001
0000
0100
0010
0100
0000
,
0001
1000
0001
0000
1000
0010
1000
0000
,
0001
1000
0001
0000
1000
0000
0001
0000
,
0001
0000
0001
0000
1000
0100
1000
0100
,
0010
0001
0010
0001
1000
0000
0010
0000
,
0100
2002
0000
0000
,
0000
0000
0000
0000
,
0000
3003
1001
0000
,
0000
0000
1000
1000
,
0001
0100
1000
0000
0100
0000
0100
0000
,
0001
0010
1000
0000
0001
0000
0001
0000
,
1000
0100
0001
0000
0100
0000
0100
0000
,
0010
0001
1000
0000
1001
0000
1000
0000
,
0001
0100
1000
0000
0100
0000
0001
0000
,
1000
0010
0001
0000
0010
1000
0010
0000
,
0100
0001
1000
0000
0100
0001
1000
0000
,
0001
1000
0001
0000
1000
0000
0010
0000
,
0100
0100
1001
0101
,
1000
0010
0001
0000
1000
0100
0001
0000
,
1000
0010
0001
0000
1000
0100
0001
0000
,
0001
0010
1000
0000
0001
0100
1000
0000
,
0001
0010
1000
0000
0001
0100
1000
0000
,
0001
0010
1000
0001
0100
1000
0001
0010
,
1000
0001
0100
1000
0001
0100
0010
1000
,
0100
0001
0100
1000
0002
0000
0000
0000
,
0000
0003
2002
0000
,
3003
0000
0000
0000
;

//--------------- dance-single - ----------------
#NOTES:
     dance-single:
     :
     Hard:
     14:
     0.726,0.745,0.301,0.284,0.138:
0000
0000
0000
0000
,
0000
0000
0000
0000
,
0001
1000
0001
0000
1000
0000
0100
0000
0010
0001
0010
0000
0001
0000
0100
0000
,
0010
0000
1000
0000
0001
1000
0001
0000
0010
0000
0100
0000
0010
0001
0010
0000
,
0001
0000
1000
0000
0001
0100
0001
0000
1001
0000
1000
0000
0100
0000
0010
0000
,
0001
0100
0010
0100
0001
0010
0100
1000
,
0001
0100
0010
1000
1000
0001
0100
0010
,
1000
0100
0001
0100
1000
0100
0010
0001
,
0100
1000
0100
0001
0001
0010
0100
1000
,
0100
0010
0001
0010
0011
0000
0001
1000
,
0010
0100
0010
0100
0110
0000
1000
0010
,
1010
0000
0001
1000
2002
0000
0000
0000
,
0000
0000
3003
0000
1001
0000
1000
0100
,
0010
0001
1000
0100
0001
0100
1000
0100
,
0010
0001
0100
1000
0100
0001
0100
0010
,
1000
0001
1000
0100
0001
0100
1000
0010
,
0100
0001
1000
0100
0001
0100
1000
0100
,
0010
0001
1000
0010
0001
0010
1000
1000
,
0100
0100
0010
0010
0001
0001
1000
0001
,
1000
0001
1000
0001
1000
0001
2000
0000
,
0000
0000
0000
3001
1001
1000
0001
0000
,
1000
0010
0100
0001
0100
0010
1000
0000
,
0001
0010
0100
1000
0001
0010
0001
0000
,
1000
0100
0001
0100
0010
0001
1000
0000
,
0001
0100
0001
0100
0100
0010
1000
0000
,
0001
0100
0001
0100
1000
0100
1000
0100
,
0001
0010
0001
0010
1000
0010
1000
0010
,
0001
0000
0100
0000
0010
0000
1000
0000
0001
0000
0000
0001
0100
0000
0000
0100
,
0010
0000
0000
0010
1000
0000
0001
0000
1001
0000
1000
0000
0100
0000
0000
0000
,
0020
0000
0032
0000
1003
0100
0001
0000
,
0200
0000
2300
0000
3001
0010
0001
0000
,
0020
0000
0230
0000
1300
0010
1000
0000
,
0002
0000
2003
0000
3001
0100
0001
0000
,
2000
0000
3020
0000
0130
0001
1000
0000
,
0002
0000
0203
0000
0310
1000
0100
0000
,
0020
0000
0032
0000
1003
0100
1000
0000
,
0001
0100
0010
1000
0001
0010
0100
1000
,
0010
0100
0002
0000
1003
0100
0001
0100
,
0010
0001
2000
0000
3001
0100
0010
1000
,
0010
0100
0020
0000
1030
0100
0010
0001
,
0100
0010
0200
0000
0301
0010
0100
0010
,
0001
1000
0200
0000
0310
0001
0010
0001
,
1000
0000
0100
0000
1000
0000
0100
0000
0010
0001
0010
0000
0001
0010
0001
0000
,
1000
0100
1000
0000
0100
1000
0100
0000
2000
0000
0000
0000
0000
0000
0000
0000
,
0000
0000
3001
0000
1000
0010
1000
0010
,
0100
0000
0001
0000
1000
0001
1000
0001
1000
0000
0100
0000
1000
0000
0000
0000
,
1100
0000
1001
0000
0001
0010
0100
0000
,
0110
0000
1001
0000
0010
1000
0010
0000
,
1001
0000
1100
0000
0001
0010
0001
0000
,
1001
0000
1100
0000
0001
0010
0001
0000
,
1100
0000
1001
0000
0010
0100
0010
0000
,
1001
0000
1100
0000
0001
0010
0001
0000
,
1100
0000
1001
0000
0001
0100
0001
0000
,
1001
0000
1000
0010
1000
0100
2000
0000
,
3002
0000
2003
0000
3010
0100
0010
0000
,
2000
0000
3010
0000
0100
0001
0100
0000
,
1010
0000
1001
0000
0001
0100
0001
0000
,
1001
0000
0000
0000
1100
0000
0000
1000
0001
0000
0010
0000
0001
0000
0000
0000
,
1010
0000
1001
0000
0001
0100
0001
0010
,
0001
1000
0010
0100
0001
0010
0001
0010
,
0100
1000
0100
1000
0001
0100
0001
0100
,
0010
1000
0010
1000
0001
0000
0001
0000
,
0001
0000
0001
0000
1000
0100
1000
0100
,
0010
0001
0010
0001
1000
0000
0010
0000
,
0100
2002
0000
0000
,
0000
0000
0000
0000
,
0000
3003
1001
0000
,
0000
0000
1001
1000
,
0001
0010
0001
0010
0001
0000
0000
0000
1000
0000
0000
0000
0010
0000
0000
0000
,
0100
0001
0100
0001
0100
0000
0000
0000
0010
0000
0000
0000
1000
0000
0000
0000
,
0001
0010
0001
0010
0001
0000
0000
0000
1000
0000
0000
0000
0010
0000
0000
0000
,
0100
0010
0100
0010
0100
0000
0000
0000
1010
0000
0010
0000
1000
0000
0010
0000
,
1000
0100
0001
0100
1000
0010
0100
0001
,
1000
1000
0010
0010
0100
0100
0001
0001
,
1000
1000
0010
0010
0200
0000
0000
0000
,
0302
0000
1003
0010
,
0100
0001
0100
0001
0100
0000
0000
0000
1010
0000
0000
0000
0101
0000
0000
0000
,
1000
0100
0010
0001
1000
0100
0001
0100
,
1000
0001
0100
0010
1000
0100
0001
0100
,
1000
0010
0100
0001
1000
0001
0100
1000
,
0100
0001
0100
0010
1000
0100
0001
0100
,
0010
0001
1000
0010
0001
0010
0100
0001
,
0100
0000
1000
0000
0100
0000
0001
0000
1000
0100
1000
0100
1000
0100
1000
0100
,
1000
0100
1000
0100
1000
0100
1000
0100
2000
0000
0000
0000
0000
0000
0000
0000
,
0000
3000
2002
0000
,
3003
0000
0000
0000
;

//--------------- dance-double - ----------------
#NOTES:
     dance-double:
     :
     Hard:
     15:
     0,0,0,0,0:
00000000
00000000
00000000
00000000
,
00000000
00000000
00000000
00000000
,
00010000
00001000
00010000
00000000
00001000
00000000
00100000
00000000
00010000
01000000
00010000
00000000
00100000
00000000
00001000
00000000
,
00010000
00000010
00001000
00000000
00000001
00000100
00000010
00000000
00001000
00000100
00001000
00000010
00001000
00000000
00000100
00000000
,
00001000
00000100
00010000
00000000
00001000
00100000
00010000
01000000
00100000
00000000
10000000
00000000
01000000
00000000
00010000
00000000
,
01000000
00001000
00000100
00000010
00000001
00000100
00001000
00000100
,
00010000
00001000
00000010
00001000
00000010
00000010
00001000
00000100
,
00010000
01000000
00100000
00010000
00100000
01000000
10000000
00100000
,
10000000
01000000
00010000
00001000
00010000
01000000
10000000
00100000
,
01000000
00000100
00010000
00000100
00001100
00001000
00000010
00000001
,
00000010
00001000
00000100
00010000
00011000
00001000
00100000
00010000
,
00110000
00100000
00010000
01000000
00100000
10000000
01000000
10000000
,
00100000
01000000
00001000
00010000
00000000
00000000
00000100
00000001
,
00000100
00001000
00010000
00100000
10000000
00100000
00010000
00100000
,
00000010
00000100
00000010
00001000
00000100
00010000
00100000
10000000
,
00100000
01000000
00100000
00010000
00100000
00001000
00000100
00000001
,
00000100
00000010
00010000
00000100
00010000
00001000
00100000
10000000
,
00100000
00010000
00001000
00000100
00000001
00000100
00010000
01000000
,
10000000
01000000
00010000
00001000
00000010
00000001
00000100
00000010
,
00100000
00010000
01000000
00000100
00010000
00001000
00100000
00000010
,
00010000
00001000
00010000
00000010
00010000
01000000
10000000
01000000
,
00100000
10000000
10100000
00000000
01000000
00010000
00000100
00010000
,
01000000
10000000
10100000
00000000
01000000
00010000
00000100
00000001
,
00001000
00000100
00010000
00000010
00000100
00000001
00010000
00001000
,
01000000
10000000
01000000
00010000
00100000
00000010
00010000
00001000
,
01000000
00000100
00100000
00000010
00010000
00001000
00010000
00001000
,
00100000
00000010
01000000
00000100
00010000
00001000
01000000
00010000
,
10000000
01000000
00010000
01000000
10000000
00100000
00010000
00100000
,
10000000
01000000
00001000
00000100
00000001
00000100
00000010
00000000
,
00010010
00000000
00101000
00000000
00001000
01000000
00100000
00000000
,
11000000
00000000
10010000
00000000
10000000
01000000
00010000
01000000
,
00100000
00000000
00110000
00000000
00100000
00000010
00010000
00001000
,
00100000
00000000
00110000
00000000
00010000
01000000
10000000
01000000
,
00010000
00000000
00011000
00000000
00001000
00000100
00000010
00000100
,
00001000
00000000
00011000
00000000
00010000
00000100
00001000
00000010
,
00000100
00000001
00000100
00000010
00010000
00001000
00010000
00001000
,
01000000
00100000
10000000
00010000
10010000
10000000
01000000
00010000
,
00001000
00000010
00000001
00000010
00001000
00010000
01000000
10000000
,
00100000
01000000
00001000
00010000
00001000
00000100
00000010
00000100
,
00001000
00010000
00001000
01000000
00100000
01000000
00010000
00100000
,
00010000
10000000
01000000
10000000
00100000
01000000
00010000
01000000
,
00001000
00000100
00000001
00000100
00001000
00000100
00010000
00001000
,
01000000
00100000
10000000
01000000
00100000
01000000
10000000
00100000
,
01000000
00001000
00010000
00000100
00001000
00000001
00001000
00000100
,
00001000
00000010
00001000
00000000
00000100
00010000
00000100
00010000
,
00000100
00000000
00000000
00000000
00010000
00000100
00010000
00000100
00010000
00000000
00001000
00000000
01000000
00000000
10000000
00000000
,
01000000
00010000
00100000
00000000
00001000
00010000
00000100
00000010
,
00000100
00010000
00001000
01000000
00100000
01000000
00001000
00010000
,
00000100
00000010
00000100
00010000
00001000
01000000
00100000
01000000
,
00010000
00100000
00001000
00010000
00001000
01000000
00100000
10000000
,
01000000
00010000
01000000
00100000
00001000
00010000
00000100
00000010
,
00000100
00010000
00001000
00010000
00001000
01000000
00010000
10000000
,
00010000
00000000
01000000
00000000
00001000
00010000
00000100
00010000
,
00000100
00000000
00010000
00000000
00010010
00000010
00001000
00000100
,
01000000
00100000
10000000
01000000
00100000
00000010
00000100
00000001
,
00010000
00001000
00010000
00000100
01000000
00000100
00010000
00001000
,
01000000
00100000
01000000
00010000
01000000
00000100
00010000
00001000
,
00010000
00000010
00001000
00000001
00000001
00001000
00000100
00010000
,
00001000
00100000
01000000
00100000
10000000
00100000
00010000
01000000
,
00001000
00010000
00001000
00100000
00001000
00010000
00001000
00010000
,
00000010
00000100
00000010
00000100
00000001
00001000
00000001
00001000
,
00000100
00010000
00000100
00010000
00001000
00000000
00011000
00000000
,
01010000
00000000
01100000
00000000
10000000
00010000
10000000
00100000
,
01000000
00001000
00010000
00001000
00010000
00000100
00002000
00000000
,
00000000
00000000
00000000
00000000
,
00000000
00000000
00000000
00000000
,
00000000
00000000
00003000
00000000
,
00000000
00000000
00000000
00000000
00000001
00000100
00000010
00010000
,
00001000
01000000
00100000
00000000
10000000
00010000
00100000
00001000
,
00010000
00000100
00010000
00000000
00000010
00000100
00000010
00010000
,
00001000
01000000
00100000
00000000
10000000
01000000
00100000
01000000
,
10000000
00100000
01000000
00000000
00010000
00001000
00010000
00000010
,
00000100
00000010
00010000
00000000
00001000
01000000
00010000
01000000
,
00100000
01000000
00010000
00000000
10000000
01000000
00100000
00010000
,
01000000
00100000
10000000
00010000
01000000
00100000
10000000
00000000
,
00010000
01000000
00010000
00000000
01000000
00010000
00100000
00001000
,
00010000
00000000
00000000
00000000
00001000
10000000
00010000
10000000
,
01000000
10000000
01000000
10000000
01000000
00000000
00000000
00000000
00100000
00000000
00010000
00000000
00100000
00000000
00000010
00000000
,
00001000
00000100
00001000
00000100
00001000
00000000
00000000
00000000
00000100
00000000
00001000
00000000
00000100
00000000
00010000
00000000
,
00001000
01000000
00001000
01000000
00001000
00000000
00000000
00000000
00010000
00000000
00001000
00000000
00010000
00000000
00000100
00000000
,
00010000
00001000
00010000
00001000
00010000
00000000
00000000
00000000
00000100
00000000
00001000
00000000
00000001
00000000
00001000
00000000
,
00000100
00010000
00000100
00010000
00000100
00000000
00000000
00000000
00010000
00000000
00001000
00000000
10000000
00000000
00010000
00000000
,
00100000
00000000
00001000
00000000
00010000
00000000
00001000
00000000
00100000
00010000
00100000
00010000
00100000
00010000
00100000
00010000
,
00100000
00010000
00100000
00010000
00100000
00010000
00100000
00010000
00200000
00000000
00000000
00000000
00000000
00000000
00000000
00000000
,
00300000
00000000
00011000
00000000
;
