#TITLE:In The Groove;
#SUBTITLE:;
#ARTIST:One Dollar;
#TITLETRANSLIT:;
#SUBTITLETRANSLIT:;
#ARTISTTRANSLIT:;
#GENRE:;
#CREDIT:;
#MUSIC:In The Groove.ogg;
#BANNER:ban.png;
#BACKGROUND:bg.png;
#CDTITLE:CDTitle.png;
#SAMPLESTART:100.000;
#SAMPLELENGTH:12.000;
#SELECTABLE:YES;
#OFFSET:0.020;
#BPMS:0.000=160.000;
#STOPS:;
#BGCHANGES:;
#FGCHANGES:;

//--------------- dance-single - ----------------
#NOTES:
     dance-single:
     :
     Beginner:
     3:
     0,0,0,0,0:
0000
0000
0000
0000
,
0000
0000
0000
0000
,
0000
0000
0000
0000
,
0000
0000
0000
0000
,
0001
0000
0000
0000
,
1000
0000
0000
0000
,
0010
0000
0000
0000
,
0100
0000
0000
0000
,
1001
0000
0000
0000
,
0001
0000
0000
0000
,
1001
0000
0000
0000
,
0000
0100
0100
0000
,
0001
0000
0000
0000
,
1000
1000
0000
0000
,
1001
0000
0000
0000
,
0000
1001
0000
0000
,
1001
0000
0001
0000
,
0100
0000
0010
0000
,
1000
0000
0100
0000
,
0010
0000
0001
0000
,
1000
0000
0001
0000
,
0100
0000
0010
0000
,
1000
0000
0001
0000
,
1000
0000
0001
0000
,
1001
0000
1000
0000
,
0001
0000
0100
0100
,
0100
0000
0010
0000
,
1000
0000
0000
0001
,
0001
0000
1000
0000
,
0001
0000
0000
1000
,
1000
0000
0001
0000
,
1000
0000
0000
0001
,
0001
0000
1000
0000
,
0001
0000
0100
0000
,
0001
0000
1000
0000
,
0001
0001
0001
0000
,
1000
0000
0001
0000
,
0100
0000
0010
0000
,
1000
0000
0100
0000
,
0100
0000
0001
0000
,
1001
0000
0000
0000
,
1001
0000
1000
1000
,
1000
0000
0000
0000
,
0000
0000
0001
0000
,
1001
0000
0100
0000
,
0010
0000
1000
0000
,
0001
0000
0000
0000
,
1000
0000
0001
0000
,
1000
0000
0010
0000
,
0100
0000
0001
0000
,
1000
0000
0100
0000
,
1000
0000
0001
0000
,
0100
0000
0001
0000
,
1000
0000
0010
0000
,
0100
0000
0001
0000
,
0010
0000
0100
0000
,
1000
0000
0001
0000
,
1000
0000
0010
0000
,
0100
0000
0001
0000
,
1000
0000
0100
0000
,
0010
0000
0010
0000
,
0010
0000
0000
0000
,
1000
0000
0001
0000
,
1000
0000
0001
0000
,
1001
0000
0000
0001
,
0000
0000
1000
1000
,
0000
0000
0001
0000
,
1000
0000
1000
0000
,
0000
0001
0000
0000
,
0000
1000
0000
0000
,
0000
0001
0000
0000
,
0001
0000
1000
0000
,
1001
0000
1000
0000
,
0001
0000
0100
0000
,
0010
0000
1000
0000
,
0001
0000
0010
0000
,
0110
0000
0100
0000
,
0001
0000
1000
0000
,
0001
0000
0100
0000
,
0010
0000
0000
0000
,
1001
0000
1000
0000
,
0001
0000
0100
0000
,
0010
0000
1000
0000
,
1001
0000
0000
0000
;

//--------------- dance-single - ----------------
#NOTES:
     dance-single:
     :
     Easy:
     7:
     0,0,0,0,0:
0000
0000
0000
0000
,
0000
0000
0000
0000
,
0000
0000
0000
0000
,
0000
0000
0000
0000
,
0001
0000
0000
1000
0000
1000
0000
0000
,
0001
0100
0010
1000
,
0001
0000
0000
1000
0000
0001
0000
0000
,
0100
0010
1000
0000
,
1001
0000
0000
1000
0000
0001
0000
0000
,
0100
0010
1000
0000
,
1001
0000
0000
0000
0000
0000
0000
0001
,
0000
1000
0020
0030
,
1000
0000
0000
0001
0000
1000
0000
0000
,
0010
0100
0001
0000
,
2002
0000
3003
0000
0000
0000
0000
1001
,
0000
1001
2000
3020
,
0130
0001
0010
0100
,
1000
0001
0100
0001
,
0010
0001
1000
0010
,
1000
0100
0001
0100
,
1000
0010
0100
0001
,
1000
0100
0010
0001
,
0100
0010
1000
0001
,
0010
0100
1000
0010
,
1001
1000
0001
0100
,
0010
0000
1000
0000
0001
1000
0001
1000
,
0000
0010
0100
0001
,
1000
0001
0100
0010
,
1010
1000
0001
1000
,
0020
0000
0230
0000
0301
1000
0001
1000
,
0000
0001
1000
0010
,
0100
0000
0000
0001
0000
0000
1000
0000
,
1001
0000
0001
1000
0000
0001
0000
0000
,
0000
0000
1000
0100
0000
1000
0000
0000
,
0000
0001
0100
0010
,
2000
3002
0203
0310
,
1000
0000
0010
0010
0000
0100
0000
0000
,
0000
0000
0001
0001
0000
1000
0000
0000
,
0000
0001
0010
0100
,
1000
0001
1000
0010
,
0100
1001
0100
0010
,
1000
1001
0001
0100
,
0001
1000
0000
0010
0000
1000
0000
0002
,
0000
1003
0100
0001
,
0101
0100
1000
0010
,
0100
0101
0001
0100
,
0010
1000
0000
0001
0000
1000
0000
0010
,
1000
0001
0200
0320
,
0130
0001
1000
0100
,
0010
0100
1000
0001
,
0100
0001
0010
0100
,
1000
0010
0100
0001
,
1000
0100
1000
0100
,
0010
0001
0010
0001
,
0100
0010
0100
0010
,
1000
0001
1000
0001
,
1001
0000
1000
0000
0001
1000
0000
0000
,
0010
1000
0001
1000
,
0001
0000
0100
0010
1000
0000
0001
0000
,
0100
0010
1000
0100
,
0011
0011
1001
1001
,
1000
0000
0010
0000
1000
0000
0001
1000
,
0001
0100
0010
1000
,
0001
1000
0100
0010
,
0011
0000
0001
0100
0000
0010
0000
0000
,
0000
0000
1000
0001
0000
1000
0000
0000
,
0000
0001
0100
1000
,
0100
0001
1000
0010
,
0000
0000
1000
1000
0000
1000
0000
0000
,
0000
0000
1000
1000
0000
1000
0000
0000
,
0000
0001
0100
0010
,
1000
0001
0100
0100
,
0001
1001
1000
0010
,
0100
1001
0010
0100
,
0001
1000
0000
0010
0000
1000
0000
0200
,
0000
0310
0100
1000
,
0001
1001
1000
0010
,
0100
0011
1000
0100
,
1000
0001
0000
1000
0000
0010
0000
1000
,
0001
1000
0002
2003
,
3001
0100
1000
0100
,
0001
0010
1000
0010
,
0001
0100
0010
1000
,
0100
0000
0000
0000
;

//--------------- dance-single - ----------------
#NOTES:
     dance-single:
     :
     Medium:
     11:
     0,0,0,0,0:
0000
0000
0000
0000
,
0000
0000
0000
0000
,
0000
0000
0000
0000
,
0000
0000
0000
0000
,
0010
0000
0000
1000
0000
1000
0000
0000
,
0001
0000
1000
0000
0001
0100
0001
0100
,
0001
0000
0000
1000
0000
0100
0000
0000
,
0010
0000
0001
0000
0200
0010
0300
0000
,
1001
0000
0000
1000
0000
0001
0000
0000
,
1000
0000
0001
0000
0100
0010
1000
0000
,
1001
0001
0000
0000
1000
0100
1000
1100
,
0000
0000
1001
0000
0001
0100
0010
1000
,
0001
0000
0000
0100
0000
0001
0000
0000
,
1000
0000
0001
0000
0100
0010
0000
0000
,
1001
0000
0001
0000
0100
0010
0000
1010
,
0000
1001
0002
2003
,
3001
0000
0100
0000
0001
0000
0000
1000
0000
0000
0010
0000
0100
0000
0001
0000
,
0010
0000
0100
0000
1000
0000
0000
0001
0000
0000
0100
0000
0001
0000
1000
0000
,
0100
0000
0001
0000
0100
0000
0000
1000
0000
0000
0010
0000
0100
0000
0001
0000
,
1000
0100
1000
0100
0010
0001
0010
0001
,
0100
0000
0010
0000
1000
0000
0000
0001
0000
0000
0100
0000
0010
0000
1000
0000
,
0100
0000
0010
0000
0001
0000
0000
0100
0000
0000
0010
0000
1000
0000
0001
0000
,
0010
0000
0100
0000
1000
0000
0000
0001
0000
0000
0100
0010
0000
0000
1000
0000
,
0001
0100
0001
0100
0010
1000
0010
1000
,
1010
0000
0010
1000
0100
1000
0001
1000
,
0020
0000
0230
0000
0302
0100
0100
0103
,
0010
1000
0001
0001
2000
0000
3010
0010
,
0100
0001
1000
0000
0000
0001
0100
0001
,
1000
0000
0001
0100
1000
0100
0001
0100
,
0020
0000
2030
0000
3001
1000
1000
1000
,
0001
0000
0011
0000
1001
0000
1000
0100
,
0001
0100
0000
1000
0000
0001
0100
0010
,
1010
0000
1000
0001
0000
1000
0100
0001
,
0000
0000
0000
0000
0100
0000
1000
0000
0001
1000
0001
1000
0001
0000
1000
0000
,
0000
0000
0001
0100
0001
0100
0010
1000
,
1001
0000
0101
0000
1001
0001
1000
0010
,
0100
0000
0001
2000
0000
3001
1000
0010
,
0000
0100
0001
0100
0010
1000
0100
0010
,
0001
0000
1000
0010
1000
0010
1000
0010
,
0100
0100
0100
0100
0001
1000
0100
1000
,
0001
0000
1001
0000
1000
0100
0001
0100
,
1000
0000
1001
0000
0001
0010
1000
0010
,
0001
0100
0000
0001
0000
1000
0000
0002
,
0000
0000
1003
0010
0100
0010
0100
0010
,
1000
0000
1001
0001
0100
0001
1000
0100
,
0010
0000
0011
0000
0001
0100
0001
0100
,
0010
0010
0000
1000
0000
0001
0000
1000
,
0010
1000
0010
1000
0002
0000
1003
0000
,
1001
0000
0001
0000
0100
0000
0000
0010
0000
0000
1000
0000
0100
0000
0001
0000
,
0100
0000
1000
0000
0010
0000
0000
0100
0000
0000
0001
0000
0010
0000
1000
0000
,
0010
0000
0001
0000
0100
0000
0000
0010
0000
0000
1000
0000
0100
0000
1000
0000
,
0100
0010
0001
0010
0001
0100
0010
1000
,
0001
0000
1000
0000
0010
0000
0000
0010
0000
0000
0001
0000
0010
0000
1000
0000
,
0100
0000
0001
0000
0100
0000
0000
1000
0000
0000
0010
0000
0100
0000
0001
0000
,
0010
0000
0100
0000
1000
0000
0000
0001
0000
0000
0100
0000
0010
0000
1000
0000
,
0100
0010
0100
0010
0001
1000
0001
1000
,
1010
0000
0010
1000
0100
1000
0001
0100
,
0010
1000
0100
0010
0001
1000
0001
0100
,
0000
0000
0010
1000
0010
1000
0100
1000
,
0001
0100
0000
0010
0000
1000
0100
1000
,
1100
0000
1001
0000
0001
0100
0001
0100
,
0001
0010
0000
0100
0000
1000
0001
0200
,
0000
0301
1000
0010
1000
0000
0001
0010
,
0100
1000
0000
0001
0000
0100
0010
1000
,
1010
0000
0010
1000
0000
0001
0001
0010
,
0000
0000
0100
0000
0100
0000
1000
0000
0001
1000
0001
1000
0001
0000
1000
0000
,
0000
0000
0001
0100
0001
0010
0001
1000
,
0010
0000
1000
0000
0100
0010
0001
1000
,
0000
0000
0010
1000
0000
0001
0100
0010
,
1000
0000
0100
0010
0000
0001
0100
0010
,
1000
0100
0010
0001
0100
0010
1000
0001
,
0100
0100
0010
0010
1000
0001
1000
0010
,
1000
0000
1010
0000
1000
0100
0001
0100
,
1000
0000
1010
0000
1000
0100
0010
0001
,
0100
0010
0000
1000
0000
0001
0000
0100
,
0020
0000
1030
0100
0001
0100
1000
0001
,
0100
0000
0110
0000
0100
0001
0010
0001
,
0100
0000
0110
0000
0010
1000
0100
0001
,
0100
1000
0000
0010
0000
0100
0000
0001
,
1000
1000
0001
0001
2000
0000
3002
0000
,
1003
0100
1000
0000
0001
0100
0001
0000
,
1000
0100
0010
0000
0001
0100
0010
1000
,
0001
1000
0010
0100
0001
0010
0001
0100
,
0020
0000
0000
0000
,
0030
0000
0000
0000
;

//--------------- dance-single - 8*/8* XO jacks ----------------
#NOTES:
     dance-single:
     8*/8* XO jacks:
     Hard:
     17:
     0,0,0,0,0:
0000
0000
0000
0000
,
0000
0000
0000
0000
,
000M
0000
0000
000M
0000
000M
0000
0000
,
000M
0000
0000
0000
0000
0000
00M0
0000
M000
M000
M000
M000
M000
0000
0000
0000
,
0022
0033
0000
0000
0000
0000
0002
0003
00M0
0000
0002
0003
0M00
0000
0000
0000
,
200M
3000
0000
0000
020M
0300
0000
0000
M020
0030
0002
0003
0M00
0000
0000
0000
,
200M
3000
0000
0000
0000
0000
0020
0030
M00M
0000
0200
0300
M000
0000
0000
0000
,
0002
0003
0000
0000
0002
0003
0000
0000
2000
0000
0002
0000
0000
0000
3003
0000
,
1001
0000
0MM0
1000
0MM0
1000
0MM0
0000
,
M001
0000
0000
0000
010M
0000
0000
0000
001M
0000
1000
0000
0000
0000
0010
1000
,
0001
0001
0000
0000
0000
0000
0000
1001
,
0000
0000
0000
0000
1001
0000
0000
0000
1000
0010
1000
0010
0100
0000
0000
0000
,
0101
0010
1000
0001
1000
0001
0010
0100
,
1000
0000
0100
0000
1000
0000
0100
0000
0010
0000
0010
0000
0000
0000
0001
0010
,
0100
0110
0100
1000
0100
0010
0001
0011
,
0001
0100
0101
0010
2000
0000
3002
0000
,
1003
0100
0010
0100
1000
0001
0010
0100
0000
0010
0001
0100
0010
1000
0100
0010
,
0001
0100
0010
1000
0001
0100
0010
1000
0000
0010
1000
0010
1000
0001
0100
0010
,
1000
0100
0010
0100
1000
0001
0100
0010
0000
1000
0010
1000
0010
0100
0001
0100
,
0001
0010
0100
1000
0001
0100
0001
1000
0001
0100
0010
1000
0001
0010
0001
1000
,
0001
0010
0100
1000
0001
0100
0010
1000
0000
0001
0010
0100
1000
0001
0100
0010
,
1000
0001
0010
0001
1000
0010
0100
0001
0000
0001
0100
0010
1000
0100
0010
0001
,
0010
0100
1000
0001
1000
0010
0100
0001
0000
1000
0010
0100
0001
0010
0001
1000
,
0010
1000
0001
0010
0100
1000
0100
0010
0001
0010
0200
0000
1000
0000
1000
0000
,
1300
0000
0001
0010
1000
0010
0001
0100
,
1000
0100
0010
1000
0100
0020
0032
2003
,
3000
0000
0000
0000
M00M
M0M0
MM00
M0M0
M00M
0000
0000
0000
,
0010
0100
1000
0100
0010
0002
0203
0320
,
1030
0100
1000
0001
0100
0010
1000
0100
,
0010
0001
0010
0100
1000
0002
0203
0320
,
1030
0000
1001
0000
1010
0000
1000
0100
,
0001
0000
0100
0000
0000
0000
1000
0000
0000
0000
0100
0010
0001
0000
1000
0000
,
1001
0000
1000
0200
0000
0310
0001
0001
,
0000
0000
0001
0000
0010
0000
0100
0000
1000
0010
1000
0010
1000
0000
0010
0000
,
1000
0010
0100
0001
0010
0100
1000
0100
,
0020
0000
0000
0000
0032
0000
0000
0000
1003
0000
0001
0100
0001
0000
0100
0000
,
0010
2000
0000
3200
0000
0310
0001
0020
,
0000
0230
0000
2300
0000
3100
0010
0002
,
0000
0003
0001
0010
0100
1000
0100
1000
,
0001
0001
0001
0001
0001
0010
0100
1000
,
0001
1000
2MM1
0000
3010
0100
0001
0100
,
0010
1000
1MM2
0000
1003
0100
1000
0100
,
1000
2000
0000
3002
0000
0010
0000
0103
,
0010
1000
0001
0000
0MM0
M00M
M00M
0MM0
,
0000
0000
1000
0100
0001
0100
1000
0010
,
1000
0010
2010
0000
3001
0100
1000
0100
,
0001
0001
0000
0001
0000
0001
0000
0001
,
1000
1000
0010
0010
0200
0000
0302
0000
,
1003
0010
1000
0100
0010
0001
0100
0001
0000
1000
0010
0100
0001
1000
0100
0010
,
0001
1000
0010
1000
0001
0010
0100
1000
0000
0001
0100
0001
1000
0100
0010
0001
,
1000
0010
0100
0001
1000
0100
1000
0100
0000
0010
0001
0010
0001
1000
0010
1000
,
0010
0100
0001
0010
0100
1000
0100
0010
0001
1000
0010
0100
0001
1000
0001
0100
,
0010
1000
0001
0010
0100
1000
0001
0010
0000
0100
1000
0001
1000
0010
0100
0010
,
1000
0001
0010
0100
1000
0010
0100
0001
0000
1000
0010
0100
0001
1000
0100
0010
,
0001
1000
0001
1000
0100
0010
0001
1000
0000
0001
0010
0100
1000
0010
1000
0010
,
0100
0001
0100
0001
1000
0010
1000
0010
0100
0001
0010
0000
0001
0000
1000
0000
,
1001
0000
1000
0100
1000
0100
0001
0100
,
0001
0100
1000
0100
1000
0002
0203
0320
,
1030
0000
1000
1000
0100
0100
0001
0001
,
0100
0000
0100
0000
1000
0000
0010
0000
0100
0000
0002
0000
0203
0000
0320
0030
,
1010
1000
1001
0001
1000
0100
0001
0100
,
1000
0001
0000
0001
0000
2000
3020
0230
,
0301
1000
0100
0001
0100
0000
1000
0010
,
0002
0000
0023
0000
1030
2000
3200
0310
,
0011
0001
0000
0001
0000
0001
0020
0031
,
0000
0000
0001
0000
0000
0000
0001
0000
1000
0100
1000
0100
1000
0000
0001
0000
,
0000
0001
0010
0100
1000
0010
0100
0001
,
0202
0000
0303
0000
2002
0000
3003
0000
0101
0000
0001
0100
0010
0000
1000
0000
,
0001
0100
1000
0100
0001
0020
0230
2300
,
3001
0010
0100
1000
0001
0020
0230
2300
,
3000
0001
0100
0010
1000
0100
0010
0010
,
0001
0001
0001
0001
0001
0100
0010
1000
,
0001
1000
1002
0000
0103
1000
0100
0001
,
0010
0001
0011
0000
0001
0100
0010
1000
,
0001
0200
0000
0320
0000
1000
0000
0130
,
0000
0000
1000
0MM0
M00M
M00M
0MM0
0000
,
1001
0000
0001
0010
0100
1000
0010
0100
,
0001
0100
0101
0000
1000
0010
0001
0010
,
1000
0000
0001
0010
0001
0000
0010
0100
0010
0000
0100
1000
0100
0000
1000
0001
,
1000
1000
0100
0100
0020
0000
0032
0000
,
1003
0100
1000
0100
1000
0100
0010
0001
,
0100
1000
0100
0001
0100
0010
0100
0010
,
1000
1000
0100
0010
0001
1000
0001
0000
,
2002
0000
0000
0000
,
0000
0000
0000
0000
,
3003
0000
0000
0000
;

//--------------- dance-single - ITG Stamina 67* ----------------
#NOTES:
     dance-single:
     ITG Stamina 67*:
     Challenge:
     18:
     0.799,1,0.197,0.569,0.535:
0000
0000
0000
0000
,
0000
0000
0000
0000
,
000M
0000
0000
000M
0000
000M
0000
0000
,
000M
0000
0000
0000
0000
0000
000M
0000
M000
M000
M000
M000
M000
0000
0000
0000
,
0002
0003
1000
0000
0001
0000
2000
3000
0010
0000
2000
3000
0100
0000
0010
0000
,
0002
0003
1000
0000
0002
0003
0100
0000
0020
0030
0200
0300
0001
0000
1000
0000
,
0002
0003
0100
0000
0010
0000
2000
3000
0010
0000
0200
0300
0010
0000
1000
0000
,
0002
0003
0100
0000
0002
0003
0100
0000
0020
0000
2000
0000
0000
0000
0000
3030
,
1001
0000
0001
0000
1000
0000
0020
0030
0100
0000
0002
0003
0100
0000
0010
0000
,
2000
3000
0001
0000
2000
3000
0010
0000
100M
0000
1000
0000
0010
0000
0010
1000
,
0001
0000
1001
0000
1000
0010
1000
0000
0001
0100
0010
0000
1000
0000
1001
0000
,
0001
0000
1000
0000
1001
0000
0001
0000
1000
0010
1000
0010
0100
0000
0001
0000
,
1000
0001
1000
0000
0100
0010
0100
0000
1000
0001
0100
0000
0010
1000
0010
0000
,
1010
0000
0000
0000
1001
0000
0000
0000
1000
0000
0001
0000
0100
0000
0001
0010
,
0100
0110
0100
1000
0100
0010
0001
0011
,
0001
0100
0101
0010
2000
0000
3002
0000
,
1003
0100
0010
0100
1000
0001
0010
0100
1000
0001
1000
0010
0100
0001
0100
0010
,
1000
0001
0010
0001
1000
0010
0100
0001
1000
0010
1000
0010
0100
0001
0010
0100
,
1000
0010
0100
0001
1000
0100
0010
0001
1000
0001
0010
0001
0100
0010
1000
0100
,
1000
0010
0100
0001
1000
0010
0100
0001
1000
0100
0010
0001
1000
0100
0010
0001
,
1000
0010
0100
0001
1000
0100
0010
0100
1000
0001
0010
0100
1000
0001
0100
0010
,
1000
0001
0010
0100
1000
0010
0100
0001
1000
0010
1000
0001
0010
0001
0100
0010
,
1000
0100
0010
0001
0100
0010
1000
0001
1000
0001
0010
0001
1000
0010
0100
0001
,
0010
0100
1000
0010
0100
0001
1000
0100
0010
0001
0100
0010
1000
0000
0001
0000
,
1000
0001
0100
0010
1000
0100
1000
0001
1000
0100
0010
0001
0010
0100
1000
0001
,
1000
0010
0100
0010
1000
0001
0010
0100
1000
0010
1000
0001
0100
0010
1000
0001
,
0010
0100
1000
0001
1000
0100
1000
0001
1000
0010
0100
0001
1000
0100
0010
0001
,
1000
0010
0100
0001
0100
0010
1000
0100
0010
0001
1000
0100
1000
0010
1000
0001
,
0100
0010
0100
0001
1000
0010
0100
0010
1000
0001
0010
0100
0010
0001
1000
0010
,
0100
0001
0010
0001
1000
0100
0010
0001
1000
0010
0100
0001
0100
0010
0100
0001
,
1000
0100
0010
0001
1000
0010
0100
0010
1000
0100
0010
0001
1000
0010
0100
0010
,
1000
0001
0100
0001
1000
0100
0010
0100
1000
0001
0100
0010
0100
0001
0010
0001
,
1000
0100
0010
0001
1000
0100
1000
0100
0010
0001
0100
0010
1000
0001
1000
0001
,
0100
0010
1000
0100
1000
0001
0100
0010
1000
0001
1000
0010
1000
0100
0010
0001
,
1000
0010
0100
0001
1000
0100
0010
0001
1000
0100
1000
0001
0010
0001
0100
0010
,
1000
0100
1000
0010
0100
0001
0010
0001
1000
0010
1000
0100
1000
0001
0010
0100
,
1000
0100
0010
0001
0100
0001
1000
0010
0100
0001
0010
0100
1000
0010
0100
0001
,
0010
0100
1000
0010
1000
0010
0100
0001
1000
0100
0010
0001
1000
0100
1000
0010
,
1000
0001
0100
0010
1000
0100
0010
0001
0100
0010
1000
0100
0010
0001
0100
0010
,
1000
1000
1000
1000
1000
0010
0100
0001
,
1000
0100
1000
0100
0010
0001
1000
0010
0100
0001
0010
0001
1000
0001
0100
0010
,
1000
0100
0010
0001
0100
0010
0100
0001
1000
0100
1000
0010
1000
0001
0010
0001
,
1000
0010
1000
0010
0100
0001
1000
0100
0010
0001
1000
0010
0100
0001
1000
0100
,
0010
0001
0100
0010
1000
0100
1000
0010
0100
0001
0010
0001
1000
0010
1000
0010
,
0100
0001
1000
0100
0010
0001
0100
0010
1000
0100
1000
0001
1000
0010
0100
0001
,
1000
0100
0010
0001
0100
0010
1000
0001
0010
0100
0010
0001
1000
0010
0100
0001
,
1000
0010
1000
0100
0010
0001
0100
0010
0100
0001
1000
0100
0010
0001
1000
0010
,
0100
0001
1000
0010
0200
0000
0302
0000
,
1003
0010
0100
0001
0100
0010
1000
0001
0100
0001
0010
0100
1000
0001
0100
0010
,
1000
0001
0010
0001
1000
0010
0100
0001
0010
0100
1000
0001
1000
0100
0010
0001
,
1000
0010
1000
0001
0010
0100
1000
0010
0100
0010
1000
0100
1000
0001
0100
0001
,
0010
0100
1000
0010
0100
0001
0100
0010
1000
0001
0100
0010
0100
0001
1000
0100
,
0010
0001
1000
0010
0100
0001
1000
0010
0100
0001
0010
0100
1000
0010
0100
0010
,
1000
0100
0010
0100
1000
0010
0100
0001
1000
0001
0010
0100
1000
0001
0100
0010
,
0100
0001
1000
0001
0100
0010
1000
0001
1000
0010
0100
0001
0100
0010
1000
0001
,
0010
0100
1000
0010
0100
0001
1000
0100
0010
0001
1000
0000
0010
0000
0010
0000
,
1000
0100
0010
0001
1000
0010
0100
0001
1000
0100
1000
0010
0100
0001
0010
0001
,
1000
0100
0010
0001
0100
0010
1000
0001
0010
0001
1000
0010
1000
0100
1000
0001
,
0010
0100
0010
0001
0100
0010
1000
0001
0100
0010
1000
0100
1000
0010
0100
0001
,
1000
0100
1000
0010
0100
0001
0010
0001
0100
0010
1000
0100
1000
0001
1000
0100
,
0010
0001
0100
0001
0010
0100
1000
0010
0100
0001
1000
0001
0100
0010
0100
0001
,
1000
0100
0010
0001
0100
0010
1000
0001
0010
0100
1000
0010
1000
0001
1000
0100
,
0010
0001
0100
0010
0100
0001
0100
0010
1000
0100
0010
0001
0100
0010
1000
0001
,
0010
0100
1000
0010
0100
0001
1000
0100
0010
0001
1000
0000
0001
0000
0001
0000
,
1000
0001
1000
0001
0100
0010
1000
0100
0010
0001
1000
0010
0100
0010
1000
0001
,
0010
0100
1000
0010
0100
0001
0100
0010
1000
0100
0010
0100
1000
0010
0100
0001
,
1000
0100
0010
0001
1000
0010
0100
0010
1000
0001
0010
0100
1000
0010
0100
0010
,
1000
0001
0100
0001
1000
0010
0100
0010
1000
0100
0010
0001
1000
0010
1000
0100
,
0010
0001
0100
0010
1000
0100
1000
0010
1000
0001
0100
0010
1000
0001
0010
0100
,
1000
0010
0100
0001
1000
0100
1000
0010
0100
0001
1000
0100
0010
0001
0100
0010
,
1000
0001
0010
0100
1000
0010
0100
0001
1000
0100
0010
0001
1000
0010
0100
0001
,
1000
1000
1000
1000
1000
0100
0010
0001
,
1000
0001
1000
0010
0100
0001
0100
0010
1000
0100
0010
0001
1000
0010
0100
0001
,
1000
0100
1000
0001
0100
0010
1000
0100
0010
0001
0100
0010
1000
0001
0010
0100
,
1000
0010
1000
0100
0010
0001
0100
0010
0100
0001
1000
0100
1000
0010
0100
0001
,
0010
0100
1000
0010
0100
0001
1000
0100
0010
0001
1000
0010
0100
0001
0010
0100
,
1000
0010
1000
0001
0010
0001
0100
0010
1000
0100
0010
0001
1000
0010
0100
0001
,
1000
0010
0100
0010
1000
0001
0010
0100
1000
0010
1000
0100
0010
0001
0100
0010
,
0100
0001
1000
0100
0010
0001
0100
0010
1000
0001
0010
0100
1000
0010
1000
0001
,
1000
0001
0100
0100
0020
0000
2030
0000
,
3001
1000
0001
0100
0010
0100
0001
1000
0100
0010
0001
0100
0010
1000
0001
0010
,
0100
1000
0010
0100
0001
0010
0100
1000
0001
0100
0001
0010
0001
1000
0100
1000
,
0001
0100
0010
0100
0001
1000
0100
0010
0001
0100
0010
1000
0001
0010
0100
1000
,
0002
0000
0000
0000
,
0000
0000
0000
0000
,
0003
0000
0000
0000
;

//--------------- dance-double - ----------------
#NOTES:
     dance-double:
     :
     Hard:
     17:
     0,0,0,0,0:
00000000
00000000
00000000
00000000
,
00000000
00000000
00000000
00000000
,
0000000M
00000000
00000000
0000000M
0000000M
00000000
00000000
00000000
,
M0000000
00000000
00000000
00000000
00000000
00000000
M0000000
00000000
M0000000
M0000000
M0000000
M0000000
M0000000
00000000
00000000
00000000
,
00001000
00000000
00000000
00010000
00000000
00010000
00000000
00000000
,
00001000
00000000
01000000
00000000
00100000
10000000
00000000
00000000
,
00001000
00000000
00000000
00010000
00000000
00010000
00000000
00000000
,
00001000
00010000
00000004
00000013
,
00000011
00000001
00001000
00000100
00010000
00000100
00010000
00001000
,
00010000
00000000
01000000
00000000
10000000
00000000
01000000
00000000
00010000
00000000
00010000
00000000
00100000
00000000
00001000
00010000
,
00000100
00000100
00000000
000M0M00
00000000
00000000
00000000
00001001
,
00000000
00000000
00000000
00000000
00001001
00000000
00000000
00000000
00000010
00010000
00001000
00010000
00001000
00000000
00000000
00000000
,
00010000
00001000
00001000
00010000
00001000
00010000
00001000
00100000
,
00010000
00000000
00100000
00000000
00010000
00000000
00100000
00000000
00010000
00000000
00010000
00000000
01000000
00000000
00100000
10000000
,
00010000
00010000
00100000
01000000
10000000
00010000
01000000
01001000
,
00001000
00010000
00011000
00000000
00020000
00000000
00032000
00000000
,
00103000
00001000
00010000
00000100
00010000
00001000
00100000
00001000
00000000
00010000
00000100
00001000
00000010
00000100
00000001
00001000
,
00000100
00001000
00000010
00000100
00000001
00000010
00000100
00001000
00000000
00001000
00000100
00000010
00000001
00000100
00000010
00001000
,
00000100
00010000
00001000
00010000
00000100
00001000
00000010
00001000
00000000
00000100
00010000
00001000
00010000
00001000
00100000
00010000
,
10000000
00100000
01000000
00010000
01000000
00010000
00100000
00001000
00010000
00000100
00001000
00000100
00000010
00000001
00001000
00000100
,
00010000
00001000
00100000
00001000
00010000
00001000
00100000
00010000
00000000
01000000
00100000
01000000
00010000
00100000
00001000
00010000
,
00001000
00100000
00001000
00010000
00000100
00001000
00000100
00010000
00000000
00000100
00010000
00001000
00100000
00010000
01000000
00010000
,
00100000
01000000
10000000
00100000
01000000
00010000
00100000
00001000
00000000
00010000
00001000
00010000
00000100
00001000
00000010
00000100
,
00000001
00000100
00000010
00001000
00000100
00010000
00001000
00100000
00010000
01000000
00100000
10000000
00010000
01000000
00010000
00100000
,
01000000
10000000
01000000
00010000
00001000
00000100
00000001
00000100
,
00001100
00000000
00110000
00000000
11000000
02000000
03200000
02300000
,
03001000
00010000
M0M00001
MM001000
M0000002
MM000000
M0M10003
00001000
,
00100000
00010000
00100000
00001000
00001000
00200000
00320000
00230000
,
00310000
01000000
00001000
10000000
00001000
00010000
00000001
00010000
,
00000002
00000000
00002003
00000000
00003100
00020000
00032000
20003000
,
31000000
00010000
00001000
00000010
00000001
00000010
00001000
00010000
,
01000000
00000000
10000000
00000000
01000000
00000000
00100000
00000000
00010000
00000000
01000000
00100000
01000000
00000000
00001000
00000000
,
00011000
00010000
00000100
00010000
00001000
01000000
01100000
00100000
,
10000000
00000000
00001000
00000000
00010000
00000000
00000001
00000000
00010000
00001000
00010000
00001000
00010000
00000000
00010000
00000000
,
00001000
01000000
00100000
01000000
00001000
01000000
00001000
00010000
,
00010010
00000000
00000000
00000000
00001001
00000000
00000000
00000000
00000101
00000000
00000100
00000010
00001000
00000000
00000100
00000000
,
00100000
00001000
01000000
00100000
00000000
10000000
11000000
00100000
,
00000000
00001000
00010000
00001000
00000000
00010000
00011000
00001000
,
00010000
00000100
00001000
00000100
00001000
00000010
00000100
00000001
,
00001000
00001000
00000100
00000100
00010000
00001000
01000000
00010000
,
10010000
00000000
01000000
00010000
00100000
00010000
01000000
00001000
,
00010000
00000010
00001001
00000000
00000100
00000010
00001000
00100000
,
10000000
00100000
00001000
00000010
00001000
00000001
00000010
00000001
,
00020000
00000000
00000000
00000000
00031000
00000000
00010000
00000000
0MM00010
00000100
M00M0010
00000100
M00M0010
00000000
0MM01000
00000000
,
00001100
00000100
00010100
00010000
00001000
01000000
00100000
10000000
,
01000000
00001000
01000000
00100000
00001000
00010000
00000100
00000001
,
00000100
00010000
00000000
00001000
00000000
00100000
00000000
00010000
,
10000000
00010000
01000000
00010000
04000000
00000000
03004000
00000000
,
00013000
00001000
01000000
00100000
10000000
00010000
01000000
00010000
00000000
10000000
01000000
00100000
00001000
00010000
00000100
00001000
,
00000001
00000100
00000010
00001000
00000100
00010000
00000100
00010000
00000000
00001000
01000000
00001000
00100000
00010000
01000000
00001000
,
00100000
00010000
10000000
01000000
00100000
00010000
01000000
00100000
00000000
01000000
00010000
10000000
01000000
00100000
00001000
00010000
,
00000010
00000100
00000010
00001000
00000100
00010000
00000010
00010000
00001000
00100000
00001000
01000000
00010000
10000000
00100000
01000000
,
00010000
00100000
01000000
10000000
00010000
01000000
00100000
10000000
00000000
00010000
01000000
00010000
00100000
00001000
00010000
00000100
,
00001000
00000100
00000010
00000001
00000100
00000010
00000100
00000001
00000000
00000010
00000001
00001000
00000010
00001000
00000100
00000010
,
00000001
00001000
00000100
00001000
00000010
00010000
00000100
00001000
00000000
00000100
00010000
00001000
00100000
00001000
01000000
00100000
,
10000000
00010000
01000000
00100000
10000000
00100000
01000000
00010000
10000000
01000000
00100000
00001000
00010000
00001000
00100000
00001000
,
00010000
00001000
01000000
10000MM0
01000000
0001M00M
01000MM0
00100000
,
10000000
00010000
00100000
00001000
00010000
00000002
00002003
00003002
,
00001003
00000010
00100000
00000100
00100000
00000100
00010000
00000010
,
00010000
00000010
00100000
00010000
10000000
00020000
02030000
03100000
,
01100000
10000000
10010000
00010000
01000000
00000100
01000000
00000100
,
00010000
00000001
00000000
00010000
00001000
00020000
00032000
00023000
,
00031000
00100000
01000000
00100000
00020000
00000000
00130000
00001000
,
00010000
00000010
00000100
00000001
00000100
00000001
00000100
00000010
,
00000110
00000100
00000010
00001000
00000100
01000000
01100000
00100000
,
10000000
00000000
00010000
00000000
00100000
00000000
00001000
00000000
00010000
00000100
00010000
00000100
01000000
00000000
00100000
00000000
,
00000000
10000000
01000000
00100000
00010000
00001000
00000100
00000010
,
00000011
00000000
00000000
00000000
00000101
00000000
00000000
00000000
00000110
00000000
00000010
00010000
00001000
00000000
00010000
00000000
,
00001000
00100000
00010000
20000000
00000000
30002000
02003000
03002000
,
00013000
00001000
00010000
00000100
00001000
00000100
00020000
00030200
,
00001300
00000001
00000100
00000010
00100000
00010000
00100000
00001000
,
00010000
00001000
00010000
00001000
00100000
00010000
01000000
00100000
,
10100000
00000000
01000000
00100000
01000000
00000100
00000010
00000100
,
01000000
00100000
10100000
00000000
10000000
00010000
00100000
00001000
,
00010000
00010000
00000100
00000010
00000100
00000010
00000100
00010000
,
00001000
00000000
00000000
00000000
10000MM0
00000000
0100M00M
00000000
0001M00M
01000000
00100MM0
01000000
10000000
00000000
00001000
00000000
,
00011000
00010000
00010100
00000100
00001000
00000001
00001000
00000100
,
00010000
00001000
00011000
00010000
00000100
01000000
00001000
01000000
,
00010000
00010000
00000000
10000000
00000000
00010000
00000000
01000000
,
00010000
00010000
01000000
01000000
00004000
00000000
00043000
00030000
,
00011000
00001000
00100000
00010000
10000000
01000000
00100000
00010000
,
01000000
00100000
10000000
00010000
00100000
00001000
00010000
00000100
,
00010000
00000001
00000010
00000001
00001000
00000010
00001000
00000100
,
00022000
00000000
00000000
00033000
;
