#TITLE:In Your Eyes;
#SUBTITLE:;
#ARTIST:The Weeknd;
#TITLETRANSLIT:;
#SUBTITLETRANSLIT:;
#ARTISTTRANSLIT:;
#GENRE:;
#CREDIT:;
#MUSIC:In Your Eyes.ogg;
#BANNER:In Your Eyes.png;
#BACKGROUND:In Your Eyes-bg.png;
#CDTITLE:;
#SAMPLESTART:52.240;
#SAMPLELENGTH:15.000;
#SELECTABLE:YES;
#OFFSET:0.270;
#BPMS:0.000=100.008;
#STOPS:;
#BGCHANGES:;
#FGCHANGES:;

//--------------- dance-single - ----------------
#NOTES:
     dance-single:
     :
     Beginner:
     3:
     0,0,0,0,0:
0000
0000
0000
0000
,
0000
0000
0000
0000
,
0000
0001
0000
0000
,
0000
0000
0000
0000
,
0000
0001
0000
0000
,
0000
0000
0000
0000
,
0000
0001
0001
0000
,
1000
0000
0001
0000
,
0100
0000
0010
0000
,
1000
0000
0100
0000
,
0010
0010
0010
0000
,
0001
0000
1000
0000
,
0010
0000
0100
0000
,
0001
0000
1000
0000
,
0001
0001
0001
0000
,
1000
1000
0000
0000
,
0010
0010
0000
0000
,
0100
0100
0000
0000
,
0001
0002
0003
0000
,
0000
0000
0000
0000
,
0000
0200
0300
0000
,
0000
0000
0000
0000
,
0000
1001
0000
1000
,
0000
0001
0001
0001
,
0000
1000
0000
0010
,
0000
0100
0000
0001
,
0001
0002
0000
0003
,
0001
0000
0100
0000
,
0010
0000
1000
0000
,
0100
0000
0010
0000
,
0000
1001
1001
0000
,
1000
1000
0000
0000
,
0010
0010
0010
0000
,
0100
0000
0010
0000
,
1000
0000
0001
0000
,
1000
0000
0010
0000
,
0100
0000
0001
0000
,
1000
0000
0100
0000
,
0010
0020
0000
0030
,
0000
0000
0001
0000
,
0000
0100
0200
0000
,
0300
0000
0001
0000
,
1000
0000
2000
0000
,
3000
0000
0001
0000
,
0000
1000
0002
0000
,
0003
0000
0100
0000
,
0010
0010
0010
0000
,
1000
0000
0001
0000
,
0100
0000
0010
0000
,
1000
0000
0100
0000
,
0100
0000
1000
0000
,
0001
0000
0100
0000
,
0010
0000
1000
0000
,
0100
0000
0010
0000
,
0001
0000
0000
0000
;

//--------------- dance-single - ----------------
#NOTES:
     dance-single:
     :
     Easy:
     4:
     0.219,0.218,0.076,0.03,0:
0000
0000
0000
0000
,
0000
0000
0000
0000
,
0000
1001
1000
0001
,
1000
0001
0100
0010
,
1000
0001
0100
0010
,
1000
0100
0010
0001
,
0100
0010
1000
0000
,
0000
0001
0000
1000
0000
0000
0001
0000
,
0100
0020
2030
3001
,
0000
1000
0000
0001
0000
0100
0000
0000
,
0001
1000
2000
3000
,
0000
0001
0000
0001
0000
0000
0100
0000
,
0010
2000
3002
0003
,
0000
1000
0000
0001
0000
0100
0000
0000
,
0010
2000
3001
0100
,
0010
2000
3001
0100
,
0010
2000
3100
1000
,
0010
0200
0301
1000
,
0001
0000
2000
0000
0000
3002
0000
0000
,
0103
0000
0000
0000
,
0000
0000
0002
0000
0000
0023
0000
0000
,
0031
0000
0000
0000
,
0000
1001
1000
0001
,
0100
0010
1000
0100
,
0010
0100
1000
0001
,
0100
0010
1000
0100
,
0010
0001
1000
0010
,
1000
0001
0100
0010
,
1000
0001
1000
0100
,
1000
0010
0100
0001
,
0100
0010
1010
1000
,
0001
0100
0010
1000
,
0001
0100
0001
0000
,
1000
0000
0001
0000
,
1000
0020
2030
3100
,
0000
0010
0100
0010
,
0100
0010
1000
0000
,
0000
0001
0000
1000
0000
0000
0001
0000
,
1000
0002
2003
0000
,
3000
0001
0000
1000
0010
0000
0000
0000
,
0000
0200
0320
0000
,
0030
0010
0000
0100
0000
0001
0000
0000
,
0001
0001
1001
0100
,
0000
0020
0000
1030
0010
0000
0000
0000
,
0000
0200
0310
1000
,
0000
1000
0000
0010
0000
1000
0000
0100
,
0000
1000
1100
0010
,
0000
0001
0000
1000
0000
0000
0010
0000
,
0100
0001
0001
1000
,
0001
1000
0010
0100
,
0001
2000
3200
0300
,
0000
0100
0000
0100
0000
0000
0010
0000
,
0001
1001
1000
0010
,
0000
1000
0001
1000
,
0001
0000
0000
0000
;

//--------------- dance-single - ----------------
#NOTES:
     dance-single:
     :
     Medium:
     9:
     0.33,0.316,0.107,0.046,0.004:
0000
0000
0000
0000
,
0000
0000
0000
0000
,
0000
0000
1000
0001
1000
0000
0001
0100
,
0010
2000
0000
3001
0100
0000
0010
1000
,
0100
0000
0010
0001
0100
0000
0010
1000
,
0100
0020
0000
0031
0100
0000
0010
1000
,
0100
1000
0001
0100
0010
0000
1000
0100
,
0010
0002
0000
0103
0010
0000
1000
0100
,
0010
0000
0012
0000
1003
0000
0001
0100
,
0010
2000
0000
3002
0000
0203
0000
0310
,
1000
0000
0102
0000
0103
0000
0010
1000
,
0100
0020
0000
0032
0000
0003
0100
0010
,
1000
0100
0020
0000
0230
0000
1300
0010
,
0100
0002
0000
1003
0010
1000
0001
0100
,
0010
1000
0100
1000
0010
1000
0001
0100
,
0010
1000
0100
0010
0001
0100
0010
1000
,
0001
0010
0100
1000
0010
0100
0001
1000
,
0100
0010
0001
0000
1000
0000
0001
0100
,
0010
1000
0200
0000
0000
0320
0000
0000
,
0230
0000
0300
1000
0001
1000
0010
0100
,
0001
0000
2000
0000
0000
3002
0000
0000
,
0103
0000
0000
0000
0010
1000
0001
0000
,
1000
0001
0100
0010
1000
0000
0100
0010
,
0100
1000
0001
0100
1000
0100
0001
0100
,
0010
1000
0100
0100
0100
0000
0010
0001
,
0100
0020
0000
1030
0001
0000
1000
0010
,
1000
0100
0010
0001
0020
0000
0130
1000
,
0001
0100
0001
0010
0001
0100
0010
1000
,
0100
0001
0100
1000
0010
0000
0100
0001
,
0100
0002
0000
1003
0010
0100
0001
1000
,
0100
0000
0010
0000
0001
0000
0000
0100
0000
0000
0200
0000
0000
0000
0310
0000
,
0100
0000
0010
0000
1000
0000
0000
0100
0000
0000
0020
0000
0000
0000
0130
0000
,
1000
0000
0001
0000
0100
0000
0000
0100
0000
0000
0200
0000
0000
0000
0300
0000
,
0010
1000
0100
0001
0100
1000
0010
0100
,
0001
1000
0100
0010
0001
0000
0100
0010
,
1000
0001
1000
0100
1000
0010
0100
0001
,
1000
0100
0010
0001
0100
0000
0010
1000
,
0100
2000
0000
3010
0010
0100
0001
1000
,
0010
0000
1000
0001
2000
0000
0001
0000
3001
0000
0000
0000
0100
0000
0010
0000
,
1000
2010
0000
3001
0010
0000
0100
1000
,
0001
1000
0002
0000
0103
0000
0010
1000
,
0100
2000
0000
3001
0010
0100
0010
0001
,
0100
0010
2000
3000
1001
0000
0010
0100
,
0001
2000
0000
3010
0100
0001
1000
0100
,
0010
0001
0200
0000
0310
0000
1000
0100
,
1000
0002
0000
0103
0010
2000
0000
3100
,
1000
0001
0201
0000
1300
0000
0100
0010
,
1000
0002
0000
0023
0000
0130
0010
0001
,
1000
0010
1000
0010
1000
0000
0000
0000
0010
0000
0200
0000
0300
0000
0001
0000
,
1000
0000
0020
0000
0000
0000
0130
0000
0001
0000
0010
0000
0100
1000
0100
0000
,
0010
0001
0100
0100
1002
0000
1003
0001
,
0010
0002
0000
0103
0010
1000
0100
0010
,
0001
0000
1000
0001
1000
0000
0000
0000
1010
0000
0000
0000
1000
0000
0001
0000
,
0100
0010
1000
0100
0010
0001
0100
0010
,
1000
0001
1000
0001
0000
0000
0000
0000
0000
0000
0000
0000
0000
0000
0000
0000
;

//--------------- dance-single - ----------------
#NOTES:
     dance-single:
     :
     Hard:
     14:
     0.481,0.435,0.259,0.19,0.24:
0000
0000
0000
0000
,
0000
0000
0000
0000
,
0000
0000
0000
0000
1000
0000
0001
0100
0010
1000
0000
0001
0100
0000
0010
1000
,
0010
0000
2010
0000
0000
0000
3001
0100
0010
1000
0000
1000
0001
0000
0100
0000
,
0001
0010
0001
0010
0001
0000
0100
0010
1000
0010
0000
0100
0001
0000
1000
0010
,
1000
0000
2001
0000
0000
0000
3001
0100
0010
1000
0100
0010
0001
1000
0001
0000
,
0100
0010
0100
0010
1000
0000
0001
0000
1000
0010
0000
0010
1000
0000
0010
0000
,
1010
0000
1000
0001
0100
0000
0010
0000
1000
0100
0000
0100
0010
0000
0001
0100
,
0010
1000
0010
1000
0001
0000
1000
0000
0001
0100
0010
0100
0001
0000
1000
0100
,
0010
0000
0001
0100
0010
1000
0100
0010
0001
1000
0000
0010
1000
0100
1000
0000
,
0010
1000
0010
1000
0001
0000
0100
0010
0100
0001
0000
1000
0100
0000
0010
0000
,
0011
0000
0100
1000
0100
0000
1000
0000
0001
0100
0000
0100
0010
0000
1000
0001
,
1000
0100
1000
0010
1000
0000
0010
0000
1000
0100
0000
0010
0001
0000
0100
0000
,
0110
0000
0010
1000
0010
0000
1000
0000
0100
0010
0000
0001
0100
0010
1000
0000
,
0010
1000
0010
0100
0001
0010
0001
0100
0010
1000
0100
1000
0001
0010
0001
0100
,
0010
1000
0100
1000
0001
0010
0100
1000
0001
0100
0010
1000
0001
0010
0100
1000
,
0001
0100
0010
0100
0001
1000
0100
0010
0001
0100
0010
1000
0001
0010
0100
1000
,
0010
0100
0001
0010
0001
0100
0010
1000
0100
0010
0001
0100
0010
1000
0001
0010
,
0100
1000
0010
0100
0002
0000
0000
0000
0000
0000
2003
0000
0000
0000
3000
0000
,
0002
0000
0100
0000
0003
0000
0100
0010
1000
0000
0001
0000
0100
0000
0010
0000
,
1000
0000
0002
0000
0000
0203
0000
0000
,
0310
0000
0000
0000
0000
0000
0001
1000
0001
0000
1000
0000
0010
0000
0100
0000
,
0001
0000
1000
0000
0001
0000
0100
0000
0001
0010
0100
1000
0001
0100
0010
1000
,
0001
0000
0100
0010
2000
0000
3001
0000
0100
0010
1000
0100
1000
0000
0001
1000
,
0001
0100
0010
1000
0100
0000
0010
0000
0001
0100
0000
0100
0010
0000
1000
0010
,
1000
0000
0001
0100
0010
0000
0100
1000
0001
0010
0000
0001
0010
0001
0100
0010
,
0100
0001
0010
0100
0010
0000
0001
0000
0100
0010
0000
0100
0010
0000
1000
0001
,
1000
0001
0100
0010
1000
0000
0100
0010
0001
0010
0000
0001
0100
0000
0010
0000
,
1010
0000
1000
0001
1000
0000
0010
0000
1000
0100
0000
0010
0001
0000
0100
0010
,
0100
0000
0001
1000
0001
0000
1000
0100
0010
0100
1000
0001
0100
0010
0100
0000
,
0001
1000
0001
1000
0001
0000
0100
0010
0000
1000
0200
0000
0000
0000
1300
0000
,
1010
0000
1000
0000
0001
0000
0100
0010
0000
1000
0200
0000
0000
0000
1300
0000
,
1010
0000
0010
0000
0101
0000
0100
0010
0000
1000
0010
0100
0001
1000
0001
0000
,
0101
0000
0100
0010
0100
0000
0010
0000
1000
0100
0000
1000
0010
1000
0001
0100
,
0002
0000
2003
0000
3100
0000
0010
0000
0001
0100
0000
0010
1000
0000
0010
0100
,
0001
0000
1000
0100
1000
0000
0001
0100
0001
0000
1000
0100
1000
0000
0001
0100
,
0010
1000
0001
1000
0010
0000
1000
0100
1000
0001
0000
0100
0010
0000
1000
0100
,
0010
0000
0001
0010
0001
0100
0010
1000
0100
1000
0010
0100
0010
1000
0010
1000
,
0010
0000
0100
0000
0020
0000
2030
0000
3002
0000
0000
0000
0013
0000
0001
0100
,
0010
0000
2000
0000
0000
0000
3002
0000
0103
0000
0010
1000
0001
0000
0100
0010
,
0100
0000
0001
1000
0001
0000
0100
0000
0010
1000
0000
0100
1000
0000
0001
0100
,
0010
0000
2000
0000
0000
0000
3001
0000
1000
0000
0010
0100
0010
0000
1000
0100
,
0010
0001
0100
0000
0101
0000
0010
0000
1000
0100
0000
1000
0010
0000
0100
0001
,
0100
0000
0002
0000
0000
0000
1003
0000
0001
0010
0000
0010
0001
0000
0100
0000
,
0101
0000
0100
0000
0020
0000
0000
0000
2030
0000
0000
0000
3001
0000
1000
0010
,
1000
0002
0000
0103
0110
0020
0000
0030
,
1000
0001
1000
0100
2000
0000
0001
0000
3001
0010
0000
0001
0100
0000
0010
1000
,
0000
0010
0100
0001
0100
0000
0020
0000
1030
0001
1000
0010
1000
0000
0001
0100
,
0010
1000
0010
1000
0100
0000
1000
0000
1000
0001
0000
0001
0100
0000
0100
0010
,
1000
0000
2000
0000
0000
0000
3001
0000
0101
0000
0100
0010
1000
0001
1000
0000
,
1001
0000
0001
0100
0010
0000
1000
0000
1000
0010
0000
0100
0010
0000
0100
0010
,
0000
1000
0002
0000
0000
0000
1003
0000
1000
0010
0000
0010
0100
0000
0001
1000
,
0100
0000
1000
0000
1000
0000
0100
0000
1000
0010
0000
0010
0100
0000
0001
0100
,
0010
0000
2000
0000
3002
0000
0103
0010
0100
0000
0001
0010
0001
1000
0010
0100
,
0001
1000
0100
0010
0000
0000
0000
0000
0000
0000
0000
0000
0000
0000
0000
0000
;
