#TITLE:I Wanna Be Rich;
#SUBTITLE:;
#ARTIST:Calloway;
#TITLETRANSLIT:;
#SUBTITLETRANSLIT:;
#ARTISTTRANSLIT:;
#GENRE:;
#CREDIT:;
#MUSIC:I Wanna Be Rich.ogg;
#BANNER:BN.png;
#BACKGROUND:BG.png;
#CDTITLE:;
#SAMPLESTART:0.000;
#SAMPLELENGTH:0.000;
#SELECTABLE:YES;
#OFFSET:-0.207;
#BPMS:0.000=114.209;
#STOPS:;
#BGCHANGES:;
#FGCHANGES:;

//--------------- dance-single - ----------------
#NOTES:
     dance-single:
     :
     Beginner:
     3:
     0,0,0,0,0:
0000
0000
0000
0000
,
0000
1000
0000
1000
,
0000
0001
0000
0001
,
0000
1000
0000
0000
,
1001
0000
0000
0001
,
0000
0100
0000
0010
,
0000
1000
0000
0001
,
0000
0100
0000
0000
,
1001
0000
0000
1000
,
0000
0001
0000
0100
,
0000
0010
0000
1000
,
0000
0100
0000
0000
,
1001
0000
0001
0000
,
0100
0100
0100
0000
,
0001
0000
0000
0000
0000
0000
0000
2000
,
0000
0000
3000
0000
,
1001
0000
0000
1000
,
0000
0001
0000
0100
,
0000
0010
0000
1000
,
0000
0001
0000
0100
,
0000
0010
0000
1000
,
0000
0100
0000
0010
,
0000
0100
0000
1000
,
0000
0010
0000
0000
,
1001
0000
0001
0001
,
0000
1000
0000
0010
,
0000
0100
0000
0001
,
0000
1000
0000
0000
,
1001
0000
0100
0100
,
0000
0001
0000
1000
,
0000
0001
0000
0100
,
0000
0000
0001
0000
,
1001
0000
0000
0000
0000
0000
0000
0010
,
0000
0000
1000
0000
,
1001
0000
0000
0000
0000
0000
0000
0001
,
0000
0000
1000
0000
,
0001
0000
0001
0000
0001
0000
0000
0100
,
0000
0000
0010
0010
,
0010
0000
0000
0000
0000
0000
0000
1000
,
0000
0000
0000
0001
0000
0000
0000
0000
,
1001
0000
0000
0000
;

//--------------- dance-single - ----------------
#NOTES:
     dance-single:
     :
     Easy:
     4:
     0,0,0,0,0:
0000
0000
0000
1001
,
1000
0001
0000
1001
,
1000
0001
0000
1001
,
1000
0001
0000
1000
,
1001
0001
0000
0100
,
0010
1000
0000
0001
,
1001
1000
0000
0010
,
0001
0010
1000
0100
,
1001
0001
0100
0010
,
1000
0001
1000
0001
,
1000
0100
1000
0010
,
0000
1000
0000
0001
,
1001
2000
3002
0003
,
0200
0320
0230
0300
,
1001
0000
0001
0000
0000
0000
0000
2000
,
0000
3000
0000
0002
0000
0003
0000
0000
,
1001
1000
0001
0100
,
0000
1001
0001
0001
,
1000
0001
1000
0100
,
1000
0001
0000
1001
,
1000
0001
0100
0010
,
1000
0001
0000
1000
,
0001
1000
0100
1000
,
0001
0100
0000
0001
,
1001
0000
1000
0000
0001
0000
0000
1000
,
0000
0000
0001
0000
0100
0000
0000
0100
,
0000
0000
0010
0000
1000
0000
0000
2002
,
0000
0000
0000
0000
0000
3003
0000
0000
,
0010
0000
0100
0000
0010
0000
0000
0100
,
0000
0000
0010
0000
1000
0000
0000
0001
,
0000
0000
1000
0000
0001
0000
0000
2002
,
0000
3003
1000
0001
,
1001
0000
0000
0000
0000
0000
0000
2000
,
0000
3000
0000
0000
0010
0000
0100
0000
,
0110
0000
0000
0000
0000
0000
0000
0200
,
0000
0300
0000
0000
0010
0000
1000
0000
,
1001
0020
0230
0300
,
0020
2030
3020
0030
,
1001
0000
0000
0000
0000
1000
0000
1000
,
0000
0001
0000
0100
0000
0000
0000
0000
,
1001
0000
0000
0000
;

//--------------- dance-single - ----------------
#NOTES:
     dance-single:
     :
     Medium:
     9:
     0,0,0,0,0:
0000
0000
0000
1001
,
1000
0000
1000
0001
0000
1000
1001
0000
,
0001
0000
0100
0010
0000
0010
1000
0010
,
1000
0000
1000
0001
0000
0100
0010
0000
,
1010
0000
0100
0001
0000
1000
1001
0000
,
0001
0000
0100
0010
0000
1000
0001
0100
,
0110
0000
0000
0000
1000
0000
0000
1000
0000
0000
0001
0000
1001
0000
0000
0000
,
1000
0000
0001
0000
0000
0100
0000
0000
0020
0000
0000
0000
0030
0000
0000
0000
,
2002
0000
0000
0000
0000
0000
3003
1001
,
0000
0000
0001
0100
0010
1000
0100
0010
,
0011
0000
0000
0000
0001
0000
0000
1000
0000
0000
0000
0000
1000
0000
1010
0000
,
0000
0000
0010
0000
0010
0000
0100
0000
0000
0010
0000
0000
0100
0000
0001
0000
,
0010
0000
0021
0000
0032
0000
1003
0010
,
0200
0000
0320
0000
1030
0100
1000
0001
,
1001
0000
0000
0000
1000
0000
0000
1000
0000
0000
0010
0000
0100
0000
0110
0000
,
0000
0100
0001
2000
0000
3010
0100
0000
,
0001
1000
0100
1000
0001
0100
0010
1000
,
0100
0010
0000
0000
0001
0100
0001
0100
,
0001
0000
1000
0100
0010
0100
1000
0001
,
0100
0010
1000
0000
0100
0000
1100
0000
,
0010
0001
0100
0010
1000
0100
1000
0001
,
0010
0100
1000
0001
0100
0000
0110
0000
,
0010
1000
0100
1000
0001
0010
0100
0010
,
0001
0100
0010
0000
0000
1000
0001
0000
,
1001
0000
1000
0000
0001
0100
0000
0101
,
0000
0001
0100
0010
1000
0100
0000
2000
,
0000
3010
0100
0001
1000
0100
0010
0200
,
0000
0000
0000
0300
0000
0000
0010
0000
,
1001
0000
1000
0000
0001
0100
0000
0101
,
0000
0010
1000
0100
1000
0001
1000
0200
,
0000
0301
0100
1000
0010
0100
0001
2000
,
0000
3000
0001
0100
0010
1000
0010
0000
,
1010
0000
1000
0000
0001
0000
0000
0100
0000
0000
0010
0000
1000
0000
2020
0000
,
0000
3030
1000
0001
0100
0010
1000
0000
,
0001
0000
0100
0000
0010
0000
0000
1000
0000
0000
0100
0000
0010
0000
0022
0000
,
0000
0033
0100
1000
0010
0100
0001
0000
,
1000
0000
1010
0000
1001
0000
1000
0020
,
0100
0030
0101
0000
0001
1000
1000
0000
,
1001
0000
0000
0000
0100
0000
0000
1000
0000
0000
0100
0000
0100
0000
1000
0000
,
0000
1000
0100
0001
0100
1000
0000
0000
,
1001
0000
0000
0000
;

//--------------- dance-single - ----------------
#NOTES:
     dance-single:
     :
     Hard:
     12:
     0,0,0,0,0:
0000
0000
0000
1001
,
0001
0000
0000
0001
1000
0000
0001
0000
0000
0000
1000
0000
1001
0000
0000
0000
,
0001
0000
0000
0100
0010
0000
2000
0000
3000
0000
0010
0000
1010
0000
1000
0000
,
1000
0000
0000
0001
0100
0000
0010
0000
1000
0001
1000
0000
1001
0000
0000
0000
,
0202
0303
0000
0001
0100
0000
0010
1000
0000
0000
0010
0000
2000
0000
3000
0000
,
0001
0000
0000
1000
0001
0000
0001
0100
0000
0000
0010
0000
1000
0001
0100
0000
,
0202
0000
0303
0000
0001
0000
0100
0010
0000
0000
1000
0000
1001
0000
0001
0000
,
0001
0000
1000
0100
1000
0010
0100
0001
1000
0010
0100
0010
1000
0001
1000
0000
,
1001
0000
0000
0001
0100
0000
0100
0010
0000
0000
1000
0000
0001
0000
2002
3003
,
0100
0000
0000
0100
0010
1000
0010
0000
0100
0000
0001
0000
1000
0010
0100
0000
,
0220
0330
0000
0010
1000
0000
0001
0100
0000
0000
0010
0000
1000
0000
0022
0033
,
0001
0000
0010
1000
0001
0000
0100
0010
0000
0200
0300
0010
2000
3001
0100
0000
,
0102
0000
0000
0000
0203
0000
0000
0000
0310
0000
1000
0000
1010
0000
0020
0030
,
0100
0000
0000
0001
0100
0000
0010
0100
0001
0010
0001
0000
1000
0000
0010
0000
,
1010
0000
0000
0100
0001
0000
0001
0100
0000
0000
0010
0000
0110
0000
0200
0000
,
0000
0000
0301
0100
0010
0000
0200
0000
0310
1000
0010
0000
1000
0001
0010
0001
,
0100
0010
1000
0100
0001
1000
0010
0001
,
1000
0000
0100
0010
0100
0000
1000
0000
0001
0000
0001
0000
0100
0000
0010
0000
,
0100
0010
1000
0100
0001
0100
1000
0010
,
0100
0000
0001
0100
0010
0000
1000
0000
0000
0000
0001
0000
1001
0000
1000
0010
,
0100
0010
0100
0001
1000
0100
0001
0100
,
1000
0000
0010
0000
1000
0000
0001
0000
0100
0010
1000
0000
0001
0100
0010
1000
,
0000
1000
0001
0100
0010
0010
1000
0100
,
0001
0100
0100
0000
0000
0010
1000
0000
,
1001
0000
0000
0001
0100
0000
0010
0000
1000
0000
0001
0000
0100
0000
0220
0330
,
0000
0000
0010
0000
1000
0000
0001
0000
0100
0010
0000
1000
0000
0000
2000
0000
,
0000
0000
3100
1000
0001
0000
0100
0000
0010
0000
1000
0000
0100
0000
0022
0000
,
0000
0000
0000
0033
0100
0000
1000
0000
,
0110
0000
0000
0000
0010
0000
0000
0000
1000
0000
0010
0000
0100
0000
0220
0330
,
0000
0000
0100
0000
0001
0000
0100
0000
0010
0000
0000
0010
0000
0000
0010
0000
,
0000
0100
0001
0100
0010
1000
0100
2000
,
0000
0000
0000
0000
0000
0000
3010
0000
0100
0010
0100
0010
0100
0000
0000
0000
,
1010
0000
1000
0000
0100
1000
0000
0001
0000
1000
0100
0000
0010
0000
0002
0000
,
0000
1003
1010
0010
0100
0001
2000
3000
,
1010
0000
0010
0000
0100
0000
0001
0010
0000
0010
0100
0000
1000
0000
0020
0000
,
0000
0130
0101
0001
0100
0010
1000
0010
,
1010
0000
0210
0000
0301
0100
0101
0001
,
1000
0000
1010
0010
0100
0001
0100
0000
,
0010
0000
1000
0001
0100
0000
0010
0010
0000
0000
0100
0000
0001
0000
0200
0000
,
0000
0000
0310
0000
1000
0000
0100
0000
0010
0000
0100
0000
1000
0001
1000
0001
,
1000
0000
0000
0000
;
