#TITLE:I Turn To You (Hex Hector Radio Edit);
#SUBTITLE:;
#ARTIST:Melanie C;
#TITLETRANSLIT:;
#SUBTITLETRANSLIT:;
#ARTISTTRANSLIT:;
#GENRE:;
#CREDIT:;
#MUSIC:I Turn to You.ogg;
#BANNER:;
#BACKGROUND:;
#CDTITLE:;
#SAMPLESTART:0.000;
#SAMPLELENGTH:0.000;
#SELECTABLE:YES;
#OFFSET:-0.115;
#BPMS:0.000=138.000;
#STOPS:;
#BGCHANGES:;
#FGCHANGES:;

//--------------- dance-single - ----------------
#NOTES:
     dance-single:
     :
     Beginner:
     4:
     0,0,0,0,0:
0000
0000
0000
0000
,
0000
0000
0000
0000
,
0000
1000
0000
0000
,
0000
0000
0000
0000
,
0000
1001
0000
0001
,
0000
1000
1000
1000
,
0000
1001
0000
0001
,
0000
0010
0010
0010
,
0000
1001
0000
1000
,
0000
0001
0001
0001
,
0000
0100
0000
0010
,
0000
1000
1000
1000
,
0000
1001
0000
0001
,
0000
0100
0000
0010
,
0000
0001
0000
1000
,
0000
0001
0001
0001
,
0000
1000
0000
0001
,
0000
0100
0000
0010
,
0000
1000
0000
0001
,
0000
0100
0000
0010
,
0000
1000
1000
1000
,
0000
0010
0010
0010
,
0000
0100
0100
0100
,
0000
0001
0000
0100
,
0000
1001
0000
0001
,
0000
0100
0000
0010
,
0000
1000
0000
0100
,
0000
0010
0000
0001
,
0000
0100
0000
0010
,
0000
1000
0000
0001
,
0000
1000
0000
0100
,
0000
1001
0000
0001
,
0000
1001
0000
1000
,
0000
0010
0000
0100
,
0000
0001
0000
1000
,
0000
0100
0000
0010
,
0000
0100
0000
0010
,
0000
0001
0000
0100
,
0000
0010
0000
1000
,
0000
0001
0000
1000
,
0000
1001
0000
0001
,
0000
0100
0000
1000
,
0000
0100
0000
0010
,
0000
1000
0000
0001
,
0000
2000
0000
3000
,
0000
0002
0000
0003
,
0000
1000
0000
0001
,
0000
0100
0100
0100
,
0000
1001
0000
0000
,
0001
0000
1000
0000
,
0010
0000
0100
0000
,
0001
0000
1000
1000
,
0000
0001
0000
0001
,
0000
0100
0000
0010
,
0000
1000
0000
0001
,
0000
1001
1001
1001
,
1001
1001
0000
0000
,
0000
0010
0010
0010
,
0000
0100
0000
0001
,
0000
1000
0000
0010
,
0000
0100
0000
0001
,
0000
1000
0000
0100
,
0000
1000
1000
1000
,
0000
0001
0001
0001
,
0000
1001
0000
0000
;

//--------------- dance-single - ----------------
#NOTES:
     dance-single:
     :
     Easy:
     6:
     0,0,0,0,0:
0000
0000
0000
0000
,
0000
0000
0000
0000
,
0000
0000
1000
0000
0000
0001
0000
0000
,
0000
0000
0000
0000
,
0000
1001
0000
1000
,
0000
0001
1000
0010
,
0100
1001
0000
1001
,
0000
0001
0100
0010
,
1000
1001
0000
0001
,
0000
1000
0001
0100
,
0010
1000
0000
1000
,
0000
0001
0100
0010
,
1000
1001
0000
0001
,
0000
0100
0000
0010
,
1000
1001
0010
1001
,
0010
1001
0001
1000
,
0001
1000
0001
0100
,
0010
1000
0100
1000
,
0001
1000
0010
0100
,
0001
1000
0100
0010
,
0001
1000
0001
1000
,
0001
1000
0010
0100
,
0001
0010
0100
1000
,
0010
0100
0001
1000
,
0100
1001
0001
0000
,
0001
0000
1000
0001
,
0100
0000
0010
0000
,
1000
0000
0001
0000
,
1000
0000
0100
0010
,
0001
0000
0100
0010
,
1000
0000
0001
1000
,
0100
1001
1000
0100
,
0001
0100
1000
0010
,
0100
0001
0010
0100
,
1000
0001
0010
0100
,
0010
0001
1000
0100
,
0001
0100
0010
0100
,
1000
0001
0100
0010
,
1000
0100
0010
0100
,
1000
0001
1000
0001
,
0100
1000
0010
0001
,
0100
0010
1000
0100
,
0001
0100
1000
0001
,
0010
1000
0010
0001
,
0100
0010
1000
0100
,
0001
0100
1000
0001
,
0100
0010
1000
0001
,
0010
0110
0000
0000
,
1000
1001
0001
0001
,
0000
1000
0000
0000
0001
0000
0001
0000
,
0000
0100
0010
1000
,
0000
1000
0000
0000
0001
0000
1000
0000
,
0000
1001
0000
0001
,
0000
1000
0000
0001
0000
0100
0000
0010
,
0000
1000
0000
0000
0000
0000
0000
0000
,
0000
0110
0110
0011
,
0011
0000
1001
0000
0000
0000
0000
1000
,
0000
0001
0000
1000
0000
0010
0000
0000
,
0000
0000
0000
0100
,
0000
0001
0000
1000
0000
0001
0000
0000
,
0000
1000
0100
0001
,
0100
1000
0010
0001
,
0010
1000
0100
0001
,
0100
1001
1001
0110
,
0110
1001
0000
0000
;

//--------------- dance-single - ----------------
#NOTES:
     dance-single:
     :
     Medium:
     9:
     0,0,0,0,0:
0000
0000
0000
0000
,
0000
0000
0000
0000
,
0000
0000
1000
0000
0000
0001
0000
0000
,
0000
1000
0001
0100
,
0010
0000
1000
0001
1000
0000
0001
0100
,
0001
1000
0010
0100
,
0001
0000
0001
1000
0001
0000
1000
0010
,
1000
0000
0001
0100
0001
0100
0010
1000
,
0010
1000
0001
1000
0010
0000
0100
0001
,
0100
0010
1000
0100
,
0001
0000
0100
1000
0100
0000
0010
0001
,
0100
0010
1000
0100
,
0010
0000
0001
1000
0001
0000
0100
0010
,
0100
0000
0001
1000
0100
0000
1000
0001
,
0010
0000
0001
1000
0001
0000
1000
0100
,
1000
0000
0001
0100
0001
0000
1000
0001
,
1000
0001
1000
0000
0001
0100
0001
0100
,
0000
0010
0000
1000
0000
0001
0100
0001
,
0000
1000
0000
0010
0000
0100
0000
0000
,
0000
0001
1000
0100
,
0010
0000
0001
0000
0000
1000
0001
1000
,
0000
0010
0000
0100
0000
0001
1000
0001
,
0000
1000
0000
0000
0001
0000
0010
0000
,
0100
1000
0001
1000
,
0001
0000
1001
1000
0001
0100
0000
0010
,
0000
1000
0000
0100
0010
0001
0010
0100
,
0000
1000
0001
0000
1000
0000
0010
0000
,
0100
0001
0010
0100
,
1000
0000
0001
1000
0000
0010
0000
0100
,
0000
0001
0000
1000
0000
0100
0010
0000
,
0001
0100
0010
0000
1000
0000
0100
0000
,
0010
1001
1000
0100
,
0001
0100
1000
0000
0001
0000
0010
0000
,
1000
0010
0001
0010
0000
1000
0000
0001
,
0000
0100
0010
0000
1000
0010
0100
0000
,
0010
0100
0001
0000
1000
0000
0100
0000
,
0001
0100
1000
0000
0001
0000
0100
0000
,
0001
1000
0100
0000
0001
0100
0000
1000
,
0000
0010
1000
0000
0001
0000
0100
0000
,
0010
0000
1000
0100
0010
0001
0000
0010
,
0000
1000
0100
0000
0001
0000
0100
0000
,
0001
0000
0001
0100
1000
0100
0000
0010
,
0000
1000
0100
0000
0010
0000
0100
0000
,
0100
0001
1100
0001
,
1000
0100
0001
0000
0100
0000
1000
0100
,
0010
0000
0001
0100
1000
0000
0100
0001
,
0100
0010
1000
0001
,
0100
1010
0110
0101
,
1000
0001
1000
0000
0001
0000
1000
0000
,
0000
0001
0000
0100
0010
0000
1000
0000
,
0000
0001
0110
0001
,
0100
0010
0000
1000
0001
0000
1000
0000
,
0001
0000
0100
0010
1000
0000
0001
1000
,
0000
1001
0000
0101
0000
0110
0000
1010
,
0000
1000
0001
0000
0100
0000
0010
0000
,
1000
0000
0001
0100
0001
0010
0001
0100
,
0010
0100
0001
1000
0100
0000
0010
0001
,
0000
0100
0000
0101
0000
1010
0000
1000
,
0100
0000
0010
0001
0100
0000
0010
1000
,
0000
0001
0000
1000
0000
0100
0000
0001
,
0100
1000
0000
0001
0000
1000
0000
0001
,
0100
1000
0000
0100
0000
1000
0000
0100
,
0001
0100
0010
0000
1000
0001
1000
0000
,
0010
0100
0101
0000
1010
0000
1001
0000
,
0001
1000
1001
0000
0000
0000
0000
0000
;

//--------------- dance-single - ----------------
#NOTES:
     dance-single:
     :
     Hard:
     12:
     0,0,0,0,0:
0000
0000
0000
0000
,
0000
0000
0000
0000
,
0000
0000
1001
0000
0000
0101
0000
0000
,
0000
0000
0000
0000
,
0000
0000
0000
0000
1001
0000
0001
0100
0001
0000
0100
0000
0010
0000
1000
0001
,
1000
0010
1000
0100
0010
0001
0100
0001
,
1000
0000
0010
0000
0100
0000
0001
1000
0001
0000
0010
0000
0100
0000
1000
0100
,
1000
0000
0001
0000
0100
0010
0100
0010
1000
0001
1000
0001
0100
0000
0000
0000
,
0010
0000
1001
0001
0100
0010
0000
1000
,
0100
0010
0000
0001
0100
0010
1000
0100
,
1000
0000
0001
0000
0100
0000
0010
1000
0010
0000
1000
0000
0000
0000
0001
0010
,
0001
0100
0001
0100
0010
1000
0100
0010
,
0001
0000
0010
0000
0001
0000
0100
0001
0010
0000
0001
0000
1000
0000
0001
0100
,
0010
0000
1000
0000
0001
0000
1000
0100
0010
0000
0001
0000
0010
0000
0100
1000
,
0001
0000
0100
0000
0101
0000
0010
1000
0001
0000
1000
0000
1001
0000
0001
0100
,
0010
0000
1000
0000
0001
0000
0100
0010
0100
0000
0001
0000
0100
0000
0010
0000
,
1000
0001
0010
0001
1000
0100
1000
0100
,
0010
0100
1000
0100
0010
0001
0100
0001
,
0100
0010
1000
0010
0100
0010
0100
0001
,
1000
0100
0010
0001
0100
0010
1000
0001
,
0010
0100
1000
0010
0001
0010
1000
0010
,
0100
0001
1000
0100
0001
0100
1000
0010
,
0100
0001
1000
0100
0001
0100
1000
0010
,
0100
0000
0001
0010
1000
0010
0001
0100
,
0010
1000
1001
1000
0100
0010
0100
0001
,
0100
0010
0000
0100
1000
0001
0100
0010
,
0100
1000
0100
0001
0010
0100
1000
0001
,
0100
0010
1000
0100
0010
0100
1000
0010
,
0100
0001
1000
0001
0100
1000
0100
0001
,
0100
1000
0100
0001
0100
0010
0010
0000
,
0100
0100
0010
1000
0100
0010
0001
0100
,
0001
0010
0011
0000
1000
0000
0100
0001
,
0100
1000
1001
0001
0010
0100
1000
0010
,
0100
0001
0100
1000
0100
0001
0100
0010
,
0100
0000
0001
0000
1000
0000
0100
0000
0010
0000
0001
0000
0100
0000
0001
1000
,
0001
0010
0100
1000
0001
0100
1000
0100
,
0001
0000
0100
0000
0010
0000
1000
0000
0100
0000
0001
0000
0100
0000
1000
0010
,
1000
0100
0100
0000
0010
0010
0000
1010
,
0000
0000
0101
0000
0000
0000
0001
0000
0100
0000
0010
0000
0100
0000
0001
0010
,
0100
1000
0001
0100
1000
0010
0000
0001
,
0000
0100
0110
0000
0010
0000
1000
0100
,
0001
0100
1000
0010
0100
0001
0100
1000
,
0100
0001
0100
0010
0100
0001
1000
0100
,
0010
0001
0100
0010
1000
0000
1010
0000
,
1000
0100
0001
0100
1000
0010
0100
0010
,
1000
0100
0001
0100
1000
0010
0100
0001
,
0010
0100
1000
0010
0100
0000
0001
0100
,
0010
0000
0000
0000
1001
0000
1000
0000
0010
0000
0100
0000
0001
0000
1000
0010
,
1000
0001
1000
0010
0100
0000
0000
0000
0101
0000
0000
0000
0110
0000
0000
0000
,
0000
0010
0000
1000
0001
0000
0100
0000
,
0010
1001
0101
0110
,
0010
1000
0000
0010
0100
0000
0001
0000
,
0100
0001
0100
0010
1000
0100
0010
0010
,
0000
0001
0000
0100
0000
0010
0000
0100
,
0000
0010
1000
0001
0010
0000
0100
1000
,
0010
0101
1001
1010
,
1000
0001
0101
0000
0100
0010
1000
0100
,
0001
0100
1000
0010
0100
0001
0010
0100
,
1000
0001
0100
0000
0001
0000
1000
0100
,
0010
0001
0100
0001
1000
0100
0000
1000
,
0100
0001
0101
0100
1000
0010
0000
1000
,
0100
0001
0100
1000
0010
0100
0001
1000
,
0100
0001
0101
0100
0010
1000
1010
0010
,
0100
0001
1001
0000
1010
0000
0110
0000
,
0100
0100
1001
0000
0000
0000
0000
0000
;

//--------------- dance-double - ----------------
#NOTES:
     dance-double:
     :
     Hard:
     13:
     0,0,0,0,0:
00000000
00000000
00000000
00000000
,
00000000
00000000
00000000
00000000
,
00000000
00000000
00011000
00000000
00000000
00101000
00000000
00000000
,
00000000
00000000
00000000
00000000
,
00000000
00000000
00000000
00000000
10010000
00000000
10000000
00010000
10000000
00010000
10000000
00000000
00100000
00000000
01000000
00001000
,
01000000
00001000
01000000
00000000
00001000
00000000
00010000
00000000
00000100
00000000
00001000
00000000
00000001
00000000
00000100
00000000
,
00000010
00000000
00010000
00000000
00011000
00000000
00001000
00100000
00001000
00100000
00001000
00000000
01000000
00000000
00010000
00100000
,
00010000
00100000
00010000
00000000
10000000
00010000
10000000
00000000
00010000
00100000
00010000
00000000
01000000
00010000
01000000
00010000
,
00100000
00001000
00100000
00001000
00010000
00000000
00000100
00001000
00000100
00001000
00000100
00000000
00001000
00000000
00000001
00000010
,
00000100
00000010
00000001
00000000
00000100
00000000
00000010
00000000
00001000
00000000
00000100
00000000
00010000
00000000
00001000
00010000
,
00001000
00000000
00010000
00000000
00001000
00000000
01000000
00100000
01000000
00100000
01000000
00000000
00010000
00000000
10000000
01000000
,
00100000
01000000
10000000
00000000
00010000
00000000
00100000
00000000
00001000
00000000
00010000
00000000
00000010
00000000
00000100
00000000
,
00000010
00000000
00010000
00000000
00011000
00000000
00001000
00100000
00010000
00100000
00001000
00000000
00010000
00000000
00000100
00001000
,
00000100
00010000
00000100
00000000
00001000
00000000
00000001
00000100
00000010
00000100
00000001
00000000
00001000
00000000
00000100
00001000
,
00000100
00000000
00010000
00000000
00011000
00000000
00001000
10000000
01000000
00000000
10000000
00000000
10010000
00000000
00010000
01000000
,
00001000
00000000
00010000
00000000
00010100
00000000
00000100
00001000
00000100
00000000
00001000
00000000
00000100
00000000
00001000
00000001
,
00000100
00000010
00001010
00000000
00001000
00000100
00010000
01000000
,
10000000
00100000
01000000
00001000
00010000
00000010
00000100
00000001
,
00000010
00000001
00000100
00000010
00001000
00000100
00010000
00001000
,
00010000
00000000
00001000
00100000
00001000
00000000
01000000
00100000
,
10000000
00000000
00010000
10010000
00000000
01010000
00000000
00110000
,
00000000
00011000
00000000
00001100
00000000
00001000
00000001
00000100
,
00000000
00000010
00001000
00000100
00000001
00000100
00001000
00010000
,
01000000
10000000
01000000
00100000
10000000
00010000
01000000
00100000
,
01000000
00001000
00011000
00010000
00000100
00000001
00000100
00001000
,
00000100
00010000
00001000
01000000
00010000
01000000
10000000
01000000
,
00100000
10000000
00010000
00100000
00010000
00000000
00100000
00001000
,
00100000
00000000
00001000
00010000
00000100
00000000
00001000
00000001
,
00001000
00000010
00000100
00000001
00000010
00001000
00000010
00000001
,
00000010
00001000
00000010
00000001
00000100
00000010
00000010
00000000
,
00010000
00010000
00001000
00100000
01000000
00100000
00001000
00100000
,
00010000
01000000
01010000
00000000
00010000
00100000
10000000
00100000
,
00010000
00001000
00000100
00000001
00000100
00001000
00010000
00100000
,
10000000
00100000
00010000
10000000
01000000
00010000
01000000
00001000
,
00010000
00000000
00100000
00000000
00001000
00000000
00010000
00000000
00001000
00000000
00000010
00000000
00000001
00000000
00000010
00000001
,
00001000
00000100
00010000
00100000
10000000
00100000
01000000
00100000
,
00010000
00001000
00000100
00000001
00000010
00001000
00010000
00100000
,
10000000
00010000
00010000
01000000
10000000
10000000
01000000
00010000
,
01000000
00001000
00010000
00000100
00000001
00000100
00001000
00000010
,
00000001
00000010
00001000
00010000
01000000
10000000
00000000
00100000
,
00000000
00010000
01000000
00100000
10000000
00100000
00010000
00001000
,
00000010
00000001
00001000
00000001
00000100
00001000
00010000
00100000
,
10000000
00000000
00100000
00000000
00010000
00000000
00100000
00000000
01000000
00000000
00100000
00000000
10000000
00000000
00010000
01000000
,
00010000
01000000
00001000
00010000
00001000
00100000
01000000
00100000
,
00001000
00010000
00000010
00000100
00000010
00010000
00001000
00100000
,
00010000
00000000
10000000
00000000
01000000
00000000
00010000
00000000
00001000
00000000
00000010
00000000
00000001
00000000
00001000
00000100
,
00001000
00000010
00001000
00000100
00010000
00001000
01000000
00100000
,
10000000
00000000
00010000
00000000
10010000
00000000
10000000
00000000
00001000
00000000
00010000
00000000
00001000
00000000
00010000
00000100
,
00010000
00001000
00010000
00000010
00000100
00000000
00000000
00000000
00000101
00000000
00000000
00000000
00000011
00000000
00000000
00000000
,
00000001
00001000
00000000
00000010
00001000
00000000
00000001
00000000
,
00001000
00001100
00011000
10010000
,
10000000
00010000
00000000
01000000
00010000
00000000
01000000
00100000
,
10000000
00000000
00010000
01000000
00010000
01000000
00010000
00010000
,
00000000
01010000
00000000
00110000
00000000
00101000
00000000
00010100
,
00000000
00010000
00000100
00001000
00000010
00000100
00000001
00000010
,
00000001
00000000
00000100
00000000
00000110
00000000
00000000
00000000
00010010
00000000
00000000
00000000
00010100
00000000
00000100
00001000
,
00000100
00001000
00000100
00000000
00001000
00000100
00000000
00000000
00000010
00000001
00000000
00000000
00000001
00000010
00000000
00000000
,
00000100
00001000
00000000
00000000
00010000
00001000
00000000
00000000
00010000
00000100
00000000
00000000
00100000
00000000
00001000
00010000
,
00001000
00000000
01000000
00000000
00010000
10000000
00000000
00000000
00010000
01000000
00000000
00000000
00010000
00000000
01000000
00000000
,
00100000
00000000
10000000
00000000
00000000
00000000
00010000
00000000
00100000
00000000
00000100
00000000
00000000
00000000
00001000
00000100
,
00001000
00000010
00001010
00001000
00000010
00000001
00000010
00000100
,
00000001
00000100
00001000
00010000
00100000
10000000
01000000
00010000
,
01000000
00000000
10000000
00000000
00001000
00010000
00001000
00000000
00010000
00000000
00000100
00000000
00001000
00000100
00001000
00000000
,
00000010
00000100
00000001
00000100
00000010
00010000
00000100
00010000
,
00001000
00010000
00011000
00000000
00000000
00000000
00000000
00000000
;
