#TITLE:I Don't Know;
#SUBTITLE:;
#ARTIST:Erika;
#TITLETRANSLIT:;
#SUBTITLETRANSLIT:;
#ARTISTTRANSLIT:;
#GENRE:;
#CREDIT:;
#MUSIC:I Don't Know.ogg;
#BANNER:;
#BACKGROUND:;
#CDTITLE:;
#SAMPLESTART:0.000;
#SAMPLELENGTH:0.000;
#SELECTABLE:YES;
#OFFSET:-0.147;
#BPMS:0.000=130.000;
#STOPS:;
#BGCHANGES:;
#FGCHANGES:;

//--------------- dance-single - ITG 1 ----------------
#NOTES:
     dance-single:
     ITG 1:
     Beginner:
     1:
     0,0,0,0,0:
0000
0000
0000
0000
,
0000
0000
0000
0000
,
0000
0000
0000
0001
,
0000
0000
0000
0001
,
0000
0000
0000
1000
,
0000
0000
0000
0010
,
0000
0000
0000
0100
,
0000
0000
0000
0001
,
0000
0000
1001
0000
,
0001
0000
0000
0000
,
1000
0000
0000
0000
,
0010
0000
0000
0000
,
0100
0000
0000
0000
,
0001
0000
0000
0000
,
0100
0000
0000
0000
,
0010
0000
0000
0000
,
1000
0000
0001
0000
,
1000
0000
0000
0000
,
0010
0000
0000
0000
,
0100
0000
0000
0000
,
0001
0000
0000
0000
,
0100
0000
0000
0000
,
0010
0000
0000
0000
,
1000
0000
0000
0000
,
0001
0000
1001
0000
,
1000
0000
0000
0000
,
0010
0000
0000
0000
,
0100
0000
0000
0000
,
0001
0000
0000
0000
,
0100
0000
0000
0000
,
0010
0000
0000
0000
,
1000
0000
0000
0000
,
0001
0000
1000
0000
,
0010
0000
0000
0000
,
0100
0000
0000
0000
,
0010
0000
0000
0000
,
1000
0000
0000
0000
,
0001
0000
0000
0000
,
0100
0000
0000
0000
,
0000
0000
0010
0000
,
1000
0000
1001
0000
,
0001
0000
0000
0000
,
0010
0000
0000
0000
,
0100
0000
0000
0000
,
0001
0000
0000
0000
,
1000
0000
0000
0000
,
0001
0000
1001
0000
;

//--------------- dance-single - ITG 2 ----------------
#NOTES:
     dance-single:
     ITG 2:
     Easy:
     3:
     0,0,0,0,0:
0000
0000
0000
0000
,
0000
0000
0000
0000
,
0000
0000
1000
0000
,
1000
0000
0001
0000
,
0001
0000
0100
0000
,
0100
0000
0010
0000
,
0010
0000
1000
0000
,
0001
0000
1000
0000
,
0001
1000
1001
0000
,
0001
0100
0010
0000
,
1000
1000
1000
0000
,
0001
0100
0010
0000
,
1000
1000
1000
0000
,
0001
0000
0100
0000
,
0010
1000
0001
0000
,
2000
3000
0001
0000
,
0200
0300
1001
0000
,
0100
0010
1000
0000
,
0002
0003
1000
0000
,
0010
0100
0001
0000
,
0200
0300
0001
0000
,
1000
0001
0100
0000
,
0020
0030
1000
0000
,
0001
0001
1000
0000
,
0001
0000
1001
1000
,
0002
0003
2000
3000
,
0010
0000
0000
0010
0000
0000
0000
0000
,
0200
0300
0002
0003
,
1000
0000
0000
1000
0000
0000
0000
0000
,
0020
0030
0200
0300
,
0001
0000
1000
0000
,
0001
0100
0010
0000
,
1000
0000
1001
0000
,
0001
1000
0001
0000
,
0200
0000
0000
0300
0000
0000
0000
0000
,
0010
1000
0001
0000
,
2000
0000
0000
3000
0000
0000
0000
0000
,
0001
0100
0010
0000
,
2000
3000
1001
0000
,
0001
0000
1000
0000
,
0001
0000
1001
1000
,
0010
0000
0100
0001
,
0010
0000
0100
1000
,
0001
0000
0100
0010
,
1000
0000
0001
1000
,
0001
0000
0100
0000
,
0010
1000
2002
3003
;

//--------------- dance-single - ITG 4 ----------------
#NOTES:
     dance-single:
     ITG 4:
     Medium:
     6:
     0,0,0,0,0:
0000
0000
0000
0000
,
0000
0000
0000
0000
,
0000
0000
1000
0001
,
1000
0001
0100
0010
,
0100
0001
1000
0100
,
1000
0001
0100
0010
,
1000
0100
0010
0001
,
0100
0000
0010
0000
0000
1000
0000
0000
,
0001
1000
1001
0001
,
0200
0310
1000
0100
,
2000
0000
3001
0100
0001
0000
0010
0000
,
2000
3100
0010
0001
,
2000
0000
3010
1000
0100
0000
1000
0000
,
0002
0000
0103
0010
0000
1000
0010
0000
,
0100
0000
0001
0100
0000
0010
1000
0000
,
0010
0000
1000
0100
0000
0010
0000
0000
,
0001
0100
1010
2000
,
3001
0000
0100
0010
0000
0100
0010
0000
,
0200
0000
0301
0010
0000
0000
0100
0000
,
2000
0000
3001
0100
0000
0100
0010
0000
,
1000
0000
0001
0100
0000
0100
0010
0000
,
2000
0000
3100
0010
0000
0010
0001
0000
,
0100
0000
0010
1000
0000
0000
0001
0000
,
0100
0100
0000
0100
0000
0100
0010
0000
,
1000
0000
0001
1000
1001
0000
0001
0000
,
0100
0000
0010
1000
0000
0010
0000
0000
,
0200
0000
0301
0100
0000
0000
0001
0000
,
1000
0000
0001
0100
0000
0010
0000
0000
,
0020
0000
0031
0100
0000
0000
0010
0000
,
1000
0000
0001
0200
0000
0310
1000
0000
,
0001
0000
0100
0010
0000
0000
1000
0000
,
0001
0100
0000
0010
0000
1000
0001
0000
,
0100
0000
0010
1000
0001
0000
0100
0000
,
1000
0010
0001
0100
,
0020
0000
1030
0001
1000
0000
0001
0000
,
0010
0100
1000
0001
,
0200
0000
0310
1000
0001
0000
0100
0000
,
0010
1000
0100
1000
,
0200
0000
0310
0100
0010
0000
1000
0000
,
0001
1000
0100
0010
,
0001
1000
1001
0001
,
0100
0010
1000
0001
,
0010
0000
0100
1000
0000
0000
0001
0000
,
0100
0010
1000
0100
,
0010
0000
0001
0100
0010
0000
1000
0000
,
0100
0001
0100
1000
,
0001
0100
2002
3003
;

//--------------- dance-single - ITG 7 ----------------
#NOTES:
     dance-single:
     ITG 7:
     Hard:
     9:
     0,0,0,0,0:
0000
0000
0000
0000
,
0000
0000
0000
0000
,
0000
0000
1000
0001
,
1000
0000
0001
0000
0100
0010
0100
0000
,
0001
0000
1000
0001
1000
0100
1000
0000
,
0001
0100
0010
0000
1000
0001
0001
0000
,
0200
0300
0001
0100
0000
0001
0100
0000
,
0010
1000
0010
0000
0100
0001
0100
0000
,
0010
1000
0010
0000
1010
1000
0001
0100
,
0020
0000
1030
0100
0000
0001
0100
1000
,
0000
0001
0100
0010
0000
1000
0100
0010
,
0002
0000
0103
0010
0100
0010
1000
0000
,
0020
0000
0130
0001
1000
0010
1000
0010
,
2000
0000
3001
0100
0000
0010
1000
0000
,
0010
0000
1010
1000
0000
0001
0100
0010
,
2000
0000
3100
0010
0000
0001
0100
0010
,
2000
0000
3100
0010
0100
1000
0010
0000
,
1000
0000
0010
0020
0000
0130
0001
0010
,
0002
0000
0103
0010
0000
1000
0100
1000
,
0010
0000
0100
0020
0000
1030
0001
0000
,
1000
0000
1001
0001
0000
0001
0100
0010
,
1000
0000
0100
0020
0000
0031
0100
0000
,
0020
0000
1030
0100
0010
0000
1100
0000
,
1000
0001
1000
0010
0000
0100
0001
0000
,
0200
0000
0310
1000
1010
0010
0100
0001
,
0100
0010
1000
0100
0010
0001
0100
0010
,
2000
0000
3001
0100
0010
1000
0100
1000
,
0001
0010
0001
0100
0010
1000
0100
1000
,
0002
0000
0103
0010
1000
0100
1000
0010
,
0100
0001
0010
0001
1000
0100
1000
0001
,
0200
0000
0310
1000
0100
0000
1100
0000
,
0001
0010
0001
0100
0010
0000
1010
0000
,
2000
0000
3001
0100
0000
0100
0001
0000
,
1000
0000
0100
0001
0100
0001
0100
1000
,
0020
0000
0130
0001
0100
0010
1000
0100
,
0000
0010
0001
0010
0000
0100
1000
0010
,
2000
0000
3001
0100
0000
0010
1000
0100
,
0000
0001
0100
1000
0000
0010
0100
0001
,
2000
0000
3010
0100
0001
0010
0100
0000
,
1000
0010
0100
0001
0000
0001
0110
0000
,
0010
0000
1000
0001
1000
0010
0100
0000
,
0001
0000
0001
0000
1000
0010
1000
0000
0000
0000
0010
0000
1010
0000
0000
0000
,
1000
0000
0001
0100
0000
0100
0010
0000
,
1000
0000
0000
0000
0001
0100
0010
0000
0000
0000
0100
0000
0101
0000
0000
0000
,
0001
0000
0000
0000
1000
0001
1000
0000
0000
0000
0001
0000
0101
0000
0000
0000
,
0010
0000
0000
0000
1000
0001
1000
0000
0000
0000
0010
0000
0100
0000
0000
0000
,
0001
0000
0100
0010
2002
0000
3003
0000
;

//--------------- dance-double - ----------------
#NOTES:
     dance-double:
     :
     Hard:
     11:
     0,0,0,0,0:
00000000
00000000
00000000
00000000
,
00000000
00000000
00000000
00000000
,
00000000
00000000
00000000
00000000
00010000
00001000
00010000
00000100
,
00001000
00000100
00010000
00001000
00000000
00010000
00001000
00000000
,
00201000
00000000
00010000
00310000
01000000
00100000
10000000
01000000
,
00100000
00010000
01000000
00100000
10000000
00010000
00100000
00001000
,
00200000
00000000
00010000
00310000
00100000
00001000
00010000
00000100
,
00001000
00000000
00000010
00000100
00000000
00000001
00000100
00000100
,
00000020
00000000
00001000
00001030
00001010
00000010
00010000
00001000
,
00010000
00000010
00010000
00001000
00010000
00000010
00010000
00001000
,
00020000
00000000
00000010
00030010
00000100
00000001
00001000
00000100
,
00010000
00000010
00000100
00000001
00000100
00000010
00010000
00001000
,
00020000
00000000
00000100
00030100
00010000
00001000
01000000
00100000
,
01000000
00001000
01000000
00100000
10000000
00010000
01000000
00001000
,
02000000
00000000
00100000
03100000
01000000
00010000
01000000
00001000
,
00010000
00000100
00010000
00001000
00010000
00000100
00010000
00001000
,
01000000
00100000
10000000
00010000
10010000
10000000
00100000
01000000
,
00001000
00010000
00001000
00010000
00000010
00000100
00000010
00010000
,
00001000
00000010
00001000
00010000
00001000
01000000
00100000
01000000
,
00001000
00010000
00100000
00010000
00001000
00010000
00000100
00010000
,
00000200
00000000
00010000
00010000
00010300
00001000
00010000
00000010
,
00000100
00000001
00000100
00000010
00010000
00001000
00010000
00000100
,
00020000
00000000
00001000
00001000
00031000
00000000
00011000
00000000
,
00001000
00100000
00000000
00010000
00000000
01000000
01100000
00100000
,
20000000
00000000
00010000
30010000
00110000
00100000
01000000
10000000
,
01000000
00010000
00001000
00000010
00000001
00000010
00001000
00010000
,
01000000
10000000
00010000
00100000
00001000
00000010
00000001
00000100
,
00000010
00001000
00000100
00010000
00001000
00100000
00010000
10000000
,
00100000
00010000
00001000
00000010
00000001
00000010
00001000
00010000
,
00100000
10000000
00010000
10000000
01000000
00100000
00010000
10000000
,
20010000
00000000
00100000
00100000
30100000
01000000
00010000
00000000
,
00100000
00001000
00100000
00000000
00001000
00010000
00001000
00000000
,
00010000
00000000
00000100
00010000
00010100
00000100
00001000
00000001
,
00000010
00000001
00000100
00000010
00000100
00000001
00000010
00000100
,
00002000
00000000
00003100
00010000
00001000
01000000
00100000
10000000
,
00100000
01000000
00001000
00010000
00001000
00100000
00010000
01000000
,
00002000
00000000
01000000
01003000
00100000
10000000
01000000
10000000
,
00010000
00100000
00001000
00010000
00000100
00001000
00000010
00000100
,
00000002
00000000
00001000
00001003
00001100
00000000
00002000
00000000
,
00003100
00001100
00000100
00010100
,
00010000
00000000
00001000
00100000
00101000
00001000
00100000
00010000
,
00100000
00001000
00010000
00001000
00100000
00010000
00100000
00001000
,
00020000
00000000
00001000
00031000
00010000
00001000
00100000
00010000
,
01000000
00100000
10000000
01000000
00100000
00010000
01000000
00100000
,
20000000
00000000
00010000
30010000
00100000
00001000
00010000
00000010
,
00000100
00000010
00000100
00000001
00000010
00000100
00001000
00000010
,
00000200
00000000
00000301
00000100
00000001
00000010
00000011
00000000
,
00000010
00000100
00001100
00000000
00001000
00010000
00011000
00000000
,
00001000
00000000
00100000
00010000
00110000
00000000
00000000
00000000
;
